#TITLE:EGG;
#SUBTITLE:;
#ARTIST:ginkiha;
#TITLETRANSLIT:;
#SUBTITLETRANSLIT:;
#ARTISTTRANSLIT:;
#GENRE:;
#CREDIT:;
#BANNER:[Food Week] - EGG.png;
#BACKGROUND:[Food Week] - EGG-bg.png;
#LYRICSPATH:;
#CDTITLE:cdtitle.png;
#MUSIC:[Food Week] - EGG.ogg;
#OFFSET:-0.553000;
#SAMPLESTART:40.961166;
#SAMPLELENGTH:9.795918;
#SELECTABLE:YES;
#BPMS:0.000000=196.000000
;
#STOPS:
;
#BGCHANGES:;
#KEYSOUNDS:;
#ATTACKS:;

//---------------dance-single - ----------------
#NOTES:
     dance-single:
     :
     Hard:
     9:
     0.742425,0.799035,0.658902,0.556819,0.134565,560.000000,489.000000,71.000000,60.000000,13.000000,0.000000,0.742425,0.799035,0.658902,0.556819,0.134565,560.000000,489.000000,71.000000,60.000000,13.000000,0.000000:
0000
0000
0000
0000
,
0000
0000
0000
0000
,
0000
0000
0000
0000
,
0000
0000
0000
0000
,
1010
0000
0001
1000
0100
0100
0000
1001
,
0000
0000
0001
0000
0100
0000
0010
1000
,
0002
0000
0000
0023
0000
0000
0230
0000
,
0000
2300
0000
0000
3002
0000
2000
0000
,
0000
0000
0000
3003
,
2001
0000
0001
0000
3100
0001
1000
0010
,
M000
0010
0001
0100
0000
0110
0000
0100
,
0001
0010
0100
1000
0010
0100
0001
1000
,
0000
1010
0000
0110
0000
0101
0000
0000
,
1002
0000
1003
0000
1000
0100
0010
0100
,
00M0
0100
0001
1000
0000
1010
0000
0001
,
1001
0000
0000
1010
0000
0000
1001
0000
,
0000
0011
0000
0000
0110
0000
1001
0000
,
0001
0100
0001
1000
0100
0010
0100
1000
,
0M00
1000
0100
0001
0100
1000
0100
0010
,
1000
0100
1000
0001
0010
0100
0010
0001
,
1000
0010
0100
0001
1000
0001
0100
0010
,
1000
0100
1000
0001
0010
0100
0010
0001
,
00M0
0001
0010
1000
0010
0001
0010
0100
,
0001
1000
0001
0100
0001
1000
0100
0010
,
0M00
0010
0100
0001
0010
0001
1000
0001
,
0100
0010
0100
0001
0010
0100
0010
0001
,
00M0
0001
0010
1000
0100
0001
0100
1000
,
0001
0010
0001
1000
0010
0100
0010
1000
,
0001
0010
1000
0010
0100
0010
0001
1000
,
0001
0100
0001
1000
0100
0010
0100
1000
,
0M00
1000
0100
0001
0010
1000
0010
0001
,
1001
0000
0000
1100
0000
0000
1001
0000
,
0000
0000
0101
0000
0000
0000
0000
0000
0100
0010
0100
0010
0100
0000
0100
0000
,
0101
0000
0000
0000
1001
0000
0000
0001
0010
0000
0110
0000
0000
0000
1001
0000
,
0000
0001
1000
0100
0010
0100
1000
0001
,
0100
1000
0100
0001
0100
1000
0100
0010
,
0M00
0000
0010
0000
0100
0000
0000
0100
1000
0000
0000
0000
1001
0000
0000
0000
,
1010
0000
0000
0000
1001
0000
0000
1000
0010
0000
0110
0000
0000
0000
1001
0000
,
0000
1000
0001
0100
0010
0100
0001
1000
,
1010
0000
0000
0011
0000
0000
0110
0000
,
0000
1001
0001
0100
0101
0000
0011
0000
,
1010
0000
0000
0000
1001
0000
0000
0001
0100
0000
0110
0000
0000
0000
1001
0000
,
0000
1000
0001
0010
0100
0010
0001
1000
,
0010
0001
0010
1000
0010
0001
0010
0100
,
00M0
0000
0100
0000
0010
0000
0000
0010
0001
0000
0000
0000
1001
0000
0000
0000
,
1010
0000
0000
0000
1001
0000
0000
1000
0100
0000
0110
0000
0000
0000
0001
0000
,
1001
0000
0000
0000
1000
0000
0100
0000
0010
0000
0100
0000
1000
0001
1000
0001
,
1000
0000
0000
1010
0000
0000
1001
0000
,
0000
0011
0000
0000
1001
0000
1010
0000
,
1000
0001
1000
0010
1000
0001
0010
0100
,
1000
0000
0001
0000
1000
0000
0001
0000
0000
0100
0000
0000
0010
0000
0000
1000
0000
0000
0100
0000
0000
0010
0000
0000
,
0100
1000
0010
0100
0001
0001
1000
1000
,
0010
0001
0010
1000
0010
0001
0010
1000
,
0001
0000
0000
0000
0101
0000
0000
0100
0010
0000
1000
0000
0100
0000
0010
0000
,
0001
0000
1000
0010
1000
0000
0100
0000
0010
0001
0010
0000
0100
0000
1000
0000
,
0001
0000
0100
0010
0100
0000
1000
0000
0100
0000
0000
0001
0100
0000
0010
0000
,
0100
0001
0010
0001
1000
0010
1000
0100
,
0010
0100
1000
0001
0100
0010
1000
0100
,
1000
0000
0001
0000
1000
0000
0001
0000
0000
0100
0000
0000
0010
0000
0000
1000
0000
0000
0100
0000
0000
1000
0000
0000
,
0010
0100
0001
0010
0001
0001
1000
1000
,
0100
0001
0100
1000
0100
0001
0100
1000
,
0001
0000
0100
0000
0100
0000
0000
0001
0010
0000
0100
0000
1000
0000
0010
0100
,
0010
0000
1000
0001
1000
0000
1000
0000
0001
0100
0001
0000
0001
0000
1000
0010
,
1000
0000
0100
0101
0000
0001
1001
0000
,
1000
1100
0000
0100
1001
0000
1010
0000
,
0001
0101
0000
1000
1100
0000
1001
0000
,
0100
0000
0102
0000
0000
1000
1000
0000
,
0010
0000
1000
0000
0000
0103
0101
0000
,
2001
0000
0010
0000
0000
0001
0001
3000
,
1020
0130
0102
0013
,
2100
0000
0010
0000
0000
0001
0001
0000
,
0010
0000
3100
0000
0000
0100
2100
3000
,
1002
0000
0100
0000
0000
0010
0010
0003
,
1001
0000
0000
0000
0101
0000
0100
0010
0100
0000
1001
0000
0001
0000
0001
0000
,
2000
3000
2000
3000
0000
0000
0002
0003
0000
0000
0200
0300
000M
0000
0200
0300
,
2000
3000
2000
3000
0020
0030
0020
0030
0100
0010
0100
0010
0100
0000
0002
0003
,
0002
0003
0000
0000
0002
0003
0002
0003
0000
0000
0200
0300
000M
0000
0200
0300
,
2000
3000
0020
0030
0200
0300
0200
0300
0000
0000
0202
0303
0000
0000
0002
0003
,
2000
3000
2000
3000
0000
0000
0002
0003
0000
0000
0020
0030
000M
0000
0020
0030
,
0200
0300
0200
0300
0002
0003
0002
0003
1000
0001
1000
0001
1000
0000
0020
0030
,
0020
0030
0000
0000
0020
0030
0020
0030
0000
0000
0200
0300
00M0
0000
0200
0300
,
2000
3000
0020
0030
0200
0300
0200
0300
0000
0000
0202
0303
0000
0000
2002
0000
,
3003
0000
0000
0000
;

//---------------dance-single - ----------------
#NOTES:
     dance-single:
     :
     Medium:
     7:
     0.672160,0.683843,0.714584,0.278409,0.037121,507.000000,430.000000,77.000000,30.000000,0.000000,0.000000,0.672160,0.683843,0.714584,0.278409,0.037121,507.000000,430.000000,77.000000,30.000000,0.000000,0.000000:
0000
0000
0000
0000
,
0000
0000
0000
0000
,
0000
0000
0000
0000
,
0000
0000
0000
0000
,
1001
0000
0001
0100
0010
0100
0000
1001
,
0000
0000
0001
0000
0010
0000
0100
1000
,
0002
0000
0000
0203
0000
0000
0320
0000
,
0000
2030
0000
0000
0001
0000
0002
0000
,
0000
0000
0000
3003
,
1001
0000
0001
0000
0100
0010
0100
0001
,
0000
0001
0010
0100
0000
1000
0000
0010
,
0000
0100
0001
0100
0010
1000
0100
0010
,
0000
0100
0000
1000
0000
1001
0000
0000
,
0001
0000
0001
0000
0010
0100
0010
0001
,
0000
1000
0010
0100
0000
0001
0000
1000
,
1001
0000
0000
1010
0000
0000
1001
0000
,
0000
0011
0000
0000
1001
0000
0110
0000
,
0100
0001
0100
0001
1000
0010
0100
0001
,
0000
0001
1000
0001
1000
0010
0100
0001
,
1000
0100
1000
0100
0010
0001
1000
0100
,
1000
0010
0100
0002
0000
0203
0000
0310
,
1000
0010
1000
0010
0100
0001
1000
0010
,
0000
1000
0001
1000
0001
0010
0100
1000
,
0001
0010
0001
0010
0100
1000
0001
0010
,
0000
0001
1000
0002
0000
0203
0000
0310
,
1010
1000
0100
1000
0010
0100
0001
1000
,
0000
0001
1000
0001
1000
0010
0100
0001
,
1000
0010
1000
0010
0100
0001
0010
0100
,
1000
0010
0100
0002
0000
2003
0000
3100
,
0010
0001
0010
0001
1000
0010
0100
0001
,
0000
0001
1000
0001
1000
0010
0100
0001
,
1001
0000
0000
1010
0000
0000
1001
0000
,
0000
0011
0000
0000
1001
0000
0110
0000
,
1001
0000
0000
0000
1000
0000
0000
0010
1000
0000
0001
0000
0000
0000
1001
0000
,
0000
1002
0023
0230
,
1300
0001
1000
0001
0010
0100
1000
0010
,
0000
0000
0000
0000
0100
0000
0000
0001
0100
0000
0000
0000
0110
0000
0000
0000
,
1001
0000
0000
0000
0001
0000
0000
0100
0001
0000
1000
0000
0000
0000
1001
0000
,
0000
0000
2001
0000
3020
0000
0130
0001
,
1001
0000
0000
1010
0000
0000
1001
0000
,
0000
0011
0000
0000
1001
0000
0110
0000
,
1001
0000
0000
0000
0001
0000
0000
0010
0001
0000
1000
0000
0000
0000
1001
0000
,
0000
2001
3200
0320
,
0031
1000
0001
1000
0010
0100
0001
1000
,
0000
0000
0000
0000
0010
0000
0000
0100
0010
0000
0000
0000
1010
0000
0000
0000
,
1001
0000
0000
0000
1000
0000
0000
0010
1000
0000
0001
0000
0000
0000
1000
0000
,
1001
0000
0210
0000
0302
0000
1003
0010
,
0110
0000
0000
1001
0000
0000
0110
0000
,
0000
1001
0000
0000
1010
0000
0101
0000
,
1001
0000
1000
0100
1000
0100
0010
0100
,
0010
0001
1000
0001
1000
0010
1000
0010
,
1000
0100
0010
0001
0100
0100
0010
0010
,
0000
1010
0000
1001
0000
0101
0000
1001
,
0000
0000
0001
0010
0001
1000
0001
0100
,
0010
1000
0001
0100
0010
1000
0001
0100
,
0010
1000
0001
0010
0100
1000
0001
0010
,
0100
1000
0001
1000
0010
1000
0001
0100
,
0001
0000
1000
0010
1000
0010
1000
0100
,
1000
0100
0010
0001
0100
0010
1000
0001
,
0100
0000
0000
0110
0000
0000
1010
0000
1000
0000
1000
0000
0001
0000
0001
0000
,
0000
0101
0000
0110
0000
1010
0000
1001
,
0001
0100
0010
0100
0010
0100
0001
0100
,
0001
1000
0010
0100
0001
1000
0010
0100
,
0101
0000
0000
1001
0000
0000
1100
0000
,
0000
1001
0000
0000
0101
0000
1010
0000
,
0001
1001
0000
0000
1010
0000
1001
0000
,
0001
0000
0201
0000
0000
0010
0010
0000
,
0001
0000
0001
0000
0000
0010
0320
0000
,
2030
0000
0001
0000
0000
0010
0010
0000
,
3002
0103
0020
0000
,
2030
0000
0001
0000
0000
0010
0010
0000
,
0001
0000
0001
0000
3000
0010
0210
0000
,
0302
0000
1000
0000
0000
0010
0010
0000
,
1003
0000
0000
0000
1000
0000
0001
1000
0001
0000
0100
0000
0010
0000
1000
0000
,
0001
0001
0000
1001
0000
1010
0000
0010
,
0100
0001
1000
0010
0200
0001
0301
0100
,
0010
1000
0010
0100
0000
0101
0000
1001
,
0001
0100
0001
0100
0000
0110
0000
1010
,
1000
1000
0000
0101
0000
1001
0000
0100
,
0010
1000
0100
0010
0001
1000
0100
0010
,
0001
1000
0001
0100
0000
0110
0000
1010
,
1000
0001
1000
0010
0000
0110
0000
1001
;

//---------------dance-single - ----------------
#NOTES:
     dance-single:
     :
     Easy:
     4:
     0.436175,0.493887,0.361932,0.232008,0.000000,329.000000,290.000000,39.000000,25.000000,0.000000,0.000000,0.436175,0.493887,0.361932,0.232008,0.000000,329.000000,290.000000,39.000000,25.000000,0.000000,0.000000:
// measure 0
0000
0000
0000
0000
,  // measure 1
0000
0000
0000
0000
,  // measure 2
0000
0000
0000
0000
,  // measure 3
0000
0000
0000
0000
,  // measure 4
1010
0000
0010
0000
0100
0000
0000
0110
,  // measure 5
0000
1000
0001
1000
,  // measure 6
0010
0000
0000
0010
0000
0000
0100
0000
,  // measure 7
0000
0100
0000
0000
0002
0000
2000
0000
,  // measure 8
0000
0000
0000
3003
,  // measure 9
1001
0000
0001
0000
0000
0100
0001
0000
,  // measure 10
1000
0000
0010
0000
0000
1000
0010
0000
,  // measure 11
1000
0000
0100
0000
0000
1000
0100
0000
,  // measure 12
1000
0000
0001
0000
0000
1000
0001
0000
,  // measure 13
0100
0000
0001
0000
0000
0100
0001
0000
,  // measure 14
0010
0000
0001
0000
0000
0010
0001
0000
,  // measure 15
1001
0000
0000
1001
0000
0000
1001
0000
,  // measure 16
0000
1001
0000
0000
1001
0000
0001
0000
,  // measure 17
1000
0000
1000
0000
0010
1000
0010
0000
,  // measure 18
0100
0000
0100
0000
0001
0010
0001
0000
,  // measure 19
1000
0000
1000
0000
0100
1000
0100
0000
,  // measure 20
0010
0000
0010
0000
0001
0100
0001
0000
,  // measure 21
1000
0000
1000
0000
0010
1000
0010
0000
,  // measure 22
0100
0000
0100
0000
0001
0010
0001
0000
,  // measure 23
1000
0000
1000
0000
0100
1000
0100
0000
,  // measure 24
0010
0000
0010
0000
0001
0100
0001
0000
,  // measure 25
1001
0000
1000
0000
0010
1000
0010
0000
,  // measure 26
0100
0000
0100
0000
0001
0010
0001
0000
,  // measure 27
1000
0000
1000
0000
0100
1000
0100
0000
,  // measure 28
0010
0000
0010
0000
0001
0100
0001
0000
,  // measure 29
1000
0000
1000
0000
0010
1000
0010
0000
,  // measure 30
0100
0000
0100
0000
0001
0010
0001
0000
,  // measure 31
1001
0000
0000
1001
0000
0000
1001
0000
,  // measure 32
0000
1001
0000
0000
0101
0000
0100
0000
,  // measure 33
1001
0000
0001
0000
0100
0001
0000
1001
,  // measure 34
0000
2000
3200
0320
,  // measure 35
0031
0001
1000
1000
,  // measure 36
0010
0200
0302
2003
,  // measure 37
3001
0000
0001
0000
1000
0100
0000
1001
,  // measure 38
0000
0002
0203
0310
,  // measure 39
1001
0000
0000
1001
0000
0000
1001
0000
,  // measure 40
0000
1001
0000
0000
1010
0000
0010
0000
,  // measure 41
1001
0000
1000
0000
0001
0010
0000
1001
,  // measure 42
0000
2000
3020
0230
,  // measure 43
0301
0001
1000
1000
,  // measure 44
0010
0200
0302
2003
,  // measure 45
3001
0000
0001
0000
1000
0100
0000
0100
,  // measure 46
1000
0020
0230
0301
,  // measure 47
1001
0000
0000
1001
0000
0000
1001
0000
,  // measure 48
0000
1001
0000
0000
0110
0000
0100
0000
,  // measure 49
1001
0000
0001
0000
0000
0100
0001
0000
,  // measure 50
1000
0000
0010
0000
0000
1000
0010
0000
,  // measure 51
1000
0000
0100
0000
0000
1000
0100
0000
,  // measure 52
0010
0000
0001
0000
0000
0010
0001
0000
,  // measure 53
0100
0000
0010
0000
0000
0100
0010
0000
,  // measure 54
1000
0000
0001
0000
0000
1000
0001
0000
,  // measure 55
0010
0000
0100
0000
0000
0010
0100
0000
,  // measure 56
1000
0000
0001
0000
0000
1000
0001
0000
,  // measure 57
0100
0000
0001
0000
0000
0100
0001
0000
,  // measure 58
1000
0000
0010
0000
0000
1000
0010
0000
,  // measure 59
1000
0000
0100
0000
0000
1000
0100
0000
,  // measure 60
0010
0000
0001
0000
0000
0010
0001
0000
,  // measure 61
0100
0000
0010
0000
0000
0100
0010
0000
,  // measure 62
1000
0000
0001
0000
0000
1000
0001
0000
,  // measure 63
1001
0000
0000
1001
0000
0000
1001
0000
,  // measure 64
0000
1001
0000
0000
1010
0000
0010
0000
,  // measure 65
0000
1001
0000
0000
0011
0000
0010
0000
,  // measure 66
0001
2001
0000
0000
,  // measure 67
0000
0000
3000
0002
,  // measure 68
0203
0000
0000
0000
,  // measure 69
0000
0300
0020
0000
,  // measure 70
2030
0000
0000
0000
,  // measure 71
0000
0000
3000
0002
,  // measure 72
0023
0000
0000
0000
,  // measure 73
0130
0000
1000
0000
0010
0100
0010
0000
,  // measure 74
1000
0001
0000
1000
0000
1000
0000
0000
,  // measure 75
0001
0001
0100
0100
,  // measure 76
0010
0000
0010
0000
0000
0100
0000
0100
,  // measure 77
0001
0000
0001
0000
0000
1000
0000
1000
,  // measure 78
0010
0100
0000
0001
0000
0001
0000
0000
,  // measure 79
1000
1000
0010
0010
,  // measure 80
0100
0000
0100
0000
0000
0001
0000
0001
,  // measure 81
1000
0000
1000
0000
0000
0001
0000
1001
;
