#TITLE:毒茸伝説;
#SUBTITLE:;
#ARTIST:星輝子;
#TITLETRANSLIT:Dokukinoko Densetsu;
#SUBTITLETRANSLIT:;
#ARTISTTRANSLIT:Syoko Hoshi;
#GENRE:;
#CREDIT:usaminseijin;
#BANNER:[Food Week] - Dokukinoko Densetsu.png;
#BACKGROUND:[Food Week] - Dokukinoko Densetsu-bg.png;
#LYRICSPATH:[Food Week] - Dokukinoko Densetsu.lrc;
#CDTITLE:cdtitle.png;
#MUSIC:[Food Week] - Dokukinoko Densetsu.ogg;
#OFFSET:-0.815000;
#SAMPLESTART:23.700;
#SAMPLELENGTH:16.18;
#SELECTABLE:YES;
#BPMS:0.000000=89.000000
,30.000000=178.000000
,115.000000=89.000000
,161.000000=178.000000
,165.000000=89.000000
,181.000000=178.000000
,197.000000=89.000000
,213.000000=178.000000
;
#STOPS:30.000000=1.011000,
237.000000=1.011000
;
#BGCHANGES:0.000=[Food Week] - Dokukinoko Densetsu.avi=1.000=0=0=0=StretchNoLoop====,
99999=-nosongbg-=1.000=0=0=0 // don't automatically add -songbackground-
;
#KEYSOUNDS:;
#ATTACKS:;

//---------------dance-single - ----------------
#NOTES:
     dance-single:
     :
     Hard:
     9:
     0.599375,0.882368,0.759963,0.182074,0.407688,530.000000,434.000000,96.000000,23.000000,0.000000,0.000000,0.599375,0.882368,0.759963,0.182074,0.407688,530.000000,434.000000,96.000000,23.000000,0.000000,0.000000:
0000
0000
0000
0000
,
0000
0000
0000
0000
,
0000
0000
2002
0000
,
0000
0000
0000
0000
3003
0000
0000
0000
1000
0001
0000
0100
0010
0000
0001
1000
,
0000
0000
0010
0000
0100
0000
0000
0000
0001
1000
0001
0000
1001
0000
0000
0000
2000
0000
0000
0000
0000
0000
0000
0000
3002
0000
0000
0000
0000
0000
0000
0000
,
1003
1001
0000
0000
0110
0110
0000
0000
0200
0000
0000
0000
0320
0000
0000
0000
,
0130
0110
0000
0000
1001
1001
0000
0000
1000
0001
1000
0001
0000
0100
0010
0100
,
0000
0001
1000
0001
0100
0010
0100
0000
0000
0000
0000
0000
1000
0000
0001
0000
,
1001
0000
0000
0000
0100
0000
0010
0000
1000
0001
1000
0000
0001
0000
0100
0000
,
0001
0000
1000
0100
1000
0100
0000
0010
,
0100
0010
0000
1000
0001
0000
1000
0100
,
1000
0000
0001
0010
0001
0000
0010
1001
,
0000
0000
1001
0000
0000
0000
1001
0000
0010
0100
0010
0000
1000
0000
0001
0000
,
1000
0000
0010
0100
0010
1000
0000
0001
,
0100
0001
0000
0010
0100
0000
1000
0100
,
1000
0000
0001
0010
0001
0000
0100
0010
,
0100
0000
0010
0000
1001
0000
1000
0000
1001
0000
0001
1000
0001
0000
0010
0000
,
0001
0000
1000
0100
1000
0001
0000
0100
,
0001
0100
0000
0001
1000
0000
0001
0100
,
0010
0000
1000
0010
0100
0000
1001
0100
,
0000
0110
0000
1000
0001
0000
1000
0000
,
0110
0000
0001
0100
0010
0100
0000
0010
,
1000
0001
1000
0100
0010
0001
0100
0010
,
1000
0000
0001
0100
0010
0000
1001
1000
,
1001
0000
0001
0000
1001
0000
0100
0000
0010
0100
0010
0000
1000
0000
0001
0000
,
1000
0000
0010
0100
0010
0100
0000
0001
,
1000
0001
0000
1000
0100
1000
0001
1000
,
0001
0000
0100
0010
0100
0000
1001
0010
,
0000
0100
0000
0010
0000
0000
1001
1001
,
0110
0000
0110
0000
1000
0001
1000
0010
0100
0010
0100
0001
1000
0000
0110
0000
,
0110
0000
0000
0000
1001
0000
0000
0000
1000
0000
0001
0000
1000
0000
0000
0000
0010
0000
0100
0000
0001
1000
0001
0000
0100
0000
0010
0000
0100
0000
0000
0000
,
1001
0000
0010
0100
0010
1000
0010
0000
1001
1001
0100
0010
1000
0001
1000
0000
,
1001
0000
0000
0000
0110
0000
0100
0000
1000
0000
0001
0000
1000
0000
0001
0000
0110
0000
0010
0000
1000
0001
1000
0000
1000
0000
1001
0000
0000
0000
0001
0000
,
1001
0000
0100
0110
0000
0010
0110
0000
1000
0001
1000
0001
0020
0000
0000
0032
,
0000
0000
2000
0000
0000
0000
3003
0000
1000
1000
1001
0000
1000
1100
0000
0001
,
0011
0000
1000
1001
0000
0001
1001
0000
1000
0001
1000
0001
2000
0000
0000
3020
,
0000
0000
0200
0000
0000
0000
0330
0000
0001
0001
1001
0000
1000
1010
0000
0001
,
0101
0000
0110
0000
0000
1000
1000
0000
0001
0001
1001
0000
0100
0110
0000
0010
,
0110
0000
1001
0000
0000
0100
0000
0100
0010
0010
0110
0000
1000
1000
0000
0001
,
1001
0000
0100
0110
0000
0001
1001
0000
0100
0100
0110
0000
0110
0110
0000
1001
,
1001
0000
0110
0110
1001
0000
1000
0000
1001
0000
0001
0000
0110
0000
0100
0000
,
0100
0010
0100
0010
1000
0000
0001
0001
0100
0000
0110
0000
1000
1000
0000
0001
,
1100
1000
1001
0001
1001
0000
0100
0100
0100
0000
0110
0000
0001
0001
0001
0000
,
1001
1000
1001
0001
2000
0000
0000
3010
0002
0000
1000
0100
0000
0100
0000
0100
,
0000
0100
1000
0000
1003
0100
0000
0100
0000
0100
0110
0000
1000
1000
0000
0001
,
1001
1000
1001
0001
1000
0000
0000
0000
1001
0000
0000
0000
0100
0000
0010
0000
,
0100
0010
0000
1000
0001
1000
0000
0010
,
0100
0010
1000
0000
1001
0000
0100
0010
,
0100
0010
1001
0100
0000
0010
0000
0100
,
1001
0000
2200
0300
0002
3000
0200
0003
,
0020
0000
0330
0000
1000
0100
0000
0010
0001
0000
1001
0000
2000
0000
0000
0010
,
0002
3003
1001
0000
0200
0000
0020
0000
,
0000
0000
0000
0000
0000
0000
0000
0330
,
1000
0001
1000
0000
0100
0000
0010
0000
0100
0000
0001
0000
0000
0000
1000
0000
,
0001
1000
0000
1001
0000
0010
1000
0001
,
1000
0000
0001
0000
0100
0000
0001
1000
0001
1000
0010
0000
0000
0000
0100
0000
,
0010
0100
0000
1001
0000
0100
0010
0100
,
0001
0100
1010
0000
1001
0000
0101
0000
,
1001
1100
0110
0101
,
0110
0000
0000
0000
1001
1001
0000
0100
,
0110
1001
0000
0000
;

//---------------dance-single - ----------------
#NOTES:
     dance-single:
     :
     Medium:
     8:
     0.407123,0.598668,0.395814,0.284986,0.114786,360.000000,310.000000,50.000000,36.000000,0.000000,0.000000,0.407123,0.598668,0.395814,0.284986,0.114786,360.000000,310.000000,50.000000,36.000000,0.000000,0.000000:
0000
0000
0000
0000
,
0000
0000
0000
0000
,
0000
0000
2002
0000
,
0000
0000
0000
3003
0000
1001
0000
0110
,
0000
1001
0000
0000
1001
0000
0220
0330
,
1000
0001
0110
0010
0110
0000
2002
3003
,
0100
0110
0001
1001
1000
0100
0010
0001
,
1000
0001
1001
1001
0000
0000
1000
0001
,
1000
0000
0001
1000
0001
1000
0001
0100
,
0001
0000
1000
0010
1000
0010
0000
0100
,
0001
0000
1000
0001
1000
0000
0010
0100
,
0010
0000
1000
0010
1000
0000
0001
0100
,
0000
0010
0000
1000
0001
0000
1000
0001
,
1000
0000
0010
0100
0010
0100
0000
0001
,
1000
0001
0000
1000
0010
1000
0001
1000
,
0001
0000
0100
0010
0100
0000
0010
1000
,
0010
0000
1001
0000
1001
0000
0100
0010
,
0100
0000
0010
0100
0010
0100
0000
0001
,
1000
0001
0000
1000
0001
1000
0010
1000
,
0010
0000
0100
0001
0100
0001
1000
0001
,
0000
1001
0000
1001
0000
0000
2000
0000
,
0000
0002
0000
0000
,
0000
3003
0110
0200
,
0000
0010
0002
0000
0303
0000
1001
0000
,
1001
0000
0110
0000
0010
0000
1000
0100
,
1000
0000
0001
0010
0001
0010
0000
0001
,
1000
0001
0000
0100
0001
0000
1000
0010
,
1000
0000
0001
0100
0001
0100
0010
1000
,
0000
0001
0000
1001
0000
0000
1000
1000
,
0001
1000
0001
0001
0100
0010
1000
1000
,
0001
1000
0001
0001
1001
1001
1000
0100
,
1000
0100
0010
0001
0010
0001
1000
0001
,
1000
0000
0001
0000
0100
0000
0001
0000
1000
0001
1000
0000
0100
0100
0000
0010
,
0010
0000
1000
1000
0000
0001
0001
0000
1000
0001
1000
0001
0200
0000
0000
0320
,
0000
0000
2000
0000
0000
0000
0000
0000
3030
0000
1001
0000
0010
0010
0000
0100
,
0100
0000
0001
0001
0000
1000
1000
0000
0001
1000
0001
1000
0020
0000
0000
0230
,
0000
0002
0000
0000
0303
1001
2000
0000
,
0002
0000
0000
0000
0000
0000
0000
0000
3003
0000
0110
0000
0200
0000
0000
0320
,
0000
0000
2000
0000
0000
0000
0000
0000
3030
0000
0000
0000
2000
0000
0000
3020
,
0000
0000
0200
0000
0330
0000
1001
0000
0110
0000
0110
0000
2000
0000
0000
0010
,
0002
0000
0000
0000
,
3003
0000
1000
0000
1001
0001
0110
0000
,
0010
0010
0000
0000
1001
1000
0110
0000
,
0010
0000
0001
0000
1000
0100
0000
0010
0001
0000
1000
0010
0000
0100
0001
0000
,
1000
0100
0010
0001
1000
0001
0000
0100
0010
0000
1000
0001
0000
0100
0010
0000
,
1001
1001
1000
0001
1000
0000
0001
1000
,
0001
1000
0000
0010
0100
0010
0100
0010
,
0100
0010
1000
0001
1000
0000
0001
0010
,
0001
0010
0001
1000
0000
0001
0000
0100
,
0010
2000
3002
0203
,
0320
0000
0000
0000
0030
0000
0000
0000
0000
0000
0000
0000
2000
0000
0000
0001
,
0002
3003
0200
0020
,
0000
0000
0000
0000
,
0330
1000
0001
0100
,
0110
1000
0001
0110
,
0110
1001
0100
0010
,
0110
1000
0001
1001
,
1000
0110
0110
1001
,
1001
0110
0110
1001
,
1001
0000
0000
0000
2000
0000
0000
0010
,
0002
0000
3003
0000
;

//---------------dance-single - ----------------
#NOTES:
     dance-single:
     :
     Easy:
     6:
     0.288379,0.431041,0.419563,0.182074,0.000000,255.000000,202.000000,53.000000,23.000000,0.000000,0.000000,0.288379,0.431041,0.419563,0.182074,0.000000,255.000000,202.000000,53.000000,23.000000,0.000000,0.000000:
0000
0000
0000
0000
,
0000
0000
0000
0000
,
0000
0000
2002
0000
,
0000
0000
0000
3003
1000
0000
0001
0000
,
0100
0010
1001
1001
,
0100
0010
0100
0000
1001
0000
1001
0000
,
0010
0100
0010
0000
1000
1000
0001
0001
,
0100
0100
0010
0010
0000
0000
1000
0000
,
0001
1001
1001
1000
,
0010
1000
0001
0100
,
0010
0100
0001
1000
,
0001
0100
0010
1001
,
0000
1001
0000
0100
,
0010
0100
0001
1000
,
0010
0100
0010
1000
,
0001
0100
0010
1000
,
0001
0110
0000
1000
,
1000
0001
0001
0100
,
0100
0010
0010
1000
,
0001
0100
0010
1001
,
0000
0110
0000
1000
,
0001
1000
0001
0100
,
0010
0100
0010
1000
,
0010
0100
0010
1001
,
1001
0110
0110
1000
,
0100
1000
0100
0010
,
0001
0010
0001
1000
,
0010
1000
0010
1001
,
0000
0110
0000
2002
,
0000
0000
3003
0220
,
0000
0000
0330
2002
,
0000
0000
3003
0220
,
0000
0000
0330
1001
,
0110
1001
0110
1001
,
0110
1001
0110
1001
,
0110
1001
0110
1001
,
0110
0000
1001
0000
0110
0000
1000
0001
,
1000
0000
0001
1000
0001
0000
0100
0010
,
0100
0000
0010
0100
0010
0000
1000
1000
,
0001
0001
0100
0100
0010
0010
1000
1000
,
0001
0001
2002
0000
3003
0000
0220
0000
,
0330
1001
1000
1001
,
0001
0110
0100
0110
,
0010
2000
0001
0001
,
3001
0002
1000
1000
,
1003
1000
0100
0001
,
0100
1000
0100
0001
,
0100
1000
0010
0001
,
0100
1000
0010
0001
,
1001
2000
3001
0200
,
0310
0000
0000
0020
,
0130
0000
0002
2000
,
0000
0000
0000
0000
,
3003
1000
0000
1001
,
0000
0100
0100
0110
,
0000
0001
0000
1001
,
0000
0010
0010
0110
,
0000
1001
0000
0110
,
0000
1001
0000
0110
,
0000
0000
0200
0000
,
0020
0000
0330
0000
;

//---------------dance-single - ----------------
#NOTES:
     dance-single:
     :
     Beginner:
     3:
     0.165111,0.215521,0.110828,0.197907,0.000000,146.000000,132.000000,14.000000,25.000000,0.000000,0.000000,0.165111,0.215521,0.110828,0.197907,0.000000,146.000000,132.000000,14.000000,25.000000,0.000000,0.000000:
// measure 0
0000
0000
0000
0000
,  // measure 1
0000
0000
0000
0000
,  // measure 2
0000
0000
2002
0000
,  // measure 3
0000
3003
0000
0000
,  // measure 4
0000
0000
1000
1000
,  // measure 5
0000
0000
0001
0001
,  // measure 6
0000
0000
0100
0100
,  // measure 7
0010
0010
0000
2002
,  // measure 8
0000
0000
3003
1000
,  // measure 9
0000
1000
0000
0001
,  // measure 10
0000
0001
0000
0100
,  // measure 11
0000
0100
0000
0010
,  // measure 12
0000
0010
0000
1000
,  // measure 13
0000
1000
0000
0100
,  // measure 14
0000
0100
0000
0010
,  // measure 15
0000
0010
0000
0001
,  // measure 16
0000
0001
0000
1000
,  // measure 17
1000
1000
0000
0001
,  // measure 18
0001
0001
0000
0100
,  // measure 19
0100
0100
0000
0010
,  // measure 20
0010
0010
0000
2000
,  // measure 21
0000
0000
3000
0002
,  // measure 22
0000
0000
0003
0200
,  // measure 23
0000
0000
0300
0020
,  // measure 24
0000
0000
0030
1000
,  // measure 25
1000
1000
0000
0100
,  // measure 26
0100
0100
0000
0010
,  // measure 27
0010
0010
0000
0001
,  // measure 28
0001
0001
0000
2000
,  // measure 29
0000
0000
3000
0020
,  // measure 30
0000
0000
0030
0200
,  // measure 31
0000
0000
0300
0002
,  // measure 32
0000
0000
0003
1000
,  // measure 33
1000
1000
1000
0001
,  // measure 34
0001
0001
0001
0100
,  // measure 35
0100
0100
0100
0010
,  // measure 36
0010
0010
0010
1000
,  // measure 37
1000
1000
1000
0001
,  // measure 38
0001
0001
0001
0100
,  // measure 39
0100
0100
0100
0010
,  // measure 40
0010
0010
0000
0010
,  // measure 41
0000
1001
0000
1001
,  // measure 42
0000
0110
0000
0110
,  // measure 43
0000
2000
3000
0002
,  // measure 44
0003
0200
0300
0020
,  // measure 45
0030
1000
1000
1000
,  // measure 46
0000
0001
0001
0001
,  // measure 47
0000
0100
0100
0100
,  // measure 48
0000
0010
0010
0010
,  // measure 49
0000
2002
0000
3003
,  // measure 50
0000
0000
0000
2002
,  // measure 51
0000
3003
0100
0020
,  // measure 52
0000
0000
0000
0000
,  // measure 53
0030
1000
0000
1001
,  // measure 54
0000
0001
0000
1001
,  // measure 55
0000
0100
0000
0110
,  // measure 56
0000
0010
0000
0110
,  // measure 57
0000
1000
1000
1000
,  // measure 58
1000
0001
0001
0001
,  // measure 59
0001
0000
2002
3003
,  // measure 60
0220
0000
0330
0000
;
