#TITLE:Cupcakes;
#SUBTITLE:(Vocal Mix);
#ARTIST:Eurobeat Brony;
#TITLETRANSLIT:;
#SUBTITLETRANSLIT:;
#ARTISTTRANSLIT:;
#CREDIT:;
#BANNER:;
#BACKGROUND:;
#LYRICSPATH:;
#CDTITLE:;
#MUSIC:Cupcakes (Vocal Mix).ogg;
#OFFSET:-0.120;
#SAMPLESTART:60.760;
#SAMPLELENGTH:12.000;
#SELECTABLE:YES;
#BPMS:0.000=162.000;
#STOPS:;
#BGCHANGES:;

//---------------dance-single - ----------------
#NOTES:
     dance-single:
     :
     Hard:
     7:
     0.539,0.677,0.215,0.534,0.066: // measure 1
0000
0000
0000
0000
,  // measure 2
0000
0000
0000
0000
,  // measure 3
0000
0000
0000
0000
,  // measure 4
0000
0000
0000
0000
,  // measure 5
2002
0000
0000
3003
0000
0000
2200
0000
0000
3300
0000
0000
1000
0000
0100
0000
,  // measure 6
0220
0000
0000
0330
0000
0000
0022
0000
0000
0033
0000
0000
0001
0000
0100
0000
,  // measure 7
0202
0000
0000
0303
0000
0000
2002
0000
0000
3003
0000
0000
1000
0000
0100
0000
,  // measure 8
2200
0000
0000
3300
0000
0000
2002
0000
0000
3003
0000
0000
0001
0000
1000
0000
,  // measure 9
0200
1000
0000
0010
0000
0001
0000
0010
,  // measure 10
0000
1000
0000
0001
0000
1300
0100
1000
,  // measure 11
0000
0020
0000
0001
0000
0100
0000
1000
,  // measure 12
0000
0001
0000
1000
0000
0130
0001
1000
,  // measure 13
0001
0020
0000
0001
0000
0100
0000
1000
,  // measure 14
0000
0001
0000
1000
0000
0031
1000
0001
,  // measure 15
0000
0200
0000
0001
0000
0010
0000
1000
,  // measure 16
0000
0000
0301
0100
0000
0001
1000
0000
0001
0000
0100
0000
1000
0000
0100
0000
,  // measure 17
0001
0000
0000
0001
0000
0000
0001
0000
0000
0000
0100
0000
0010
0000
1000
0000
,  // measure 18
0100
0000
0000
0100
0000
0000
0100
0000
0000
0000
0100
0000
1000
0000
0010
0000
,  // measure 19
0100
0000
0000
0100
0000
0000
0100
0000
0000
0000
0100
0000
0001
0000
1000
0000
,  // measure 20
0001
0000
0000
0001
0000
0000
0001
0000
0000
0000
0100
0000
0001
0000
1000
0000
,  // measure 21
0100
0000
0000
0100
0000
0000
0100
0000
0000
0000
1000
0000
0010
0000
0100
0000
,  // measure 22
0001
0000
0000
0001
0000
0000
0001
0000
0000
0000
0001
0000
0100
0000
0010
0000
,  // measure 23
1000
0000
0000
1000
0000
0000
1000
0000
0000
0000
1000
0000
0100
0000
1000
0000
,  // measure 24
0010
0000
0000
0010
0000
0000
0010
0000
0000
0000
0100
0000
0002
0000
2000
0000
,  // measure 25
0000
0000
0000
3003
,  // measure 26
1000
0001
0100
0001
1000
0010
0000
0000
,  // measure 27
0010
1000
0000
2020
0000
3030
1000
0010
,  // measure 28
0100
0000
0001
1000
0000
1001
0000
2200
,  // measure 29
0000
0000
3300
1100
0000
2002
0000
3003
,  // measure 30
0001
1000
0100
1000
0001
0010
0000
0000
,  // measure 31
0001
0010
0000
0022
0000
0033
0001
0010
,  // measure 32
0100
0000
0100
0020
0000
0031
1000
0020
,  // measure 33
0000
0000
1030
0010
1000
0010
0100
0000
0000
0000
0220
0000
0000
0000
0330
0000
,  // measure 34
0100
0001
0100
1000
0100
0001
1000
0001
,  // measure 35
0010
0100
1000
0100
0010
0000
0000
0000
,  // measure 36
0010
0001
0010
1000
0010
0001
1000
0001
,  // measure 37
0100
0010
1000
0001
1000
0000
0000
0000
,  // measure 38
1000
0100
0010
0100
1000
0010
0100
0010
,  // measure 39
1000
0100
0010
0001
0010
0100
0000
0000
,  // measure 40
0100
1000
0010
1000
0100
0010
0001
0010
,  // measure 41
0100
1000
0001
0100
0010
2000
0000
3000
,  // measure 42
0001
1000
0000
1000
0100
1000
0001
0100
,  // measure 43
0010
1000
0000
1000
0010
0100
0010
1000
,  // measure 44
0001
0010
0000
0000
0001
0001
0100
0100
,  // measure 45
0010
0020
0000
0000
0000
0000
0030
0000
,  // measure 46
1000
0001
0000
0001
0100
1000
0100
0001
,  // measure 47
0010
0100
0000
0100
1000
0010
1000
0100
,  // measure 48
0001
0100
0000
0000
1000
1000
0100
0100
,  // measure 49
0010
0020
0000
0000
0000
0000
0030
0000
,  // measure 50
0001
0010
0100
1000
0010
0100
0000
0000
,  // measure 51
0100
0010
0000
2002
0000
3003
0001
1000
,  // measure 52
0100
0000
0010
0100
0000
1100
0000
2002
,  // measure 53
0000
3003
1000
0001
0000
0020
0000
0030
,  // measure 54
0001
0010
0100
1000
0010
0100
0000
0000
,  // measure 55
0001
1000
0000
1020
0000
0000
1030
0010
,  // measure 56
0100
0000
0100
0002
0000
0103
0001
0020
,  // measure 57
0000
0000
0130
0010
0100
0010
0001
0000
0000
0000
2002
0000
0000
0000
3003
0000
,  // measure 58
0002
0103
2000
3010
,  // measure 59
0002
0103
2000
3010
,  // measure 60
0002
0013
2000
3100
,  // measure 61
0002
0013
2000
3100
,  // measure 62
1001
0001
0000
0010
0000
0100
0000
1000
,  // measure 63
0000
0010
0000
0100
0000
0001
1000
0100
,  // measure 64
0000
0100
0000
1000
0000
0010
0000
0100
,  // measure 65
0000
0001
0000
0010
0000
0100
1000
0001
,  // measure 66
1001
2002
0000
0000
0000
0000
3003
0000
;

//---------------dance-single - ----------------
#NOTES:
     dance-single:
     :
     Challenge:
     9:
     0.645,0.739,0.150,0.393,0.454: // measure 1
0000
0000
0000
0000
,  // measure 2
0000
0000
0000
0000
,  // measure 3
0000
0000
0000
0000
,  // measure 4
0000
0000
0000
0000
,  // measure 5
2002
0000
0000
3003
0000
0000
2002
0000
0000
3003
0000
0000
0100
0000
0010
0000
,  // measure 6
2002
0000
0000
3003
0000
0000
2002
0000
0000
3003
0000
0000
0010
0000
1000
0000
,  // measure 7
2002
0000
0000
3003
0000
0000
2002
0000
0000
3003
0000
0000
1000
0000
0100
0000
,  // measure 8
0010
0000
0100
1000
0000
0001
1000
0000
0010
0100
0010
0100
0001
1000
0001
1000
,  // measure 9
0002
0100
0000
1000
0000
0010
0000
2003
,  // measure 10
0000
0100
0000
0001
0000
3100
0010
0100
,  // measure 11
0000
2000
0000
0010
0000
0100
0000
3002
,  // measure 12
0000
0010
0000
0100
0000
1003
0001
1000
,  // measure 13
2100
0100
0000
0001
0000
0010
0000
3001
,  // measure 14
0000
0002
0000
1000
0000
0013
0100
0010
,  // measure 15
0000
0002
0000
0100
0000
1000
0000
0013
,  // measure 16
0000
0000
0001
0100
0000
0001
1000
0000
0100
0010
0100
0010
0001
1000
0001
1000
,  // measure 17
0001
0000
0000
0001
0000
0000
0001
0000
0000
0000
0100
0000
0001
0000
0100
0000
,  // measure 18
1000
0000
0000
1000
0000
0000
1000
0000
0000
0000
1000
0000
0100
0000
0001
0000
,  // measure 19
0100
0000
0000
0100
0000
0000
0100
0000
0000
0000
0100
0000
0001
0000
1000
0000
,  // measure 20
0010
0000
0000
0010
0000
0000
0010
0000
0000
0000
1000
0000
0001
0000
0100
0000
,  // measure 21
0001
0000
0000
0001
0000
0000
0001
0000
0000
0000
0100
0000
0001
0000
1000
0000
,  // measure 22
0100
0000
0000
0100
0000
0000
0100
0000
0000
0000
0100
0000
1000
0000
0001
0000
,  // measure 23
1000
0000
0000
1000
0000
0000
1000
0000
0000
0000
1000
0000
0100
0000
1000
0000
,  // measure 24
0010
0000
0000
0010
0000
0000
0010
0000
0000
0000
1000
0000
0001
0000
2000
0000
,  // measure 25
0000
0000
0000
3000
,  // measure 26
0100
0000
0000
1000
0000
0000
0100
0000
0000
1000
0000
0000
0001
0000
0000
0000
0000
0000
0100
0000
0000
0001
0000
0000
0100
0000
0000
0001
0000
0000
1000
0000
0000
0000
0000
0000
0000
0000
0000
0000
0000
0000
0001
0000
1000
0000
0001
0000
,  // measure 27
1000
0001
0000
2002
0000
3003
0001
1000
,  // measure 28
0100
0000
0010
0100
0000
1000
0000
0001
,  // measure 29
0100
0010
1000
0001
0000
2002
0000
3003
,  // measure 30
1000
0000
0000
0001
0000
0000
1000
0000
0000
0001
0000
0000
0010
0000
0000
0000
0000
0000
0001
0000
0000
1000
0000
0000
0001
0000
0000
1000
0000
0000
0010
0000
0000
0000
0000
0000
0000
0000
0000
0000
0000
0000
0100
0000
0010
0000
0100
0000
,  // measure 31
0010
0100
0000
0220
0000
0330
0010
0100
,  // measure 32
0001
0000
1000
0100
0000
0100
0010
0001
,  // measure 33
0000
0000
0001
0010
0001
1000
0001
0000
0000
0000
0002
0000
0000
0000
0000
0000
,  // measure 34
1003
0100
0010
0100
1000
0100
0010
0100
1000
0000
0001
0000
0100
0000
0001
0000
,  // measure 35
1000
0100
0010
0001
1001
0000
0000
0000
,  // measure 36
0001
0100
0010
0100
0001
0100
0010
0100
0001
0000
1000
0000
0100
0000
1000
0010
,  // measure 37
0100
0000
0001
0000
0010
0000
0001
0100
0010
0000
0000
0000
0000
0000
0000
0000
,  // measure 38
0010
1000
0001
0000
0100
0000
0010
0000
1000
0000
0100
0000
0001
0000
0100
1000
,  // measure 39
0001
0100
0010
1000
0001
0001
0000
0000
,  // measure 40
0001
0010
0100
1000
0001
0000
1000
0001
0100
0000
0010
0000
1000
0000
0100
1000
,  // measure 41
0001
0000
0100
0000
0001
0000
1000
0000
0010
1000
0001
1000
0100
1000
0001
1000
,  // measure 42
0010
0000
0100
0001
0000
0100
0001
0000
0010
0000
0100
0000
1000
0000
0100
0000
,  // measure 43
0010
0000
0100
1000
0000
0100
1000
0000
0010
0000
0100
0000
0001
0000
0010
0000
,  // measure 44
0001
0000
1000
0001
0000
1000
0001
0000
0100
0000
0100
0000
0010
0000
0010
0000
,  // measure 45
1000
2000
0000
0000
0000
0000
3000
0000
,  // measure 46
1000
0000
0010
1000
0000
0010
0100
0000
0001
0000
0010
0000
0001
0000
1000
0000
,  // measure 47
0100
0000
1000
0100
0000
0010
0100
0000
1000
0000
0010
0000
0100
0000
0001
0000
,  // measure 48
0010
0000
0001
0010
0000
0100
0010
0000
0001
0000
0001
0000
0100
0000
0100
0000
,  // measure 49
0010
0020
0000
0000
0000
0000
0030
0000
,  // measure 50
1000
0000
0000
0010
0000
0000
1000
0000
0000
0001
0000
0000
1000
0000
0000
0000
0000
0000
0001
0000
0000
0010
0000
0000
0001
0000
0000
1000
0000
0000
0001
0000
0000
0000
0000
0000
0000
0000
0000
0000
0000
0000
1000
0000
0001
0000
1000
0000
,  // measure 51
0001
1000
0000
2002
0000
3003
0001
1000
,  // measure 52
0100
0000
0000
0010
0000
0001
0010
0100
1000
0001
1000
0100
,  // measure 53
0010
0001
1000
0002
0000
0000
0103
0000
0000
0000
0000
0000
,  // measure 54
0001
0000
0000
0100
0000
0000
0010
0000
0000
1000
0000
0000
0100
0000
0000
0000
0000
0000
1000
0000
0000
0100
0000
0000
0010
0000
0000
0001
0000
0000
1000
0000
0000
0000
0000
0000
0000
0000
0000
0000
0000
0000
0010
0000
0100
0000
0010
0000
,  // measure 55
0100
0010
0000
0220
0000
0330
0010
0100
,  // measure 56
0001
0000
0001
1000
0000
1000
0001
0010
,  // measure 57
0000
0000
0001
1000
0001
1000
0001
0000
0000
0000
2002
0000
0000
0000
3003
0000
,  // measure 58
1000
0100
0001
0000
0001
0100
1000
0000
,  // measure 59
1000
0100
0010
0000
0010
0100
1000
0000
,  // measure 60
0001
0000
0100
0000
0010
0000
0000
0000
0010
0100
0010
0100
0001
0000
0000
0000
,  // measure 61
0001
0010
0100
0000
0100
0010
0001
0000
,  // measure 62
0002
0000
0000
0000
0103
0000
0000
0000
0010
0100
0000
0010
1000
0000
0000
0000
,  // measure 63
0200
0000
0000
0000
0310
0000
0000
0000
0001
1000
0000
0100
1000
0000
0000
0000
,  // measure 64
0002
0000
0000
0000
0013
0000
0000
0000
0001
0010
0000
0100
0010
0000
0000
0000
,  // measure 65
0200
0000
0000
0000
0310
0000
0000
0000
0001
0100
0000
0001
1000
0000
0000
0000
,  // measure 66
1001
2002
0000
0000
0000
0000
3003
0000
;

//---------------dance-single - ----------------
#NOTES:
     dance-single:
     :
     Medium:
     6:
     0.441,0.452,0.169,0.365,0.009:
0000
0000
0000
0000
,
0000
0000
0000
0000
,
0000
0000
0000
0000
,
0000
0000
0000
0000
,
1001
0000
0000
1001
0000
0000
1000
0001
,
1001
0000
0000
1001
0000
0000
0100
1000
,
1001
0000
0000
1001
0000
0000
1000
0001
,
1001
0000
0000
1001
0000
0000
0100
0001
,
1000
0100
0010
0100
,
1000
0010
0100
0010
,
1000
0100
0001
0100
,
1000
0010
0001
0010
,
1002
0103
0001
0010
,
0001
0100
0010
0100
,
0001
0010
1000
0010
,
0001
0100
1000
0100
,
0001
0000
0000
0001
0000
0000
1000
0001
,
1000
0000
0000
1000
0000
0000
0010
0100
,
0010
0000
0000
0010
0000
0000
1000
0100
,
1000
0000
0000
1000
0000
0000
0010
0100
,
0010
0000
0000
0010
0000
0000
0010
0001
,
1000
0000
0000
1000
0000
0000
1000
0001
,
0100
0000
0000
0100
0000
0000
0100
0000
0000
0000
0000
0000
0100
0000
0001
0000
,
0010
0000
0000
0010
0000
0000
0010
0000
0000
0000
0001
0000
1000
0000
0002
0000
,
0000
0000
0000
0003
,
0001
0100
0001
0000
1000
0001
0000
0000
,
0001
1000
0000
1001
0000
0000
1000
0001
,
0100
0000
0001
1000
0000
0100
0000
2000
,
0000
0000
0000
3001
0000
2002
0000
3003
,
1000
0001
1000
0000
0001
1000
0000
0000
,
1000
0010
0000
1010
0000
0000
0010
1000
,
0001
0000
0001
1000
0000
1000
0001
0020
,
0000
0000
0000
0031
0000
0022
0000
0033
,
0001
0010
0001
0000
0001
1000
0100
0000
,
0100
1000
0001
0000
1001
0000
0000
0000
,
1000
0001
1000
0000
1000
0010
0100
0000
,
0100
0010
1000
0000
1001
0000
0000
0000
,
1000
0100
0010
0000
0010
0100
1000
0000
,
0001
0100
0010
0100
0001
1000
0000
0000
,
1000
0001
0010
0000
0010
0001
1000
0000
,
0001
1000
0010
1000
0001
1000
0000
0000
,
1000
0001
0000
0000
0100
0001
0100
0000
,
0001
1000
0000
0000
0100
1000
0100
0000
,
1000
0001
0000
0000
1000
0001
1000
0001
,
1000
0020
0000
0000
0000
0000
0030
0000
,
0100
0010
0000
0000
0010
1000
0001
0000
,
0010
0100
0000
0000
0010
0001
1000
0000
,
0010
0100
0000
0000
0100
0010
0100
0010
,
0100
0002
0000
0000
0000
0000
0003
0000
,
0001
0100
0010
0000
1000
0001
0000
0000
,
0001
1000
0000
1001
0000
0000
1000
0001
,
0100
0000
0001
1000
0000
0100
0000
2000
,
0000
0000
0000
3001
0000
0002
0000
0003
,
1000
0001
0100
0000
0100
0001
0000
0000
,
0100
0010
0000
0110
0000
0000
0010
1000
,
0001
0000
0001
1000
0000
1000
0001
0020
,
0000
0000
0000
0031
0000
0022
0000
0033
,
0002
0013
0200
1300
,
0020
0130
0002
1003
,
0200
0310
0002
1003
,
0020
0130
0002
1003
,
0200
0301
0200
1300
,
0200
0301
0200
1300
,
0020
0031
0020
1030
,
0020
0031
0020
1030
,
0002
2000
0000
0000
0000
0000
3003
0000
,
2000
0000
3200
0000
,
0320
0000
0032
0000
,
0203
0000
0320
0000
,
0030
0000
0000
0000
;

//---------------dance-single - ----------------
#NOTES:
     dance-single:
     :
     Beginner:
     2:
     0.142,0.213,0.009,0.000,0.000:
0000
0000
0000
0000
,
0000
0000
0000
0000
,
0000
0000
0000
0000
,
0000
0000
0000
0000
,
1000
0000
0000
1000
,
1000
0000
0000
0001
,
0001
0000
0000
0001
,
0001
0000
0000
0100
,
0100
0000
0000
0000
,
0001
0000
0000
0000
,
1000
0000
0000
0000
,
0100
0000
0000
0000
,
0010
0000
0000
0000
,
0010
0000
0000
0000
,
0001
0000
0000
0000
,
1000
0000
0000
0000
,
0100
0000
0000
0100
,
0100
0000
0000
1000
,
1000
0000
0000
0001
,
0001
0000
0000
0001
,
0001
0000
0000
1000
,
1000
0000
0000
0100
,
0100
0000
0000
0010
,
0010
0000
0000
0010
,
0000
0000
0000
0000
,
0001
0000
0001
0000
,
1000
0000
1000
0000
,
0100
0000
0010
0000
,
0100
0000
0000
0000
,
1000
0000
1000
0000
,
0001
0000
0001
0000
,
0100
0000
0010
0000
,
0100
0000
0000
0000
,
0001
0000
0100
0000
,
0010
0000
1000
0000
,
1000
0000
0100
0000
,
0010
0000
0001
0000
,
0001
0000
0100
0000
,
1000
0000
0100
0000
,
0001
0000
0010
0000
,
1000
0000
0010
0000
,
0001
0000
1000
1000
,
1000
0000
0010
0010
,
0010
0000
0100
0100
,
0100
0000
0000
0000
,
0001
0000
0001
0001
,
0001
0000
0100
0100
,
0100
0000
0010
0010
,
0010
0000
0000
0000
,
1000
0000
0001
0000
,
1000
0000
0100
0000
,
0010
0000
0001
0000
,
1000
0000
0000
0000
,
0001
0000
1000
0000
,
0001
0000
0100
0000
,
0010
0000
1000
0000
,
0001
0000
0000
0000
,
1000
0000
0000
0000
,
0100
0000
0000
0000
,
0010
0000
0000
0000
,
0001
0000
0000
0000
,
0001
0000
0000
0000
,
0100
0000
0000
0000
,
0010
0000
0000
0000
,
1000
0000
0000
0000
,
1001
0000
0000
0000
;

//---------------dance-double - ----------------
#NOTES:
     dance-double:
     :
     Challenge:
     9:
     0.645,0.739,0.169,0.440,0.435:
00000000
00000000
00000000
00000000
,
00000000
00000000
00000000
00000000
,
00000000
00000000
00000000
00000000
,
00000000
00000000
00000000
00000000
,
00022000
00000000
00000000
00033000
00000000
00000000
00022000
00000000
00000000
00033000
00000000
00000000
00001000
00000000
01000000
00000000
,
02020000
00000000
00000000
03030000
00000000
00000000
02020000
00000000
00000000
03030000
00000000
00000000
00010000
00000000
10000000
00000000
,
20020000
00000000
00000000
30030000
00000000
00000000
20020000
00000000
00000000
30030000
00000000
00000000
10000000
00000000
01000000
00000000
,
00100000
00000000
00010000
00100000
00000000
01000000
00100000
00000000
01000000
10000000
00100000
01000000
00010000
00100000
01000000
00100000
,
00020000
01000000
00000000
10000000
00000000
00100000
00000000
01000000
,
00000000
20030000
00000000
01000000
00000000
30010000
00100000
00001000
,
00000000
00020000
00000000
00001000
00000000
00000100
00000000
00000010
,
00000000
00032000
00000000
00100000
00000000
00013000
00001000
00000100
,
00000000
00000002
00000000
00000010
00000000
00001000
00000000
00000100
,
00000000
00002003
00000000
00000001
00000000
00003100
00010000
00001000
,
00000000
00020000
00000000
00001000
00000000
00000010
00000000
00000100
,
00000000
00032000
00000000
00100000
00000000
01003000
00010000
10000000
,
01000000
00000000
00000000
01000000
00000000
00000000
01000000
00000000
00000000
00000000
10000000
00000000
00100000
00000000
01000000
00000000
,
00001000
00000000
00000000
00001000
00000000
00000000
00001000
00000000
00000000
00000000
00010000
00000000
00000100
00000000
00001000
00000000
,
00000001
00000000
00000000
00000001
00000000
00000000
00000001
00000000
00000000
00000000
00001000
00000000
00000100
00000000
00010000
00000000
,
00001000
00000000
00000000
00001000
00000000
00000000
00001000
00000000
00000000
00000000
00010000
00000000
00001000
00000000
01000000
00000000
,
00010000
00000000
00000000
00010000
00000000
00000000
00010000
00000000
00000000
00000000
10000000
00000000
01000000
00000000
00100000
00000000
,
00001000
00000000
00000000
00001000
00000000
00000000
00001000
00000000
00000000
00000000
00010000
00000000
00000100
00000000
00001000
00000000
,
00000010
00000000
00000000
00000010
00000000
00000000
00000010
00000000
00000000
00000000
00001000
00000000
00000100
00000000
00010000
00000000
,
00100000
00000000
00000000
00100000
00000000
00000000
00100000
00000000
00000000
00000000
10000000
00000000
00010000
00000000
20000000
00000000
,
00000000
00000000
00000000
30000000
,
10000000
00000000
00000000
01000000
00000000
00000000
10000000
00000000
00000000
01000000
00000000
00000000
00100000
00000000
00000000
00000000
00000000
00000000
00010000
00000000
00000000
00100000
00000000
00000000
00010000
00000000
00000000
00100000
00000000
00000000
00001000
00000000
00000000
00000000
00000000
00000000
00000000
00000000
00000000
00000000
00000000
00000000
00010000
00000000
00001000
00000000
00010000
00000000
,
00001000
00010000
00000000
00022000
00000000
00033000
00010000
00000100
,
00001000
00000000
00000100
00000010
00000000
00000001
00000000
00000001
,
00000100
00000010
00001000
00000001
00000000
00002002
00000000
00003003
,
00000001
00000000
00000000
00001000
00000000
00000000
00000001
00000000
00000000
00001000
00000000
00000000
00000100
00000000
00000000
00000000
00000000
00000000
00001000
00000000
00000000
00000100
00000000
00000000
00001000
00000000
00000000
00000100
00000000
00000000
00010000
00000000
00000000
00000000
00000000
00000000
00000000
00000000
00000000
00000000
00000000
00000000
00001000
00000000
00010000
00000000
00001000
00000000
,
00010000
00001000
00000000
00022000
00000000
00033000
00001000
00100000
,
00010000
00000000
00010000
20000000
00000000
31000000
10000000
00100000
,
00000000
00000000
00100000
10000000
00010000
01000000
00010000
00000000
00000000
00000000
20020000
00000000
00000000
00000000
30030000
00000000
,
10000000
01000000
00100000
01000000
10000000
01000000
00100000
00010000
10000000
00000000
01000000
00000000
00010000
00000000
00001000
00000000
,
00000100
00000001
00000010
00000001
00001001
00000000
00000000
00000000
,
00000001
00000100
00000010
00000100
00000001
00000100
00000010
00001000
00000001
00000000
00000100
00000000
00001000
00000000
00010000
00001000
,
00100000
00000000
00010000
00000000
01000000
00000000
00100000
10000000
00010000
00000000
00000000
00000000
00000000
00000000
00000000
00000000
,
00010000
10000000
01000000
00000000
10000000
00000000
00100000
00000000
01000000
00000000
00001000
00000000
00010000
00000000
00000100
00001000
,
00000001
00000100
00000001
00001000
00000010
00000100
00000000
00000000
,
00000010
00000100
00000001
00001000
00000001
00000000
00001000
00000001
00000010
00000000
00000001
00000000
00000100
00000000
00001000
00010000
,
00001000
00000000
01000000
00010000
00000000
00010000
10000000
00000000
00100000
10000000
00010000
01000000
00010000
10000000
00100000
01000000
,
00010000
00000000
01000000
00010000
00000000
10000000
00010000
00000000
00100000
00000000
01000000
00000000
00010000
00000000
00001000
00000000
,
00010000
00000000
00000100
00001000
00000000
00000010
00000100
00000000
00000001
00000000
00000010
00000000
00000100
00000000
00010000
00000000
,
00001000
00000000
00100000
00010000
00000000
01000000
00100000
00000000
10000000
00000000
10000000
00000000
01000000
00000000
01000000
00000000
,
00010000
00020000
00000000
00000000
00000000
00000000
00030000
00000000
,
00001000
00000000
00010000
00000100
00000000
00001000
00000100
00000000
00000010
00000000
00000001
00000000
00000100
00000000
00000010
00000000
,
00010000
00000000
00001000
00010000
00000000
00001000
00100000
00000000
00010000
00000000
01000000
00000000
00100000
00000000
10000000
00000000
,
01000000
00000000
00010000
00001000
00000000
00000100
00000010
00000000
00001000
00000000
00001000
00000000
00000100
00000000
00000100
00000000
,
00000010
00000020
00000000
00000000
00000000
00000000
00000030
00000000
,
00000001
00000000
00000000
00000010
00000000
00000000
00000100
00000000
00000000
00000010
00000000
00000000
00000001
00000000
00000000
00000000
00000000
00000000
00000100
00000000
00000000
00000010
00000000
00000000
00001000
00000000
00000000
00000010
00000000
00000000
00000100
00000000
00000000
00000000
00000000
00000000
00000000
00000000
00000000
00000000
00000000
00000000
00000010
00000000
00000100
00000000
00000010
00000000
,
00000100
00000010
00000000
00000220
00000000
00000330
00000010
00001000
,
00000001
00000000
00000000
00000010
00000000
00000001
00000100
00001000
00010000
00001000
00000100
00001000
,
00010000
00000000
01000000
00000000
00010000
00000000
00001000
00000000
00000000
00000000
00000000
00000000
02002000
00000000
00000000
00000000
00000000
00000000
00000000
00000000
00000000
03003000
00000000
00000000
,
01000000
00000000
00000000
00001000
00000000
00000000
00010000
00000000
00000000
00001000
00000000
00000000
01000000
00000000
00000000
00000000
00000000
00000000
00010000
00000000
00000000
01000000
00000000
00000000
00010000
00000000
00000000
10000000
00000000
00000000
00100000
00000000
00000000
00000000
00000000
00000000
00000000
00000000
00000000
00000000
00000000
00000000
01000000
00000000
00100000
00000000
01000000
00000000
,
00100000
01000000
00000000
02200000
00000000
03300000
00100000
10000000
,
00010000
00000000
00010000
00200000
00000000
00301000
00010000
00000010
,
00000000
00000000
00000010
00001000
00000100
00000010
00000001
00000000
00000000
00000000
00002002
00000000
00000000
00000000
00003003
00000000
,
00000001
00000100
00001000
00000000
00010000
01000000
10000000
00000000
,
10000000
01000000
00010000
00000000
00001000
00000100
00000001
00000000
,
00000001
00000000
00000010
00000000
00000100
00000000
00000000
00000000
00001000
00000100
00010000
00001000
00010000
00000000
00000000
00000000
,
00010000
01000000
00100000
00000000
00100000
01000000
10000000
00000000
,
21000000
00000000
00000000
00000000
30010000
00000000
00000000
00000000
10000000
00010000
00000000
01000000
00001000
00000000
00000000
00000000
,
00020000
00000000
00000000
00000000
00030100
00000000
00000000
00000000
00010000
00000100
00000000
00000010
00000100
00000000
00000000
00000000
,
00002000
00000000
00000000
00000000
00003100
00000000
00000000
00000000
00000010
00000100
00000000
00001000
00000100
00000000
00000000
00000000
,
00000020
00000000
00000000
00000000
00000031
00000000
00000000
00000001
00000010
00000000
00000000
00000100
00010000
00000000
00000000
00000000
,
00011000
00022000
00000000
00000000
00000000
00000000
00033000
00000000
;

//---------------dance-double - ----------------
#NOTES:
     dance-double:
     :
     Hard:
     7:
     0.532,0.677,0.178,0.609,0.070:
00000000
00000000
00000000
00000000
,
00000000
00000000
00000000
00000000
,
00000000
00000000
00000000
00000000
,
00000000
00000000
00000000
00000000
,
00022000
00000000
00000000
00033000
00000000
00000000
02002000
00000000
00000000
03003000
00000000
00000000
01000000
00000000
00010000
00000000
,
20020000
00000000
00000000
30030000
00000000
00000000
22000000
00000000
00000000
33000000
00000000
00000000
01000000
00000000
00100000
00000000
,
00220000
00000000
00000000
00330000
00000000
00000000
00202000
00000000
00000000
00303000
00000000
00000000
00001000
00000000
00010000
00000000
,
00020200
00000000
00000000
00030300
00000000
00000000
00002200
00000000
00000000
00003300
00000000
00000000
00000100
00000000
00001000
00000000
,
00002001
00000001
00000000
00000100
00000000
00000001
00000000
00000010
,
00000000
00003002
00000000
00000100
00000000
00001003
00000100
00010000
,
00000000
00002000
00000000
00010000
00000000
01000000
00000000
00010000
,
00000000
00003200
00000000
00000001
00000000
00000310
00010000
00001000
,
00000000
00020000
00000000
00000100
00000000
00001000
00000000
00000010
,
00000000
02030000
00000000
10000000
00000000
03100000
00010000
10000000
,
00000000
00020000
00000000
01000000
00000000
10000000
00000000
00100000
,
00000000
20030000
00000000
01000000
00000000
30100000
01000000
00001000
,
00010000
00000000
00000000
00010000
00000000
00000000
00010000
00000000
00000000
00000000
00000100
00000000
00001000
00000000
00000100
00000000
,
00000001
00000000
00000000
00000001
00000000
00000000
00000001
00000000
00000000
00000000
00000100
00000000
00010000
00000000
00001000
00000000
,
00010000
00000000
00000000
00010000
00000000
00000000
00010000
00000000
00000000
00000000
00010000
00000000
00001000
00000000
01000000
00000000
,
10000000
00000000
00000000
10000000
00000000
00000000
10000000
00000000
00000000
00000000
10000000
00000000
01000000
00000000
00010000
00000000
,
01000000
00000000
00000000
01000000
00000000
00000000
01000000
00000000
00000000
00000000
00001000
00000000
00010000
00000000
00001000
00000000
,
00000100
00000000
00000000
00000100
00000000
00000000
00000100
00000000
00000000
00000000
00000100
00000000
00000001
00000000
00001000
00000000
,
00000010
00000000
00000000
00000010
00000000
00000000
00000010
00000000
00000000
00000000
00010000
00000000
00001000
00000000
00010000
00000000
,
00100000
00000000
00000000
00100000
00000000
00000000
00100000
00000000
00000000
00000000
10000000
00000000
00010000
00000000
20000000
00000000
,
00000000
00000000
01000000
00000000
00000000
01000000
00000000
00000000
02000000
00000000
00000000
00000000
33000000
00000000
00000000
00000000
,
10000000
01000000
00010000
00001000
00000100
00000001
00000000
00000000
,
00000001
00001000
00000000
00002002
00000000
00003003
00000001
00000010
,
00000100
00000000
00001000
00000001
00000000
00000100
00000000
00002000
,
00000000
00000000
00010000
00013000
00000000
00022000
00000000
00033000
,
00010000
00000100
00000001
00000100
00010000
00100000
00000000
00000000
,
10000000
00010000
00000000
20020000
00000000
30030000
10000000
01000000
,
00010000
00000000
00010000
00001000
00000000
00010000
00001000
00000010
,
00000000
00000000
00000010
00000001
00000010
00000001
00001000
00000000
00000000
00000000
00002002
00000000
00000000
00000000
00003003
00000000
,
00000001
00000100
00001000
00000100
00000001
00000010
00001000
00010000
,
01000000
10000000
01000000
00100000
00001000
00000000
00000000
00000000
,
00001000
00010000
01000000
00010000
00001000
00000010
00001000
00010000
,
00001000
00000100
00001000
00100000
10000000
00000000
00000000
00000000
,
10000000
00000000
00100000
00000000
00001000
00000000
00010000
00000000
00000100
00000000
00000010
00000000
00000001
00000000
00000100
00000001
,
00000100
00000010
00010000
00001000
01000000
10000000
00000000
00000000
,
10000000
00000000
01000000
00010000
01000000
00000000
00010000
00000000
00001000
00000000
00000010
00000000
00000001
00000000
00000010
00000000
,
00000100
00010000
00001000
01000000
00100000
20000000
00000000
30000000
,
01000000
10000000
00000000
10000000
00100000
01000000
00001000
00010000
,
00000100
00001000
00000000
00001000
00000010
00000100
00000001
00000010
,
00000001
00000100
00000000
00000000
00000100
00000100
00001000
00001000
,
00100000
00200000
00000000
00000000
00000000
00000000
00300000
00000000
,
00010000
10000000
00000000
10000000
01000000
00100000
00001000
00010000
,
00000100
00001000
00000000
00001000
00000010
00000100
00000001
00000100
,
00001000
00010000
00000000
00000000
00001000
00001000
00000100
00000100
,
00000010
00000020
00000000
00000000
00000000
00000000
00000030
00000000
,
00000001
00000010
00001000
00010000
00100000
10000000
00000000
00000000
,
00100000
00001000
00000000
00022000
00000000
00033000
00001000
00010000
,
01000000
00000000
10000000
00010000
00000000
01000000
00000000
00002000
,
00000000
00000000
00010000
00013000
00000000
00022000
00000000
00033000
,
00010000
00000100
00000010
00000001
00000100
00001000
00000000
00000000
,
00001000
00100000
00000000
00220000
00000000
00330000
00010000
10000000
,
01000000
00000000
01000000
10000000
00000000
10000000
01000000
00100000
,
00000000
00000000
00010000
00100000
00010000
00100000
01000000
00000000
00000000
00000000
22000000
00000000
00000000
00000000
33000000
00000000
,
20000000
31000000
00020000
01030000
,
20000000
30100000
00020000
00130000
,
20000000
31000000
00020000
00031000
,
00000200
00000301
00000020
00000130
,
00002000
00000000
00003200
00000000
,
00020300
00000000
00032000
00000000
,
00203000
00000000
00320000
00000000
,
02030000
00000000
03002000
00003000
,
00011000
00022000
00000000
00000000
00000000
00000000
00033000
00000000
;

//---------------dance-double - ----------------
#NOTES:
     dance-double:
     :
     Medium:
     6:
     0.439,0.485,0.066,0.421,0.005:
00000000
00000000
00000000
00000000
,
00000000
00000000
00000000
00000000
,
00000000
00000000
00000000
00000000
,
00000000
00000000
00000000
00000000
,
00002000
00000000
00000000
00003000
00000000
00000000
00020000
00000000
00000000
00030000
00000000
00000000
01000000
00000000
00000000
00000000
,
20000000
00000000
00000000
30000000
00000000
00000000
00200000
00000000
00000000
00300000
00000000
00000000
01000000
00000000
00000000
00000000
,
00002000
00000000
00000000
00003000
00000000
00000000
00020000
00000000
00000000
00030000
00000000
00000000
00000010
00000000
00000000
00000000
,
00002000
00000000
00000000
00003000
00000000
00000000
00000002
00000000
00000000
00000003
00000000
00000000
00000100
00000000
00000000
00000000
,
00001000
00010000
01000000
10000000
,
01000000
00010000
00001000
00000010
,
00001000
00010000
00100000
10000000
,
01000000
00010000
00001000
00000100
,
00001001
00000001
00000010
00000100
,
00010000
00001000
00010000
01000000
,
10000000
00100000
01000000
00100000
,
10000000
01000000
00010000
00001000
,
00010000
00000000
00000000
00010000
00000000
00000000
00000100
00001000
,
00000001
00000000
00000000
00000001
00000000
00000000
00000100
00001000
,
00010000
00000000
00000000
00010000
00000000
00000000
00010000
01000000
,
10000000
00000000
00000000
10000000
00000000
00000000
01000000
10000000
,
00010000
00000000
00000000
00010000
00000000
00000000
01000000
00001000
,
00010000
00000000
00000000
00010000
00000000
00000000
00000100
00001000
,
00000002
00000000
00000000
00000003
00000000
00000000
00000001
00000000
00000000
00000000
00000000
00000000
00000100
00000000
00000001
00000000
,
00000020
00000000
00000000
00000030
00000000
00000000
00000010
00000000
00000000
00000000
00000100
00000000
00010000
00000000
00002000
00000000
,
00000000
00000000
00010000
00000000
00000000
00010000
00000000
00000000
00020000
00000000
00000000
00000000
00033000
00000000
00000000
00000000
,
00010000
00001000
01000000
00000000
01000000
00010000
10000000
00000000
,
10000000
00010000
00000000
10010000
00000000
00000000
00010000
10000000
,
01000000
00000000
00100000
01000000
00000000
10000000
00000000
00020000
,
00000000
00000000
00000000
10000000
00000000
20030000
00000000
00000000
,
31000000
10000000
00010000
00000000
00010000
01000000
00001000
00000000
,
00001000
00010000
00000000
00022000
00000000
00033000
00010000
00001000
,
00000100
00000000
00000100
00000001
00000000
00000100
00000001
00002000
,
00000000
00000000
00000000
00000001
00000000
00000002
00000000
00003003
,
00000001
00001000
00000001
00000000
00000001
00000100
00000001
00000000
,
00000001
00000100
00000001
00001000
00000010
00000000
00000000
00000000
,
00000010
00001000
00000010
00000000
00000010
00010000
00001000
00000000
,
00001000
01000000
00010000
10000000
00010000
00000000
00000000
00000000
,
00010000
01000000
10000000
00000000
10000000
01000000
00010000
00000000
,
10000000
01000000
00100000
00001000
00010000
00001000
00000000
00000000
,
00010000
00000100
00001000
00000000
00000010
00001000
00000100
00000000
,
00000001
00000001
00000100
00010000
00001000
00020000
00000000
00000000
,
00031000
00010000
00000000
00010000
00001000
01000000
00010000
10000000
,
01000000
10000000
00000000
01000000
10000000
00010000
01000000
00001000
,
00010000
00001000
00000000
00000000
00010000
00000100
00010000
00000100
,
00010000
00000020
00000000
00000000
00000000
00000000
00000030
00000000
,
00001000
00000010
00000000
00000010
00000100
00000001
00001000
00000100
,
00010000
00001000
00000000
00001000
00100000
00010000
10000000
00100000
,
10000000
01000000
00000000
00000000
01000000
10000000
01000000
10000000
,
01000000
00200000
00000000
00000000
00000000
00000000
00300000
00000000
,
00001000
00010000
00001000
00000000
00001000
00010000
00000010
00000000
,
00000010
00001000
00000000
00002020
00000000
00003030
00001000
00000010
,
00000100
00000000
00000001
00001000
00000000
00000100
00000000
00002000
,
00000000
00000000
00000000
00000001
00000000
00000002
00000000
00003003
,
00000001
00001000
00000100
00000000
00000100
00010000
00001000
00000000
,
00001000
00010000
00000000
00022000
00000000
00033000
00001000
00010000
,
01000000
00000000
01000000
10000000
00000000
01000000
10000000
00200000
,
00000000
00000000
00000000
10000000
00000000
20000000
00000000
00300000
,
30100000
10000000
01000000
10000000
,
00100000
01000000
00010000
00100000
,
00010000
01000000
00001000
00010000
,
00001000
01000000
00001000
00010000
,
00000200
00000000
00000320
00000000
,
00000032
00000000
00000203
00000000
,
00002300
00000000
00023000
00000000
,
02030000
00000000
23000000
30000000
,
10010000
20020000
00000000
00000000
00000000
00000000
30030000
00000000
,
20000000
00000000
32000000
00000000
,
03020000
00000000
00032000
00000000
,
00003200
00000000
00000302
00000000
,
00000003
00000000
00000000
00000000
;

//---------------dance-double - ----------------
#NOTES:
     dance-double:
     :
     Easy:
     4:
     0.300,0.355,0.019,0.356,0.000:
00000000
00000000
00000000
00000000
,
00000000
00000000
00000000
00000000
,
00000000
00000000
00000000
00000000
,
00000000
00000000
00000000
00000000
,
00002000
00000000
00000000
00003000
00000000
00000000
00010000
00000000
,
00002000
00000000
00000000
00003000
00000000
00000000
01000000
00000000
,
00020000
00000000
00000000
00030000
00000000
00000000
10000000
00000000
,
00020000
00000000
00000000
00030000
00000000
00000000
01000000
00000000
,
00001000
00000000
00010000
00000000
,
00000100
00000000
00000010
00000000
,
00000001
00000000
00000100
00000000
,
00001000
00000000
00010000
00000000
,
01000000
10000000
00010000
00000000
,
00010000
10000000
01000000
00000000
,
01000000
00100000
00001000
00000000
,
00001000
00010000
00000200
00000000
,
00001300
00000000
00000000
00001000
00000000
00000000
00000100
00000000
,
00000001
00000000
00000000
00000001
00000000
00000000
00000100
00000000
,
00010000
00000000
00000000
00010000
00000000
00000000
00100000
00000000
,
10000000
00000000
00000000
10000000
00000000
00000000
00100000
00000000
,
00010000
00000000
00000000
00010000
00000000
00000000
00001000
00000000
,
00000100
00000000
00000000
00000100
00000000
00000000
00001000
00000000
,
00100000
00000000
00000000
00100000
00000000
00000000
01000000
00000000
,
10000000
00000000
00000000
10000000
00000000
00000000
20000000
00000000
,
00000000
00000000
00000000
30000000
,
10000000
01000000
00100000
00000000
,
00200000
00000000
00000000
00300000
00000000
00000000
00100000
00000000
,
00001000
00000000
00000000
00010000
00000000
00000100
00000000
00002000
,
00000000
00000000
00000000
00000001
00000000
00000002
00000000
00003003
,
00000001
00000100
00000010
00000000
,
00020000
00000000
00000000
00030000
00000000
00000000
00010000
00000000
,
00001000
00000000
00000000
00100000
00000000
00010000
00000000
20010000
,
00000000
00000000
00000000
00010000
00000000
00020000
00000000
30030000
,
10000000
01000000
00010000
01000000
,
10000000
01000000
00010000
00000000
,
00001000
00000100
00000001
00000100
,
00001000
00000100
00000001
00000000
,
00000001
00000010
00000100
00010000
,
00001000
00100000
00010000
00000000
,
00010000
10000000
00100000
01000000
,
00001000
00010000
00000100
00000000
,
00000100
00001000
00000000
00000000
00000010
00000000
00000100
00000000
,
00000001
00000010
00000000
00000000
00000100
00000000
00010000
00000000
,
00001000
00100000
00000000
00000000
00020000
00030000
02000000
03000000
,
00100000
00200000
00000000
00000000
00000000
00000000
00300000
00000000
,
10000000
00100000
00000000
00000000
01000000
00000000
00001000
00000000
,
00010000
00000100
00000000
00000000
00001000
00000000
00000010
00000000
,
00000100
00000001
00000000
00000000
00000020
00000030
00000200
00000300
,
00010000
00020000
00000000
00000000
00000000
00000000
00030000
00000000
,
00001000
00010000
01000000
00000000
,
20000000
00000000
00000000
30000000
00000000
00000000
00100000
00000000
,
10000000
00000000
00000000
01000000
00000000
00010000
00000000
00002000
,
00000000
00000000
00000000
00010000
00000000
00020000
00000000
00033000
,
00010000
00000100
00001000
00000000
,
00000002
00000000
00000000
00000003
00000000
00000000
00000001
00000000
,
00000100
00000000
00000000
00001000
00000000
00010000
00000000
00012000
,
00000000
00000000
00000000
00010000
00000000
00013000
00000000
00000000
,
00010000
00001000
00000100
00001000
,
00010000
00001000
00000010
00001000
,
00010000
01000000
10000000
01000000
,
00010000
01000000
00100000
01000000
,
00020000
00000000
00032000
00000000
,
00003200
00000000
00000302
00000000
,
00000023
00000000
00002030
00000000
,
00023000
00000000
02030000
00000000
,
03010000
00020000
00000000
00000000
00000000
00000000
00030000
00000000
,
00002000
00000000
00003200
00000000
,
00000302
00000000
00000203
00000000
,
00002300
00000000
00023000
00000000
,
00030000
00000000
00000000
00000000
;

//---------------dance-single - Copied from----------------
#NOTES:
     dance-single:
     Copied from:
     Edit:
     9:
     0.643,0.739,0.169,0.421,0.412: // measure 1
0000
0000
0000
0000
,  // measure 2
0000
0000
0000
0000
,  // measure 3
0000
0000
0000
0000
,  // measure 4
0000
0000
0000
0000
,  // measure 5
2002
0000
0000
3003
0000
0000
2002
0000
0000
3003
0000
0000
0100
0000
0010
0000
,  // measure 6
2002
0000
0000
3003
0000
0000
2002
0000
0000
3003
0000
0000
0010
0000
1000
0000
,  // measure 7
2002
0000
0000
3003
0000
0000
2002
0000
0000
3003
0000
0000
1000
0000
0100
0000
,  // measure 8
0010
0000
0100
1000
0000
0001
1000
0000
0010
0100
0010
0100
0001
1000
0001
1000
,  // measure 9
0002
0100
0000
1000
0000
0010
0000
2003
,  // measure 10
0000
0100
0000
0001
0000
3100
0010
0100
,  // measure 11
0000
2000
0000
0010
0000
0100
0000
3002
,  // measure 12
0000
0010
0000
0100
0000
1003
0001
1000
,  // measure 13
2100
0100
0000
0001
0000
0010
0000
3001
,  // measure 14
0000
0002
0000
1000
0000
0013
0100
0010
,  // measure 15
0000
0002
0000
0100
0000
1000
0000
0013
,  // measure 16
0000
0000
0001
0100
0000
0001
1000
0000
0100
0010
0100
0010
0001
1000
0001
1000
,  // measure 17
0001
0000
0000
0001
0000
0000
0001
0000
0000
0000
0100
0000
0001
0000
0100
0000
,  // measure 18
1000
0000
0000
1000
0000
0000
1000
0000
0000
0000
1000
0000
0100
0000
0001
0000
,  // measure 19
0100
0000
0000
0100
0000
0000
0100
0000
0000
0000
0100
0000
0001
0000
1000
0000
,  // measure 20
0010
0000
0000
0010
0000
0000
0010
0000
0000
0000
1000
0000
0001
0000
0100
0000
,  // measure 21
0001
0000
0000
0001
0000
0000
0001
0000
0000
0000
0100
0000
0001
0000
1000
0000
,  // measure 22
0100
0000
0000
0100
0000
0000
0100
0000
0000
0000
0100
0000
1000
0000
0001
0000
,  // measure 23
1000
0000
0000
1000
0000
0000
1000
0000
0000
0000
1000
0000
0100
0000
1000
0000
,  // measure 24
0010
0000
0000
0010
0000
0000
0010
0000
0000
0000
1000
0000
0001
0000
2000
0000
,  // measure 25
0000
0000
0000
3000
,  // measure 26
0100
0000
0000
1000
0000
0000
0100
0000
0000
1000
0000
0000
0001
0000
0000
0000
0000
0000
0100
0000
0000
0001
0000
0000
0100
0000
0000
0001
0000
0000
1000
0000
0000
0000
0000
0000
0000
0000
0000
0000
0000
0000
0001
0000
1000
0000
0001
0000
,  // measure 27
1000
0001
0000
2002
0000
3003
0001
1000
,  // measure 28
0100
0000
0010
0100
0000
1000
0000
0001
,  // measure 29
0100
0010
1000
0001
0000
2002
0000
3003
,  // measure 30
1000
0000
0000
0001
0000
0000
1000
0000
0000
0001
0000
0000
0010
0000
0000
0000
0000
0000
0001
0000
0000
1000
0000
0000
0001
0000
0000
1000
0000
0000
0010
0000
0000
0000
0000
0000
0000
0000
0000
0000
0000
0000
0100
0000
0010
0000
0100
0000
,  // measure 31
0010
0100
0000
0220
0000
0330
0010
0100
,  // measure 32
0001
0000
1000
0100
0000
0100
0010
0001
,  // measure 33
0000
0000
0001
0010
0001
1000
0001
0000
0000
0000
0002
0000
0000
0000
0000
0000
,  // measure 34
1003
0100
0010
0100
1000
0100
0010
0100
1000
0000
0001
0000
0100
0000
0001
0000
,  // measure 35
1000
0100
0010
0001
1001
0000
0000
0000
,  // measure 36
0001
0100
0010
0100
0001
0100
0010
0100
0001
0000
1000
0000
0100
0000
1000
0010
,  // measure 37
0100
0000
0001
0000
0010
0000
0001
0100
0010
0000
0000
0000
0000
0000
0000
0000
,  // measure 38
0010
1000
0001
0000
0100
0000
0010
0000
1000
0000
0100
0000
0001
0000
0100
1000
,  // measure 39
0001
0100
0010
1000
0001
0001
0000
0000
,  // measure 40
0001
0010
0100
1000
0001
0000
1000
0001
0100
0000
0010
0000
1000
0000
0100
1000
,  // measure 41
0001
0000
0100
0000
0001
0000
1000
0000
0010
1000
0001
1000
0100
1000
0001
1000
,  // measure 42
0010
0000
0100
0001
0000
0100
0001
0000
0010
0000
0100
0000
1000
0000
0100
0000
,  // measure 43
0010
0000
0100
1000
0000
0100
1000
0000
0010
0000
0100
0000
0001
0000
0010
0000
,  // measure 44
0001
0000
1000
0001
0000
1000
0001
0000
0100
0000
0100
0000
0010
0000
0010
0000
,  // measure 45
1000
2000
0000
0000
0000
0000
3000
0000
,  // measure 46
1000
0000
0010
1000
0000
0010
0100
0000
0001
0000
0010
0000
0001
0000
1000
0000
,  // measure 47
0100
0000
1000
0100
0000
0010
0100
0000
1000
0000
0010
0000
0100
0000
0001
0000
,  // measure 48
0010
0000
0001
0010
0000
0100
0010
0000
0001
0000
0001
0000
0100
0000
0100
0000
,  // measure 49
0010
0020
0000
0000
0000
0000
0030
0000
,  // measure 50
1000
0000
0000
0010
0000
0000
1000
0000
0000
0001
0000
0000
1000
0000
0000
0000
0000
0000
0001
0000
0000
0010
0000
0000
0001
0000
0000
1000
0000
0000
0001
0000
0000
0000
0000
0000
0000
0000
0000
0000
0000
0000
1000
0000
0001
0000
1000
0000
,  // measure 51
0001
1000
0000
2002
0000
3003
0001
1000
,  // measure 52
0100
0000
0010
0001
0000
0101
0000
0001
,  // measure 53
0100
0010
1000
0001
0000
2002
0000
3003
,  // measure 54
0001
0000
0000
0100
0000
0000
0010
0000
0000
1000
0000
0000
0100
0000
0000
0000
0000
0000
1000
0000
0000
0100
0000
0000
0010
0000
0000
0001
0000
0000
1000
0000
0000
0000
0000
0000
0000
0000
0000
0000
0000
0000
0010
0000
0100
0000
0010
0000
,  // measure 55
0100
0010
0000
0220
0000
0330
0010
0100
,  // measure 56
0001
0000
0001
2000
0000
3001
1000
0020
,  // measure 57
0000
0000
1030
0001
1000
0001
1000
0000
0000
0000
2002
0000
0000
0000
3003
0000
,  // measure 58
1000
0100
0001
0000
0001
0100
1000
0000
,  // measure 59
1000
0100
0010
0000
0010
0100
1000
0000
,  // measure 60
0001
0100
0010
0000
0010
0100
0001
0000
,  // measure 61
0001
0010
0100
0000
0100
0010
0001
0000
,  // measure 62
0002
0000
0000
0000
0103
0000
0000
0000
0010
0100
0000
0010
1000
0000
0000
0000
,  // measure 63
0200
0000
0000
0000
0310
0000
0000
0000
0001
1000
0000
0100
1000
0000
0000
0000
,  // measure 64
0002
0000
0000
0000
0013
0000
0000
0000
0001
0010
0000
0100
0010
0000
0000
0000
,  // measure 65
0200
0000
0000
0000
0310
0000
0000
0000
0001
0100
0000
0001
1000
0000
0000
0000
,  // measure 66
1001
2002
0000
0000
0000
0000
3003
0000
;

//---------------dance-single - ----------------
#NOTES:
     dance-single:
     :
     Easy:
     4:
     0.320,0.420,0.019,0.459,0.000:
0000
0000
0000
0000
,
0000
0000
0000
0000
,
0000
0000
0000
0000
,
0000
0000
0000
0000
,
2000
0000
0000
3000
0000
0000
0001
0000
,
2000
0000
0000
3000
0000
0000
0100
0000
,
0002
0000
0000
0003
0000
0000
1000
0000
,
0002
0000
0000
0003
0000
0000
0100
0000
,
1000
0100
0010
0000
,
0001
0100
0010
0000
,
1000
0010
0100
0000
,
0001
0010
0100
0000
,
1000
0100
0001
0000
,
0001
0100
1000
0000
,
1000
0010
0001
0000
,
0001
0010
2000
0000
,
3001
0000
0000
0001
0000
0000
0100
0000
,
1000
0000
0000
1000
0000
0000
0100
0000
,
0001
0000
0000
0001
0000
0000
1000
0000
,
0100
0000
0000
0100
0000
0000
1000
0000
,
0001
0000
0000
0001
0000
0000
0010
0000
,
1000
0000
0000
1000
0000
0000
0010
0000
,
0001
0000
0000
0001
0000
0000
0100
0000
,
0010
0000
0000
0010
0000
0000
2000
0000
,
0000
0000
0000
3000
,
1000
0100
0010
0000
,
0002
0000
0000
0003
0000
0000
0001
0000
,
0010
0000
0000
0100
0000
1000
0000
0002
,
0000
0000
0000
1000
0000
2000
0000
3003
,
1000
0001
0010
0000
,
0200
0000
0000
0300
0000
0000
0100
0000
,
1000
0000
0000
0001
0000
0100
0000
0020
,
0000
0000
0000
1000
0000
2000
0000
3030
,
1000
0100
0001
0100
,
1000
0001
1000
0000
,
0001
0010
1000
0010
,
0001
1000
0001
0000
,
0001
0100
0010
1000
,
0100
1000
0001
0000
,
0001
0100
0010
1000
,
0001
0100
0002
0000
,
0103
0001
0000
0000
1000
0000
0001
0000
,
0010
0001
0000
0000
1000
0000
0010
0000
,
1000
0001
0000
0000
0200
0300
0002
0003
,
0010
0020
0000
0000
0000
0000
0030
0000
,
0100
1000
0000
0000
0001
0000
1000
0000
,
0010
1000
0000
0000
0001
0000
0010
0000
,
0001
1000
0000
0000
2000
3000
0200
0300
,
0010
0020
0000
0000
0000
0000
0030
0000
,
0001
0100
0010
0000
,
2000
0000
0000
3000
0000
0000
1000
0000
,
0100
0000
0000
0010
0000
0100
0000
2000
,
0000
0000
0000
0001
0000
0002
0000
3003
,
0001
0100
0010
0000
,
2000
0000
0000
3000
0000
0000
1000
0000
,
0100
0000
0000
0010
0000
0001
0000
1000
,
0000
0000
0000
1001
0000
2002
0000
3003
,
2000
0100
3200
0010
,
0320
0001
0032
1000
,
2003
0010
3020
0100
,
0230
0001
0302
1000
,
2003
0000
3200
0000
,
0320
0000
0032
0000
,
0203
0000
0320
0000
,
2030
0000
3002
0000
,
2003
0002
0000
0000
0000
0000
3003
0000
,
2000
0000
3200
0000
,
0302
0000
0203
0000
,
2300
0000
3002
0000
,
0003
0000
0000
0000
;

//---------------dance-double - Copied from----------------
#NOTES:
     dance-double:
     Copied from:
     Edit:
     9:
     0.638,0.739,0.178,0.440,0.393:
00000000
00000000
00000000
00000000
,
00000000
00000000
00000000
00000000
,
00000000
00000000
00000000
00000000
,
00000000
00000000
00000000
00000000
,
00022000
00000000
00000000
00033000
00000000
00000000
00022000
00000000
00000000
00033000
00000000
00000000
00001000
00000000
01000000
00000000
,
02020000
00000000
00000000
03030000
00000000
00000000
02020000
00000000
00000000
03030000
00000000
00000000
00010000
00000000
10000000
00000000
,
20020000
00000000
00000000
30030000
00000000
00000000
20020000
00000000
00000000
30030000
00000000
00000000
10000000
00000000
01000000
00000000
,
00100000
00000000
00010000
00100000
00000000
01000000
00100000
00000000
01000000
10000000
00100000
01000000
00010000
00100000
01000000
00100000
,
00020000
01000000
00000000
10000000
00000000
00100000
00000000
01000000
,
00000000
20030000
00000000
01000000
00000000
30010000
00100000
00001000
,
00000000
00020000
00000000
00001000
00000000
00000100
00000000
00000010
,
00000000
00032000
00000000
00100000
00000000
00013000
00001000
00000100
,
00000000
00000002
00000000
00000010
00000000
00001000
00000000
00000100
,
00000000
00002003
00000000
00000001
00000000
00003100
00010000
00001000
,
00000000
00020000
00000000
00001000
00000000
00000010
00000000
00000100
,
00000000
00032000
00000000
00100000
00000000
01003000
00010000
10000000
,
01000000
00000000
00000000
01000000
00000000
00000000
01000000
00000000
00000000
00000000
10000000
00000000
00100000
00000000
01000000
00000000
,
00001000
00000000
00000000
00001000
00000000
00000000
00001000
00000000
00000000
00000000
00010000
00000000
00000100
00000000
00001000
00000000
,
00000001
00000000
00000000
00000001
00000000
00000000
00000001
00000000
00000000
00000000
00001000
00000000
00000100
00000000
00010000
00000000
,
00001000
00000000
00000000
00001000
00000000
00000000
00001000
00000000
00000000
00000000
00010000
00000000
00001000
00000000
01000000
00000000
,
00010000
00000000
00000000
00010000
00000000
00000000
00010000
00000000
00000000
00000000
10000000
00000000
01000000
00000000
00100000
00000000
,
00001000
00000000
00000000
00001000
00000000
00000000
00001000
00000000
00000000
00000000
00010000
00000000
00000100
00000000
00001000
00000000
,
00000010
00000000
00000000
00000010
00000000
00000000
00000010
00000000
00000000
00000000
00001000
00000000
00000100
00000000
00010000
00000000
,
00100000
00000000
00000000
00100000
00000000
00000000
00100000
00000000
00000000
00000000
10000000
00000000
00010000
00000000
20000000
00000000
,
00000000
00000000
00000000
30000000
,
10000000
00000000
00000000
01000000
00000000
00000000
10000000
00000000
00000000
01000000
00000000
00000000
00100000
00000000
00000000
00000000
00000000
00000000
00010000
00000000
00000000
00100000
00000000
00000000
00010000
00000000
00000000
00100000
00000000
00000000
00001000
00000000
00000000
00000000
00000000
00000000
00000000
00000000
00000000
00000000
00000000
00000000
00010000
00000000
00001000
00000000
00010000
00000000
,
00001000
00010000
00000000
00022000
00000000
00033000
00010000
00000100
,
00001000
00000000
00000100
00000010
00000000
00000001
00000000
00000001
,
00000100
00000010
00001000
00000001
00000000
00002002
00000000
00003003
,
00000001
00000000
00000000
00001000
00000000
00000000
00000001
00000000
00000000
00001000
00000000
00000000
00000100
00000000
00000000
00000000
00000000
00000000
00001000
00000000
00000000
00000100
00000000
00000000
00001000
00000000
00000000
00000100
00000000
00000000
00010000
00000000
00000000
00000000
00000000
00000000
00000000
00000000
00000000
00000000
00000000
00000000
00001000
00000000
00010000
00000000
00001000
00000000
,
00010000
00001000
00000000
00022000
00000000
00033000
00001000
00100000
,
00010000
00000000
00010000
20000000
00000000
31000000
10000000
00100000
,
00000000
00000000
00100000
10000000
00010000
01000000
00010000
00000000
00000000
00000000
20020000
00000000
00000000
00000000
30030000
00000000
,
10000000
01000000
00100000
01000000
10000000
01000000
00100000
00010000
10000000
00000000
01000000
00000000
00010000
00000000
00001000
00000000
,
00000100
00000001
00000010
00000001
00001001
00000000
00000000
00000000
,
00000001
00000100
00000010
00000100
00000001
00000100
00000010
00001000
00000001
00000000
00000100
00000000
00001000
00000000
00010000
00001000
,
00100000
00000000
00010000
00000000
01000000
00000000
00100000
10000000
00010000
00000000
00000000
00000000
00000000
00000000
00000000
00000000
,
00010000
10000000
01000000
00000000
10000000
00000000
00100000
00000000
01000000
00000000
00001000
00000000
00010000
00000000
00000100
00001000
,
00000001
00000100
00000001
00001000
00000010
00000100
00000000
00000000
,
00000010
00000100
00000001
00001000
00000001
00000000
00001000
00000001
00000010
00000000
00000001
00000000
00000100
00000000
00001000
00010000
,
00001000
00000000
01000000
00010000
00000000
00010000
10000000
00000000
00100000
10000000
00010000
01000000
00010000
10000000
00100000
01000000
,
00010000
00000000
01000000
00010000
00000000
10000000
00010000
00000000
00100000
00000000
01000000
00000000
00010000
00000000
00001000
00000000
,
00010000
00000000
00000100
00001000
00000000
00000010
00000100
00000000
00000001
00000000
00000010
00000000
00000100
00000000
00010000
00000000
,
00001000
00000000
00100000
00010000
00000000
01000000
00100000
00000000
10000000
00000000
10000000
00000000
01000000
00000000
01000000
00000000
,
00010000
00020000
00000000
00000000
00000000
00000000
00030000
00000000
,
00001000
00000000
00010000
00000100
00000000
00001000
00000100
00000000
00000010
00000000
00000001
00000000
00000100
00000000
00000010
00000000
,
00010000
00000000
00001000
00010000
00000000
00001000
00100000
00000000
00010000
00000000
01000000
00000000
00100000
00000000
10000000
00000000
,
01000000
00000000
00010000
00001000
00000000
00000100
00000010
00000000
00001000
00000000
00001000
00000000
00000100
00000000
00000100
00000000
,
00000010
00000020
00000000
00000000
00000000
00000000
00000030
00000000
,
00000001
00000000
00000000
00000010
00000000
00000000
00000100
00000000
00000000
00000010
00000000
00000000
00000001
00000000
00000000
00000000
00000000
00000000
00000100
00000000
00000000
00000010
00000000
00000000
00001000
00000000
00000000
00000010
00000000
00000000
00000100
00000000
00000000
00000000
00000000
00000000
00000000
00000000
00000000
00000000
00000000
00000000
00000010
00000000
00000100
00000000
00000010
00000000
,
00000100
00000010
00000000
00000220
00000000
00000330
00000010
00001000
,
00000001
00000000
00000010
00000100
00000000
00011000
00000000
00001000
,
01000000
00100000
01000000
00001000
00000000
02002000
00000000
03003000
,
01000000
00000000
00000000
00001000
00000000
00000000
00010000
00000000
00000000
00001000
00000000
00000000
01000000
00000000
00000000
00000000
00000000
00000000
00010000
00000000
00000000
01000000
00000000
00000000
00010000
00000000
00000000
10000000
00000000
00000000
00100000
00000000
00000000
00000000
00000000
00000000
00000000
00000000
00000000
00000000
00000000
00000000
01000000
00000000
00100000
00000000
01000000
00000000
,
00100000
01000000
00000000
02200000
00000000
03300000
00100000
10000000
,
00010000
00000000
00010000
00200000
00000000
00301000
00010000
00000010
,
00000000
00000000
00000010
00001000
00000100
00000010
00000001
00000000
00000000
00000000
00002002
00000000
00000000
00000000
00003003
00000000
,
00000001
00000100
00001000
00000000
00010000
01000000
10000000
00000000
,
10000000
01000000
00010000
00000000
00001000
00000100
00000001
00000000
,
00000001
00000010
00000100
00000000
00001000
00000100
00010000
00000000
,
00010000
01000000
00100000
00000000
00100000
01000000
10000000
00000000
,
21000000
00000000
00000000
00000000
30010000
00000000
00000000
00000000
10000000
00010000
00000000
01000000
00001000
00000000
00000000
00000000
,
00020000
00000000
00000000
00000000
00030100
00000000
00000000
00000000
00010000
00000100
00000000
00000010
00000100
00000000
00000000
00000000
,
00002000
00000000
00000000
00000000
00003100
00000000
00000000
00000000
00000010
00000100
00000000
00001000
00000100
00000000
00000000
00000000
,
00000020
00000000
00000000
00000000
00000031
00000000
00000000
00000001
00000010
00000000
00000000
00000100
00010000
00000000
00000000
00000000
,
00011000
00022000
00000000
00000000
00000000
00000000
00033000
00000000
;
