#VERSION:0.83;
#TITLE:Cake By The Ocean;
#SUBTITLE:;
#ARTIST:DNCE;
#TITLETRANSLIT:;
#SUBTITLETRANSLIT:;
#ARTISTTRANSLIT:;
#GENRE:;
#ORIGIN:;
#CREDIT:;
#BANNER:Cake By The Ocean.png;
#BACKGROUND:Cake By the Ocean-bg.png;
#PREVIEWVID:;
#JACKET:Cake By The Ocean-jacket.png;
#CDIMAGE:;
#DISCIMAGE:;
#LYRICSPATH:;
#CDTITLE:;
#MUSIC:Cake By The Ocean.ogg;
#OFFSET:-0.240000;
#SAMPLESTART:40.577000;
#SAMPLELENGTH:15.639989;
#SELECTABLE:YES;
#BPMS:0.000=119.000;
#STOPS:76.000=1.513;
#DELAYS:;
#WARPS:;
#TIMESIGNATURES:0.000=4=4;
#TICKCOUNTS:0.000=4;
#COMBOS:0.000=1;
#SPEEDS:0.000=1.000=0.000=0;
#SCROLLS:0.000=1.000;
#FAKES:;
#LABELS:0.000=Song Start;
#BGCHANGES:;
#KEYSOUNDS:;
#ATTACKS:
;

//---------------dance-single - ----------------
#NOTEDATA:;
#CHARTNAME:;
#STEPSTYPE:dance-single;
#DESCRIPTION:;
#CHARTSTYLE:;
#DIFFICULTY:Hard;
#METER:6;
#RADARVALUES:0.389811,0.369708,0.171211,0.074905,0.069554,255.000000,239.000000,16.000000,7.000000,0.000000,0.000000,0.000000,0.000000,0.000000,0.389811,0.369708,0.171211,0.074905,0.069554,255.000000,239.000000,16.000000,7.000000,0.000000,0.000000,0.000000,0.000000,0.000000;
#CREDIT:;
#NOTES:
// measure 0
0000
0000
0000
0000
,  // measure 1
0000
0000
0000
0000
,  // measure 2
0000
0000
0000
0000
,  // measure 3
0000
0000
0000
0000
,  // measure 4
1001
0000
0110
0000
0010
0000
0100
0010
,  // measure 5
1000
0000
0001
0000
1000
0100
0010
0100
,  // measure 6
0110
0000
0011
0000
0001
0000
0010
0001
,  // measure 7
0100
0000
0001
0000
0100
0001
1000
0001
,  // measure 8
1001
0000
0110
0000
0100
0000
0010
0100
,  // measure 9
0001
0000
1000
0000
0001
0010
0100
0010
,  // measure 10
0110
1100
0100
0110
,  // measure 11
0011
0000
0001
0000
0010
0001
1001
0000
,  // measure 12
1000
0000
0001
0000
0200
0000
0000
0000
0001
0000
0000
0310
0000
0000
0100
0000
,  // measure 13
0002
0000
0000
0000
0100
0000
0000
1003
0000
0000
0001
0000
1001
0000
0000
0000
,  // measure 14
0001
0000
1000
0000
0200
0000
0000
0000
1000
0000
0000
0310
0000
0000
0100
0000
,  // measure 15
2000
0000
0000
0000
0100
0000
0000
3001
0000
0000
1000
0000
0001
0000
0100
0000
,  // measure 16
0010
0000
0100
0000
0002
0000
0000
0000
0100
0000
0000
1003
0000
0000
0001
0000
,  // measure 17
0020
0000
0000
0000
0001
0000
0000
0130
0000
0000
0010
0000
0110
0000
0000
0000
,  // measure 18
2000
0000
0001
0010
,  // measure 19
3100
0000
1100
0000
0001
0100
0010
0100
,  // measure 20
0001
0100
0001
0000
0100
0000
0001
0100
,  // measure 21
0001
0010
0100
0000
0010
0010
0100
0010
,  // measure 22
0100
1000
0100
0000
1000
0000
0100
1000
,  // measure 23
0001
0100
0010
0000
0100
0001
0100
0010
,  // measure 24
0100
0001
1000
0000
0001
0000
1000
0100
,  // measure 25
0010
0100
0010
0000
0100
0010
0100
1000
,  // measure 26
0100
1000
0001
0000
1000
0001
0100
0010
,  // measure 27
0110
0000
0101
0000
1000
0100
0010
0100
,  // measure 28
1000
0100
1000
0000
0100
0000
1000
0100
,  // measure 29
1000
0010
0100
0000
0010
0010
0100
0010
,  // measure 30
0100
0001
0100
0000
0001
0000
0100
0001
,  // measure 31
1000
0100
0010
0000
0100
1000
0100
0010
,  // measure 32
0100
1000
0001
0000
1000
0000
0001
0100
,  // measure 33
0010
0100
0010
0000
0100
0010
0100
0001
,  // measure 34
0100
0001
1000
0000
0001
1000
0100
0010
,  // measure 35
0100
0000
1000
0000
0001
0000
0000
0000
1000
0000
0001
0000
0100
0000
0000
0001
,  // measure 36
0000
0000
0100
0000
0010
0000
0000
0100
0000
0000
0010
0000
1000
0000
0010
0000
,  // measure 37
0100
0000
0010
0000
1000
0000
0000
0000
0001
0000
1000
0000
0100
0000
0000
1000
,  // measure 38
0000
0000
0100
0000
0010
0000
0000
0100
0000
0000
0010
0000
0001
0000
0010
0000
,  // measure 39
0100
0000
0010
0000
0001
0000
0000
0000
0100
0000
0001
0000
1000
0000
0000
0001
,  // measure 40
0000
0000
1000
0000
0010
0000
0000
1000
0000
0000
0010
0000
1000
0000
0010
0000
,  // measure 41
0100
0010
0100
0000
0010
0100
0010
1000
,  // measure 42
0010
1000
0001
0000
1000
0001
0010
0100
,  // measure 43
0010
0000
0001
0010
0000
0000
0000
0000
0000
0000
0000
0000
0000
0000
0000
0000
;

//---------------dance-single - ----------------
#NOTEDATA:;
#CHARTNAME:;
#STEPSTYPE:dance-single;
#DESCRIPTION:;
#CHARTSTYLE:;
#DIFFICULTY:Challenge;
#METER:8;
#RADARVALUES:0.487645,0.485242,0.214014,0.032102,0.230065,319.000000,299.000000,20.000000,3.000000,4.000000,0.000000,0.000000,0.000000,0.000000,0.487645,0.485242,0.214014,0.032102,0.230065,319.000000,299.000000,20.000000,3.000000,4.000000,0.000000,0.000000,0.000000,0.000000;
#CREDIT:;
#NOTES:
// measure 0
0000
0000
0000
0000
,  // measure 1
0000
0000
0000
0000
,  // measure 2
0000
0000
0000
0000
,  // measure 3
0000
0000
0000
0000
,  // measure 4
0101
0000
0000
0000
0000
0000
0100
0000
0010
0000
0100
0001
0100
0000
0001
0000
,  // measure 5
1000
0100
0010
0100
0001
0100
0010
0001
,  // measure 6
0011
0000
0000
0000
0000
0000
0010
0000
0100
0000
0010
0001
0010
0000
0001
0000
,  // measure 7
1000
0001
0001
1000
0010
0100
0010
1000
,  // measure 8
1010
0000
0000
0000
0000
0000
0010
0000
0100
0000
0010
1000
0010
0000
1000
0000
,  // measure 9
0001
0010
0100
0010
1000
0010
0100
1000
,  // measure 10
1100
0101
0001
0011
,  // measure 11
1001
0000
0001
0000
1000
0001
1001
0000
,  // measure 12
0000
0000
1000
0000
0010
0000
0100
0010
1000
0000
0100
0010
0000
0100
1000
0000
,  // measure 13
0010
0000
0100
0010
1000
0000
0100
0010
0000
0000
0000
0000
0110
0000
0000
0000
,  // measure 14
0000
0000
0001
0000
0100
0000
0010
0000
0100
0000
0001
0010
0000
0100
0010
0000
,  // measure 15
0001
0000
0100
0000
0010
0000
0100
0001
0000
0000
0200
0000
0302
0000
0023
0000
,  // measure 16
0030
0000
0001
0010
0100
0000
0010
0000
0001
0000
0100
0010
0000
0100
0001
0010
,  // measure 17
0100
0000
0010
0000
0001
0000
0100
0010
0100
0000
0010
0100
0001
0000
0010
0000
,  // measure 18
0100
0000
0000
0000
0000
0000
0100
0000
0010
0000
0100
1000
0001
0000
1000
0000
,  // measure 19
MMMM
0000
0000
0000
0110
0000
0000
0000
1010
0000
1000
0000
0100
0000
0010
0100
,  // measure 20
1000
0001
0100
0000
0001
0100
0010
0001
,  // measure 21
0010
0000
0100
0000
0001
0000
0000
0000
1000
0000
1000
0000
0001
0000
1000
0100
,  // measure 22
0010
0100
1000
0000
0010
0100
1000
0100
,  // measure 23
0010
0000
0001
0000
0010
0000
0000
0000
0001
0000
0010
0000
0100
0000
0010
0100
,  // measure 24
0001
0010
0100
0000
0010
0100
1100
1000
,  // measure 25
1010
0010
0110
0000
0010
0100
0001
0010
,  // measure 26
0100
0010
1000
0000
0010
0100
1000
0001
,  // measure 27
1001
0000
0000
0000
0110
0000
0000
0000
0101
0000
0001
0000
0010
0000
0100
0010
,  // measure 28
0001
1000
0010
0000
1000
0010
0100
1000
,  // measure 29
0100
0000
0010
0000
1000
0000
0000
0000
0001
0000
0001
0000
1000
0000
0001
0010
,  // measure 30
0100
0010
0001
0000
0100
0010
0001
0010
,  // measure 31
0100
0000
1000
0000
0100
0000
0000
0000
1000
0000
0100
0000
0010
0000
0100
0010
,  // measure 32
1000
0100
0010
0000
0100
0010
0011
0001
,  // measure 33
0101
0100
0110
0000
0100
0010
1000
0100
,  // measure 34
0010
0000
0100
0000
0001
0000
0000
0000
0100
0000
0010
0000
0001
0000
1000
0001
,  // measure 35
1000
0000
0001
1000
0001
0000
0000
0000
0000
0000
1000
0000
0001
0000
0100
0001
,  // measure 36
0000
0100
0001
0000
0100
0000
0010
0100
0000
0010
0100
0000
0010
0000
0001
0000
,  // measure 37
0010
0000
0100
0010
0100
0000
0000
0000
0000
0000
0001
0000
1000
0000
0100
1000
,  // measure 38
0000
0100
1000
0000
0100
0000
0010
0100
0000
0010
0100
0000
0010
0000
1000
0000
,  // measure 39
0010
0000
0100
0010
0100
0000
0000
0000
0000
0000
0010
0000
0001
0000
1000
0001
,  // measure 40
0000
1000
0001
0000
1000
0000
0010
1000
0000
0010
1000
0000
0010
0000
0001
0000
,  // measure 41
0010
0000
1000
0010
1000
0000
0000
0000
0010
0000
0100
0000
1000
0000
0100
0000
,  // measure 42
0010
0000
0001
0000
0010
0000
0000
0000
0001
0000
0010
0000
0100
0000
0010
0100
,  // measure 43
0001
0000
1000
0001
0000
0000
0000
0000
0000
0000
0000
0000
0000
0000
0000
0000
;

//---------------dance-single - ----------------
#NOTEDATA:;
#CHARTNAME:;
#STEPSTYPE:dance-single;
#DESCRIPTION:;
#CHARTSTYLE:;
#DIFFICULTY:Medium;
#METER:5;
#RADARVALUES:0.299619,0.323027,0.064204,0.032102,0.000000,196.000000,190.000000,6.000000,3.000000,0.000000,0.000000,0.000000,0.000000,0.000000,0.299619,0.323027,0.064204,0.032102,0.000000,196.000000,190.000000,6.000000,3.000000,0.000000,0.000000,0.000000,0.000000,0.000000;
#CREDIT:;
#NOTES:
// measure 0
0000
0000
0000
0000
,  // measure 1
0000
0000
0000
0000
,  // measure 2
0000
0000
0000
0000
,  // measure 3
0000
0000
0000
0000
,  // measure 4
0001
0000
0000
0000
1000
0000
0001
1000
,  // measure 5
0020
0001
1000
0100
,  // measure 6
1030
0000
0000
0000
0001
0000
1000
0001
,  // measure 7
0020
1000
0001
0100
,  // measure 8
0031
0000
0000
0000
0100
0000
0001
0100
,  // measure 9
0020
0001
1000
0100
,  // measure 10
1030
1010
0100
0010
,  // measure 11
0011
0000
0001
0000
0010
0001
1000
0000
,  // measure 12
0001
0000
1000
0000
0001
1000
0010
0000
,  // measure 13
0001
0000
0010
1000
0001
0000
1001
0000
,  // measure 14
1000
0000
0001
0000
1000
0001
0010
0000
,  // measure 15
1000
0000
0010
0001
1000
0001
0100
0010
,  // measure 16
0100
0000
0010
0000
0100
0010
1000
0000
,  // measure 17
0010
0000
1000
0100
0010
0000
0110
0000
,  // measure 18
0100
0000
1000
0001
,  // measure 19
0000
1001
0001
0100
,  // measure 20
1000
0100
0001
0000
0100
0000
0001
0000
,  // measure 21
1000
0100
0010
0000
0100
0000
0001
0000
,  // measure 22
0100
0010
0001
0000
0100
0000
0010
0000
,  // measure 23
0001
0010
0100
0000
1000
0000
0100
0000
,  // measure 24
0010
1000
0001
0000
0000
1000
0001
1000
,  // measure 25
0001
0001
1000
0000
0001
0000
0010
0000
,  // measure 26
1000
0100
1000
0010
,  // measure 27
0001
1001
1000
0010
,  // measure 28
0001
0010
1000
0000
0010
0000
1000
0000
,  // measure 29
0001
0010
0100
0000
0010
0000
1000
0000
,  // measure 30
0010
0100
1000
0000
0010
0000
0100
0000
,  // measure 31
1000
0100
0010
0000
0001
0000
0010
0000
,  // measure 32
0100
0001
1000
0000
0000
0001
1000
0001
,  // measure 33
1000
1000
0001
0000
1000
0000
0100
0000
,  // measure 34
0001
0010
0001
0100
,  // measure 35
1000
0000
0001
0000
1000
0000
0001
0100
,  // measure 36
0001
0000
0100
0010
0100
0000
1000
0100
,  // measure 37
1000
0100
0010
0000
0000
0000
1000
0100
,  // measure 38
1000
0000
0100
0010
0100
0000
0001
0100
,  // measure 39
0001
0100
0010
0000
0000
0000
0100
1000
,  // measure 40
0100
0000
1000
0001
1000
0001
1000
0001
,  // measure 41
1000
1000
0001
0000
1000
0000
0010
0000
,  // measure 42
0001
0100
0001
0010
,  // measure 43
1000
0001
0000
0000
0000
0000
0000
0000
;

//---------------dance-single - ----------------
#NOTEDATA:;
#CHARTNAME:;
#STEPSTYPE:dance-single;
#DESCRIPTION:;
#CHARTSTYLE:;
#DIFFICULTY:Easy;
#METER:4;
#RADARVALUES:0.247644,0.323027,0.171211,0.128408,0.000000,162.000000,146.000000,16.000000,12.000000,0.000000,0.000000,0.000000,0.000000,0.000000,0.247644,0.323027,0.171211,0.128408,0.000000,162.000000,146.000000,16.000000,12.000000,0.000000,0.000000,0.000000,0.000000,0.000000;
#CREDIT:;
#NOTES:
0000
0000
0000
0000
,
0000
0000
0000
0000
,
0000
0000
0000
0000
,
0000
0000
0000
0000
,
1000
0000
2000
0000
0000
3000
0000
0000
,
1000
0001
0100
0010
,
0100
0200
0000
0300
,
0100
0010
1000
0100
,
0010
0020
0000
0030
,
0010
0100
1000
0001
,
1000
2000
0000
3010
,
0020
0000
1030
1010
,
0010
0101
0010
0101
,
0010
1100
0010
1100
,
0100
0011
0100
0011
,
0100
1010
0100
0010
,
1000
0110
0001
0110
,
0001
0110
1000
0110
,
2000
0000
0000
0000
,
3000
0001
0100
1000
,
0010
0001
1000
0001
,
0100
1000
0100
0100
,
1000
0100
0010
0001
,
0010
0100
0001
0001
,
0100
0001
0010
0100
,
0010
0010
0100
0000
0010
0000
0100
0000
,
1000
0001
1000
0010
,
0110
1000
0100
0001
,
0010
1000
0001
1000
,
0100
0001
0100
0100
,
0001
0100
0010
1000
,
0010
0100
1000
1000
,
0100
1000
0010
0100
,
0010
0010
0100
0000
0010
0000
0100
0000
,
0001
1000
0001
0010
,
0100
0100
0000
2000
,
3001
2000
3010
1000
,
0010
0110
0000
0002
,
1003
0002
0013
0001
,
0010
0011
0000
0020
,
0130
0020
0031
0010
,
0100
0010
0010
0000
0100
0000
0010
0000
,
0001
1000
0001
0100
,
0110
0010
0000
0000
0000
0000
0000
0000
;
