#TITLE:Wepa;
#SUBTITLE:;
#ARTIST:Gloria Estefan;
#TITLETRANSLIT:;
#SUBTITLETRANSLIT:;
#ARTISTTRANSLIT:;
#CREDIT:;
#BANNER:Wepa.png;
#BACKGROUND:Wepa - bg.png;
#LYRICSPATH:;
#CDTITLE:cdtitle.png;
#MUSIC:Wepa.ogg;
#OFFSET:-0.086;
#SAMPLESTART:13.325;
#SAMPLELENGTH:12.980;
#SELECTABLE:YES;
#DISPLAYBPM:145.000;
#BPMS:0.000=145.000,192.000=290.000,204.000=145.000;
#STOPS:192.000=1.260
,194.000=1.260
,196.000=0.200
,197.000=0.200
,198.000=0.200
,199.000=0.200
,200.000=0.100
,200.500=0.100
,201.000=0.100
,201.500=0.100
,202.000=0.050
,202.250=0.050
,202.500=0.050
,202.750=0.050
,203.000=0.050
,203.125=0.020
,203.250=0.020
,203.375=0.020
,203.500=0.020
,203.625=0.020
,203.750=0.020
,203.875=0.030
;
#BGCHANGES:;

//---------------dance-single - ----------------
#NOTES:
     dance-single:
     :
     Challenge:
     10:
     0.678,0.732,0.795,0.286,0.362: // measure 1
0000
0000
0000
0000
,  // measure 2
0000
0000
0000
0000
,  // measure 3
0000
0000
0000
0000
,  // measure 4
0000
0000
0000
0000
,  // measure 5
1100
0000
0001
0100
0010
0000
1000
0100
,  // measure 6
0110
0000
0001
0100
0010
0000
1000
0100
,  // measure 7
0110
0000
1000
0001
0100
0000
0001
1000
,  // measure 8
0010
0100
0010
0100
0010
0100
0010
0100
0001
0100
0001
0100
0001
0100
0001
0100
,  // measure 9
0001
0000
0000
1000
0001
0000
0100
0000
0010
0000
0000
0010
0100
0000
0001
0000
,  // measure 10
1001
0000
0000
0001
1000
0000
0100
0000
0010
0000
0000
0010
0100
0000
1000
0000
,  // measure 11
1001
0000
0000
1000
0001
0000
0100
0000
0010
0000
0000
0010
0100
0000
0001
0000
,  // measure 12
1001
0000
0000
0001
1000
0000
0100
0000
0010
0000
0000
0010
0200
0000
0300
0000
,  // measure 13
1100
0000
0000
1000
0001
0000
1000
0000
0100
0000
0000
1000
0001
0000
1000
0000
,  // measure 14
1010
0000
0000
1000
0001
0000
1000
0000
0010
0000
0000
1000
0001
0000
1000
0000
,  // measure 15
1100
0000
0000
1000
0001
0000
1000
0000
0100
0000
0000
1000
0001
0000
1000
0000
,  // measure 16
1010
0000
0000
1000
0001
0000
1000
0000
0010
0000
0000
1000
0002
0000
0003
0000
,  // measure 17
0011
1010
0011
1010
,  // measure 18
0101
1100
0101
1100
,  // measure 19
1010
0101
1010
0101
,  // measure 20
0011
0000
0000
0000
1100
0000
0000
0000
0011
0000
0001
1000
0001
0000
1000
0000
,  // measure 21
1010
0011
1010
0011
,  // measure 22
1100
0101
1100
0101
,  // measure 23
0011
1100
0011
1100
,  // measure 24
1010
0000
0000
0000
0101
0000
0000
0000
1000
0100
1000
0100
1000
0100
1000
0100
,  // measure 25
1000
0000
0000
0001
1000
0000
0100
0000
1000
0000
0000
1000
0001
0000
0100
0000
,  // measure 26
0101
0000
0000
0001
1000
0000
0100
0000
1000
0000
0000
1000
0001
0000
0100
0000
,  // measure 27
0101
0000
0000
0001
1000
0000
0100
0000
1000
0000
0000
1000
0001
0000
0100
0000
,  // measure 28
0101
0000
0000
0001
1000
0000
0100
0000
1000
0000
0000
1000
0001
0000
0100
0000
,  // measure 29
0020
0000
1030
0100
1000
0000
0010
0000
0200
0000
0000
0301
0000
0000
0100
0000
,  // measure 30
0020
0000
1030
0001
1000
0000
0001
0000
0020
0000
0000
0030
0000
0000
0100
0000
,  // measure 31
0020
0000
0031
0100
0001
0000
0010
0000
0200
0000
0000
1300
0000
0000
0100
0000
,  // measure 32
0020
0000
0031
1000
0001
0000
1000
0000
0020
0000
0000
0030
0000
0000
0010
0000
,  // measure 33
0200
0000
0301
0100
0001
0000
0100
0000
0020
0000
0000
1030
0000
0000
0010
0000
,  // measure 34
0200
0000
0301
1000
0001
0000
1000
0000
0200
0000
0000
0300
0000
0000
0010
0000
,  // measure 35
0200
0000
1300
0100
1000
0000
0100
0000
0020
0000
0000
0031
0000
0000
0010
0000
,  // measure 36
0200
0000
1300
0001
1000
0000
0001
0000
0200
0000
0000
0300
0000
0000
0100
0000
,  // measure 37
0020
0000
1030
0010
1000
0000
0010
0000
0200
0000
0000
0301
0000
0000
0100
0000
,  // measure 38
0020
0000
1030
0001
1000
0000
0001
0000
0020
0000
0000
0030
0000
0000
0100
0000
,  // measure 39
0020
0000
0031
0010
0001
0000
0010
0000
0200
0000
0000
1300
0000
0000
0100
0000
,  // measure 40
0020
0000
0031
1000
0001
0000
1000
0000
0020
0000
0000
0030
0000
0000
1000
0000
,  // measure 41
1010
0011
1010
0011
,  // measure 42
1100
0101
1100
0101
,  // measure 43
0011
1100
0011
1100
,  // measure 44
1010
0000
0101
0000
1010
0000
0101
0001
,  // measure 45
0010
0100
0010
0100
0200
0000
1300
0010
,  // measure 46
0100
0100
0010
1000
0002
0003
1000
0100
,  // measure 47
1000
0010
0010
0100
0010
0100
0001
1000
,  // measure 48
0001
0000
0001
0000
0010
0000
0100
0000
1000
0100
1000
0100
1000
0100
1000
0100
,  // measure 49
100M
0000
1M01
0000
,  // measure 50
M101
M011
101M
110M
,  // measure 51
M110
0000
10M1
0000
011M
0000
10M1
0000
0001
1000
0001
2000
0002
0000
3003
0000
,  // measure 52
1MM1
0000
0000
0001
1000
0000
0010
0000
0100
0000
0000
0100
0010
0000
1000
0000
,  // measure 53
1001
0000
0000
1000
0001
0000
0010
0000
0100
0000
0000
0100
0010
0000
0001
0000
,  // measure 54
1001
0000
0000
0001
1000
0000
0010
0000
0100
0000
0000
0100
0010
0000
1000
0000
,  // measure 55
1001
0000
0000
1000
0001
0000
0010
0000
0100
0000
0000
0100
0020
0000
0030
0000
,  // measure 56
0011
0000
0000
0001
1000
0000
0001
0000
0010
0000
0000
0001
1000
0000
0001
0000
,  // measure 57
0101
0000
0000
0001
1000
0000
0001
0000
0100
0000
0000
0001
1000
0000
0001
0000
,  // measure 58
0011
0000
0000
0001
1000
0000
0001
0000
0010
0000
0000
0001
1000
0000
0001
0000
,  // measure 59
0101
0000
0000
0001
1000
0000
0001
0000
0100
0000
0000
0001
2000
0000
3000
0000
,  // measure 60
1100
0101
1100
0101
,  // measure 61
1010
0011
1010
0011
,  // measure 62
0101
1010
0101
1010
,  // measure 63
1100
0000
0000
0000
0011
0000
0000
0000
0001
1000
0001
1000
0001
1000
0001
1000
,  // measure 64
0001
0000
0000
0000
;

//---------------dance-single - ----------------
#NOTES:
     dance-single:
     :
     Hard:
     8:
     0.563,0.535,0.509,0.152,0.027:
0000
0000
0000
0000
,
0000
0000
0000
0000
,
0000
0000
0000
0000
,
0000
0000
0000
0000
,
1001
0000
1000
0100
0010
0000
0010
0001
,
0101
0000
1000
0100
0010
0000
0010
0001
,
0101
0000
1000
0100
0010
0000
0010
0001
,
0201
0000
0010
0000
0010
0000
0010
0300
,
1001
0000
1000
0010
0100
0001
1000
0010
,
0100
0001
1000
0100
0010
0100
0010
0001
,
0100
0010
1000
0010
0100
0001
0010
0100
,
0010
0001
0200
0000
0310
0000
2000
3000
,
0101
0100
0001
0100
0010
0100
0010
0100
,
0001
1000
0001
1000
0010
0100
0001
0100
,
0010
0000
0010
1000
0001
0000
0001
0100
,
0010
0010
1000
0100
0020
0000
0230
0000
,
1300
0000
1000
0010
0110
0000
0100
0010
,
1010
0000
1000
0010
0110
0000
0100
0010
,
1010
0000
0001
0010
0110
0000
0100
0010
,
0011
0000
0000
0000
0001
0000
0010
0000
0100
0000
1000
0001
1000
0000
0100
0000
,
1100
0000
1000
0100
0110
0000
0010
0100
,
1100
0000
1000
0100
0110
0000
0010
0100
,
1100
0000
0001
0100
0110
0000
0010
0100
,
0101
0000
0000
0000
0001
0000
0100
0000
0010
0000
1000
0001
1000
0000
0010
0000
,
1010
0000
0001
0100
0001
0000
1000
0100
,
1100
0000
0001
0100
0001
0000
1000
0100
,
1100
0000
0001
0100
0001
0000
1000
0100
,
1100
0000
0001
0100
0001
0000
1000
0100
,
1000
0001
0100
0010
0200
0000
0301
0100
,
0001
0000
1000
0000
0010
0000
0100
0000
0020
0000
0000
0030
0000
0000
0100
0000
,
0001
1000
0100
0010
0200
0000
1300
0100
,
1000
0000
0001
0000
0010
0000
0100
0000
0020
0000
0000
0030
0000
0000
0000
0000
,
0001
0010
0100
0010
0001
0000
1000
0000
,
0001
0100
0010
0100
0001
0000
1000
0000
,
0001
0100
1000
0100
0001
0000
1000
0000
,
0001
0010
1000
0010
0001
0000
1000
0000
,
0001
0100
0010
0100
0001
0000
1000
0000
,
0001
0010
0100
0010
0001
0000
1000
0000
,
0001
0010
1000
0010
0001
0000
1000
0000
,
0001
0100
1000
0100
0001
0000
1000
0000
,
1100
1100
0101
0101
,
0011
0011
1010
1010
,
0011
0101
1100
1010
,
1100
0101
0011
1001
,
1000
0001
1000
0001
0002
0000
0013
0001
,
0010
0010
0100
0010
0200
0300
1000
0100
,
1000
0001
0001
1000
0001
1000
0100
0010
,
0001
0010
0100
1000
0002
0000
0003
0000
,
110M
0000
M101
0000
,
1M01
011M
10M1
M110
,
10M1
10M1
10M1
10M1
10M2
0000
0000
0000
,
1M03
0000
0001
0010
0100
1000
0001
0010
,
0100
1000
0001
0100
0010
0100
0010
1000
,
0100
0010
0001
0010
0100
1000
0010
0100
,
0010
1000
0200
0000
0310
0000
0002
0003
,
1100
0100
1000
0100
0010
0100
0010
0100
,
1000
0001
1000
0001
0010
0100
1000
0100
,
0010
0000
0010
0001
1000
0000
1000
0100
,
0010
0010
0001
0100
0020
0000
0230
0000
,
0301
0000
0001
0010
0110
0000
0100
0010
,
0011
0000
0001
0010
0110
0000
0100
0010
,
0011
0000
1000
0010
0110
0000
0100
0010
,
1010
0000
0000
0000
1000
0000
0010
0000
0100
0010
0100
0010
0100
0010
0100
0010
,
0100
0000
0000
0000
;

//---------------dance-single - ----------------
#NOTES:
     dance-single:
     :
     Medium:
     7:
     0.417,0.507,0.465,0.161,0.000:
0000
0000
0000
0000
,
0000
0000
0000
0000
,
0000
0000
0000
0000
,
0000
0000
0000
0000
,
1001
0000
1000
0100
1000
0000
1000
0010
,
1000
0000
0001
0100
0001
0000
0001
0010
,
0001
0000
1000
0100
0010
0000
0100
0010
,
0002
0000
0000
0003
,
1001
0000
1000
0000
0010
0000
1000
0010
,
1000
0000
0100
0000
1000
0000
0100
1000
,
0100
0000
0010
0000
0100
0000
0010
0100
,
0010
0200
1300
0001
,
1001
0000
0001
0000
0010
0000
0001
0010
,
0001
0000
0100
0000
0001
0000
0100
0001
,
0100
0000
0010
0000
0100
0000
0010
0100
,
0010
1000
0001
0010
,
1100
1000
1100
1000
,
0101
0001
0101
0001
,
0011
0001
0011
0001
,
1010
1000
1010
1000
,
0011
0001
0011
0001
,
1010
1000
1010
1000
,
1100
1000
1100
1000
,
0101
0001
0101
0001
,
1001
0000
0001
1000
0001
0000
1000
0001
,
1000
0000
0010
0100
0010
0000
0100
0010
,
0100
0000
0001
0100
0001
0000
0100
0001
,
0100
0000
0010
1000
0010
0000
1000
0010
,
1000
0010
0200
0301
,
0001
0010
0002
0003
,
1000
0010
0200
0301
,
0001
0010
0002
0003
,
1000
0100
0001
0100
,
1000
0010
0001
0010
,
1000
0100
0001
0100
,
1000
0010
0001
0010
,
2000
3100
0002
0103
,
2000
3100
0002
0103
,
2000
3010
0002
0013
,
2000
3010
0002
0013
,
0110
0110
1001
1001
,
0110
0110
1001
1001
,
1100
1100
0101
0101
,
1100
1100
0101
0101
,
1000
0100
0020
0130
,
1000
0010
0200
0310
,
1000
1000
0010
0100
,
0001
0000
0100
0010
0100
0000
0000
0000
,
011M
0000
M110
0000
,
10M1
10M1
10M1
10M1
,
10M0
00M1
10M0
00M1
20M0
0000
0000
0000
,
30M1
0000
0001
0000
0010
0000
0001
0010
,
0001
0000
0100
0000
0001
0000
0100
0001
,
0100
0000
0010
0000
0100
0000
0010
0100
,
0010
0200
0301
1000
,
1001
0000
1000
0000
0010
0000
1000
0010
,
1000
0000
0100
0000
1000
0000
0100
1000
,
0100
0000
0010
0000
0100
0000
0010
0100
,
0010
0001
1000
0010
,
0101
0001
0101
0001
,
1100
1000
1100
1000
,
1010
1000
1010
1000
,
0011
0001
0011
0001
,
1001
0000
0000
0000
;

//---------------dance-single - ----------------
#NOTES:
     dance-single:
     :
     Easy:
     5:
     0.341,0.394,0.170,0.295,0.000:
0000
0000
0000
0000
,
0000
0000
0000
0000
,
0000
0000
0000
0000
,
0000
0000
0000
0000
,
1001
0001
1000
1000
,
0001
0001
1000
1000
,
0010
0010
0100
0100
,
0010
0010
0100
0100
,
1001
1000
0100
1000
,
0100
1000
0001
1000
,
0001
0100
0010
0100
,
0010
1000
0001
1000
,
0001
0100
0001
0100
,
0010
0100
0010
0100
,
0010
1000
0010
1000
,
0001
1000
0001
1000
,
0002
1003
2000
3001
,
0002
1003
2000
3001
,
0002
0013
0002
0103
,
0002
0013
0002
0103
,
2000
3001
0002
1003
,
2000
3001
0002
1003
,
2000
3010
2000
3100
,
2000
3010
2000
3100
,
1001
1000
1000
1000
,
1010
0010
0010
0010
,
0110
0100
0100
0100
,
0101
0001
0001
0001
,
1001
1000
0010
0010
,
0110
0100
0010
0010
,
1010
1000
0001
0001
,
1001
1000
0100
0100
,
0010
0000
0100
0000
,
0010
0000
0100
0000
,
1000
0000
0001
0000
,
1000
0000
0001
0000
,
2000
3000
0200
0300
,
0002
0003
0200
0300
,
2000
3000
0200
0300
,
0002
0003
2000
3000
,
1001
0001
1001
0001
,
1001
1000
1001
1000
,
1001
0001
1001
0001
,
1001
1000
1001
1000
,
0001
0010
0100
1000
,
0100
0010
0001
1000
,
0001
0100
0010
1000
,
0010
0100
0001
0000
,
M010
0000
M010
0000
,
M010
M010
M010
M010
,
M020
0000
0000
0030
,
00M1
1000
0100
1000
,
0100
1000
0001
1000
,
0001
0100
0010
0100
,
0010
1000
0001
1000
,
0001
0100
0001
0100
,
0010
0100
0010
0100
,
0010
1000
0010
1000
,
0001
1000
0001
1000
,
0002
1003
2000
3001
,
0002
1003
2000
3001
,
0002
0013
0002
0103
,
0002
0013
0002
0103
,
1001
0000
0000
0000
;
