#TITLE:青春サツバツ論;
#SUBTITLE:;
#ARTIST:3年E組うた担;
#TITLETRANSLIT:Savage Youth Theory;
#SUBTITLETRANSLIT:;
#ARTISTTRANSLIT:3-nen E-gumi Utatan;
#GENRE:;
#CREDIT:;
#BANNER:[Combine Week] - Savage Youth Theory.png;
#BACKGROUND:[Combine Week] - Savage Youth Theory-bg.png;
#LYRICSPATH:;
#CDTITLE:;
#MUSIC:[Combine Week] - Savage Youth Theory.ogg;
#OFFSET:-0.126960;
#SAMPLESTART:46.889000;
#SAMPLELENGTH:15.000000;
#SELECTABLE:YES;
#BPMS:0.000000=73.000000
,8.000000=146.000000
;
#STOPS:
;
#BGCHANGES:0.000=[Combine Week] - Savage Youth Theory.mp4=1.000=0=0=1=====,
99999=-nosongbg-=1.000=0=0=0 // don't automatically add -songbackground-
;
#KEYSOUNDS:;
#ATTACKS:;

//---------------dance-single - ----------------
#NOTES:
     dance-single:
     :
     Challenge:
     8:
     0.501788,0.510044,0.583548,0.157109,0.162720,313.000000,261.000000,52.000000,14.000000,188.000000,0.000000,0.501788,0.510044,0.583548,0.157109,0.162720,313.000000,261.000000,52.000000,14.000000,188.000000,0.000000:
// measure 0
0000
0000
0000
0000
,  // measure 1
0000
0000
0000
0000
,  // measure 2
1000
0000
0010
0000
0001
0000
0000
0010
0000
0000
0001
0000
0010
0000
1000
0000
,  // measure 3
0001
0000
0010
0000
1000
0000
0000
0010
0000
0000
1000
0000
0010
0000
0100
0000
,  // measure 4
1000
0000
0100
0000
0000
1000
0000
0000
0000
0001
0000
0000
1000
0000
0001
0000
,  // measure 5
0101
0000
0000
0100
0000
0000
0010
0000
0110
0000
0000
0000
MMMM
0000
0000
0000
,  // measure 6
0001
0001
0000
MMMM
0000
0000
MMMM
0000
,  // measure 7
1000
1000
0000
MMMM
0000
0000
MMMM
0000
,  // measure 8
0002
0000
0000
0000
2003
0000
3001
1000
,  // measure 9
1100
0000
0000
0000
1100
0000
0100
0000
0010
0000
0000
1000
0000
0000
0010
0000
,  // measure 10
0100
0000
0000
1000
0000
0000
0001
0000
0100
0000
0010
0000
0001
0000
0010
0000
,  // measure 11
0100
0000
0001
0000
0010
0000
0100
0000
0010
0000
0000
0000
0010
0000
0100
0010
,  // measure 12
0000
0000
0100
0000
0010
0000
0001
0000
0100
0000
0000
0000
0100
0000
0001
0100
,  // measure 13
0000
0100
0110
0100
0001
0010
0100
0001
,  // measure 14
0100
0010
0001
0100
0010
0100
1000
0100
,  // measure 15
0010
0000
0000
0100
0000
0000
0010
0000
1000
0000
0001
0000
MMMM
0000
0001
0000
,  // measure 16
1000
MMMM
1000
0001
MMMM
0001
1000
MMMM
,  // measure 17
1001
0000
0000
0101
0000
0000
0110
0000
0010
0000
0020
0000
0000
0000
0000
0000
,  // measure 18
0000
0000
0000
0100
0000
2000
0000
0000
,  // measure 19
3030
0000
MMMM
0000
1000
0002
0000
0000
,  // measure 20
1000
0000
0000
0000
0000
0000
0000
0000
0013
0000
0000
0001
0000
0000
0010
0000
,  // measure 21
0000
0100
0000
0000
0010
0000
0001
0000
1000
0000
0000
0010
0000
0000
0001
0000
,  // measure 22
0010
0000
0000
0001
0000
0000
0010
0000
1000
0000
0000
0001
0000
0000
0020
0000
,  // measure 23
0200
0000
0000
0000
0330
0100
0000
0100
,  // measure 24
0100
0000
0000
0100
1000
0000
0001
0000
MMMM
0000
2001
0000
0001
0000
0001
0000
,  // measure 25
0000
0010
0000
0000
0100
0000
0000
0000
0001
0000
0001
0000
0001
0000
3002
2000
,  // measure 26
0000
0000
3003
0000
1001
MMMM
1001
MMMM
,  // measure 27
1001
MMMM
1001
MMMM
1001
MMMM
1001
MMMM
,  // measure 28
1001
MMMM
1001
MMMM
1001
MMMM
1001
MMMM
,  // measure 29
1001
MMMM
1001
MMMM
1001
MMMM
1001
MMMM
,  // measure 30
1001
MMMM
1001
0000
1000
0000
0010
1000
,  // measure 31
0001
0000
1000
0010
0000
0000
0000
0000
0010
0000
1000
0000
0001
0000
0100
0000
,  // measure 32
0010
0000
0100
0001
0000
0000
0000
0000
1000
0000
0001
0000
0010
0000
1000
0000
,  // measure 33
0010
0000
1000
0000
0010
0100
1000
0010
,  // measure 34
0100
0000
0110
0000
1001
MMMM
1001
MMMM
,  // measure 35
1001
MMMM
1001
MMMM
1001
MMMM
1001
MMMM
,  // measure 36
1001
MMMM
1001
MMMM
1001
MMMM
1001
MMMM
,  // measure 37
1001
MMMM
1001
MMMM
1001
MMMM
1001
MMMM
,  // measure 38
1001
MMMM
1001
0000
0001
1000
0000
1000
,  // measure 39
1100
0000
0100
0010
0000
0000
0000
0000
1000
0000
0010
0000
0001
0000
1000
0000
,  // measure 40
0010
0000
0100
0010
0000
0000
0000
0000
MMMM
0000
0001
0000
0010
0000
1000
0000
,  // measure 41
0010
0100
0001
0100
0010
0100
1100
MMMM
,  // measure 42
1001
0000
1000
0001
0100
0110
MMMM
1010
,  // measure 43
MMMM
1001
MMMM
1100
0001
MMMM
0220
0000
,  // measure 44
0000
0000
0000
0330
0000
0000
0010
0000
1000
0000
0100
0000
,  // measure 45
0001
0000
0010
0000
1000
0000
0100
0000
0010
0000
0001
0000
,  // measure 46
2002
0000
3003
0000
0001
1000
0010
0001
,  // measure 47
1000
0100
0001
1000
0100
0001
1000
0010
,  // measure 48
0001
0010
0010
0010
0001
1000
0010
0001
,  // measure 49
1000
0100
0001
1000
0100
0001
1000
0010
,  // measure 50
0001
0100
1000
0100
0110
0000
0000
0000
;

//---------------dance-single - ----------------
#NOTES:
     dance-single:
     :
     Easy:
     3:
     0.237267,0.255022,0.022444,0.336663,0.000000,148.000000,146.000000,2.000000,30.000000,0.000000,0.000000,0.237267,0.255022,0.022444,0.336663,0.000000,148.000000,146.000000,2.000000,30.000000,0.000000,0.000000:
0000
0000
0000
0000
,
0000
0000
0000
0000
,
0001
1000
0200
0010
,
1300
0001
0200
0010
,
0301
0100
0001
0010
,
0100
0010
0200
1300
,
0100
0000
0000
0000
,
1000
0000
0000
0000
,
0002
0000
2003
3001
,
0100
0100
0200
0310
,
0200
0301
1000
0100
,
0010
0000
0001
0000
0020
0000
0000
0100
,
0000
0000
1030
0000
0020
0000
0000
1000
,
0000
0000
0130
0000
0020
0000
0000
0032
,
0000
0203
0320
0000
,
0001
0100
2030
0000
,
0001
0000
0000
0100
0000
0000
3010
0000
,
1000
0001
2000
0000
,
3200
0000
0310
0100
,
1000
0001
2000
0000
,
3020
0000
0230
0001
,
0010
1000
0320
0001
,
0230
1000
0320
0001
,
0230
0000
0000
0000
0300
0010
0000
0000
,
0010
0000
0010
0000
0000
0200
0000
0000
,
0000
0000
0000
0000
,
0300
0000
0001
0010
,
1000
0100
0001
1000
,
0001
0000
1000
0100
,
0001
0010
1000
0001
,
1000
0001
1000
0000
,
0100
0000
0000
0000
,
0100
0000
0000
0010
,
0001
0100
0010
0100
,
0002
1003
0001
0010
,
1000
0100
0001
1000
,
0200
0001
1300
0010
,
0001
0100
1000
0001
,
0200
1000
0301
0000
,
1000
0000
0000
0000
,
1000
0000
0000
0100
,
0010
0001
0100
0020
,
0032
0000
0003
0010
,
0100
0001
0010
0200
,
0000
0000
0310
0000
,
0110
0000
0001
0000
,
0011
0000
0001
0010
,
0100
0000
0001
0100
,
0010
0010
0001
0100
,
0010
0000
0001
0010
,
0100
0001
1000
0000
;

//---------------dance-single - X 11----------------
#NOTES:
     dance-single:
     X 11:
     Hard:
     8:
     0.501788,0.538380,0.258108,0.370329,0.196386,313.000000,290.000000,23.000000,33.000000,0.000000,0.000000,0.501788,0.538380,0.258108,0.370329,0.196386,313.000000,290.000000,23.000000,33.000000,0.000000,0.000000:
// measure 0
0000
0000
0000
0000
,  // measure 1
0220
0000
0330
0000
2002
0000
3003
0000
0001
1000
0200
0000
0000
0000
0000
0000
,  // measure 2
1300
0000
0100
0000
0010
0000
0001
1000
0000
0000
0001
0000
0100
0000
0001
0000
,  // measure 3
1000
0000
0001
0000
0010
0000
0100
1000
0000
0000
0001
0000
0100
0000
0001
0000
,  // measure 4
1000
0000
0010
0000
1000
0000
0010
0100
0000
0000
0010
0000
1000
0000
0001
0000
,  // measure 5
0010
0000
0000
0100
0000
0000
1000
0000
2002
0000
0000
0000
3003
0000
0000
0000
,  // measure 6
1000
1000
0000
0000
0000
0000
0000
0000
,  // measure 7
0001
0001
0000
0000
0000
0000
0000
0000
,  // measure 8
0020
0000
0230
0000
,  // measure 9
1300
0000
0000
0000
1001
0000
0000
0000
1000
0000
0000
0100
0000
0000
0010
0000
,  // measure 10
0001
0000
0000
0100
0000
0000
0001
0000
1000
0000
0010
0000
0001
0000
0010
0000
,  // measure 11
0100
0000
0000
0001
0000
0000
0010
0000
0100
0000
0200
0000
0000
0000
0010
0000
,  // measure 12
0000
1300
0001
1000
0010
0020
0000
0001
,  // measure 13
0000
0000
0130
0000
0001
0000
1000
0000
0100
1000
0000
1000
0100
0000
0010
0001
,  // measure 14
0000
0001
0010
0000
0001
0000
1000
0000
0020
0000
0000
0000
0130
0000
0001
0000
,  // measure 15
0010
0000
0000
1000
0000
0000
0010
0000
0001
0000
0001
0000
0000
0000
1000
0000
,  // measure 16
0010
0000
0100
0100
0000
0001
1000
0000
,  // measure 17
1001
0000
0000
1100
0000
0000
1001
0000
0100
0000
0100
0000
0000
0000
0000
0000
,  // measure 18
0000
0000
0000
0110
0000
1001
0000
0000
,  // measure 19
0000
0000
1000
0000
0001
0000
1000
0000
0100
0000
0100
0000
0000
0000
1000
0001
,  // measure 20
2000
0000
0000
3000
0001
0100
0001
1000
,  // measure 21
0100
1000
0100
1000
0200
0000
0000
0000
0310
0000
0000
0100
0000
0000
1000
0000
,  // measure 22
0010
0000
0000
0100
0000
0000
1000
0000
0100
0000
0000
0001
0000
0000
0010
0000
,  // measure 23
0200
0000
0000
0000
0000
1300
0000
0001
,  // measure 24
1000
0000
0000
0001
0100
0000
0010
0000
0000
0000
2002
0000
0000
0000
0000
0000
,  // measure 25
0000
0000
0000
0000
3003
0000
0000
0000
1000
0000
0001
0000
0010
0000
0001
0200
,  // measure 26
0000
0000
0300
0000
0010
0100
0001
1000
,  // measure 27
0100
0000
0001
0000
0100
0000
1000
0000
0010
0000
0100
0000
0001
0000
1000
0001
,  // measure 28
1000
0010
0000
0100
0000
0001
0000
0000
0010
0000
0100
0000
0010
0000
0001
0000
,  // measure 29
0100
1000
0100
0010
1010
0000
0101
0000
,  // measure 30
0011
0000
1100
0000
2010
0000
3010
0100
,  // measure 31
0002
0000
1003
0000
0012
0000
0013
0100
,  // measure 32
2000
0000
3001
0000
0001
1000
0100
1000
,  // measure 33
0001
0001
0010
0010
0100
0010
0001
0100
,  // measure 34
0010
0000
2002
3003
1000
0100
1000
0001
,  // measure 35
0100
0000
1000
0000
0100
0000
0001
0000
0010
0000
0100
0000
0010
0000
0001
2000
,  // measure 36
0001
3001
0100
0010
1000
0100
0001
0100
,  // measure 37
1000
0010
0100
0001
0011
0000
1100
0000
,  // measure 38
1010
0000
0101
0000
0012
0000
0013
0100
,  // measure 39
2000
0000
3001
0000
2010
0000
3010
0100
,  // measure 40
0002
0000
1003
0000
0001
1000
0100
1000
,  // measure 41
0010
0100
1000
0100
0010
1000
0100
0010
,  // measure 42
0002
0000
1003
0000
1000
0001
0010
1000
,  // measure 43
0010
0000
0001
0000
0100
0000
0010
0000
1000
0100
1000
0000
0002
0000
0000
0000
,  // measure 44
0000
0000
0000
0000
0000
0000
0000
0000
0000
0003
0000
0000
1000
0000
0000
0000
0010
0000
0000
0000
0001
0000
0000
0000
,  // measure 45
1000
0000
0100
0000
0001
0000
0010
0000
0100
0000
1000
0000
,  // measure 46
0020
0000
0000
0000
0130
0001
1000
0000
,  // measure 47
0001
0010
0000
0100
0010
0000
0001
2000
,  // measure 48
0000
3010
0100
0010
0000
1000
0001
0000
,  // measure 49
0010
0100
0000
1000
0001
0000
0100
0001
,  // measure 50
1000
0000
0001
0000
0010
0100
0010
0000
0001
0000
0000
0000
0000
0000
0000
0000
;

//---------------dance-single - X 9----------------
#NOTES:
     dance-single:
     X 9:
     Medium:
     6:
     0.412011,0.425036,0.314218,0.190775,0.084166,257.000000,229.000000,28.000000,17.000000,0.000000,0.000000,0.412011,0.425036,0.314218,0.190775,0.084166,257.000000,229.000000,28.000000,17.000000,0.000000,0.000000:
0000
0000
0000
0000
,
2000
0000
3000
0000
0002
0000
0003
0000
0010
0100
0020
0000
0000
0000
0000
0000
,
0031
0000
0000
0000
1000
0000
0000
0001
0000
0000
0000
0000
0100
0000
0000
0000
,
0001
0000
0000
0000
0010
0000
0000
0100
0000
0000
0000
0000
1000
0000
0000
0000
,
0001
0000
0000
0000
1000
0000
0000
0010
0000
0000
0000
0000
0100
0000
0000
0000
,
0001
0000
0000
0100
0000
0000
0001
0000
2000
0000
0000
0000
0000
0000
3000
0000
,
0001
0100
0001
0000
1000
0000
0001
0000
,
1000
0100
1000
0000
0010
0000
1000
0000
,
0001
0010
0001
0000
0100
0000
0010
0000
,
1000
0000
1001
0000
0001
0010
0001
0000
,
1000
0010
0100
0000
0010
0100
0010
0000
,
1000
0100
0010
0000
0002
0000
1000
0000
,
1000
0000
1003
0001
0200
0000
0010
0000
,
0010
0000
0310
0000
1010
0000
0000
0101
,
0000
1001
0021
0001
,
0130
0000
0000
1000
0000
0000
0001
0000
0100
0000
0010
0000
0000
0000
0010
0000
,
1000
0000
1000
0001
0000
0001
0010
0000
,
0100
0000
0000
1000
0000
0000
0100
0000
1000
0000
0001
0000
0000
0000
0000
0000
,
0000
0000
0000
0101
0000
1001
0000
0000
,
0001
1000
0001
0000
0010
0100
0000
0000
,
1100
0000
1000
1000
,
0100
0000
0000
0000
1000
0000
0000
0000
0001
0000
0000
0100
0000
0000
0001
0000
,
2000
0000
0000
0000
3100
0000
0000
0000
0010
0000
0000
0001
0000
0000
1000
0000
,
0020
0000
0000
0000
0000
0130
0000
0001
,
1000
0000
0001
1000
0000
2002
0000
0000
,
0000
0000
0000
3003
,
0000
0000
0000
0000
1000
0100
1000
0001
,
1000
0000
0010
0000
0100
0001
0100
0010
,
2000
0000
3001
0000
0001
0010
0001
1000
,
0100
1000
1010
1010
,
0101
0000
0101
0000
1000
0100
1000
0000
,
0010
0000
0101
0000
0001
0100
0001
0000
,
0010
0000
1100
0000
0001
0100
1000
0100
,
0001
0000
0001
0000
1000
0100
0001
0100
,
1000
0000
1001
0000
0001
0100
0001
1000
,
0001
0000
0001
0000
0010
0001
0010
0100
,
2000
0000
3001
0000
1000
0010
1000
0001
,
1000
0100
1100
1100
,
0011
0000
0011
0000
1000
0100
1000
0000
,
0010
0000
0110
0000
0001
0010
0001
0000
,
0010
0000
0110
0000
1000
0100
0000
0100
,
0010
0000
0010
0001
0000
1000
0001
0000
,
0202
0000
0303
0000
0001
0100
0000
0110
,
0000
1001
0000
0011
0000
0001
2000
0000
,
0000
0000
0000
3000
0000
0000
0000
0000
0000
0000
0000
0000
0001
0000
0000
0000
1000
0000
0000
0000
0001
0000
0000
0000
,
1000
0000
0100
0000
1000
0000
0001
0000
0100
0000
0001
0000
,
2000
0000
3001
0010
,
0110
0000
0000
1000
0001
0000
1000
0000
,
0010
0100
0010
0000
1000
0000
0100
0000
,
0110
0000
0000
0001
1000
0000
0010
0000
,
0100
0001
0100
1000
0100
0000
0000
0000
;

//---------------dance-single - ----------------
#NOTES:
     dance-single:
     :
     Beginner:
     2:
     0.173141,0.255022,0.022444,0.224442,0.000000,108.000000,106.000000,2.000000,20.000000,0.000000,0.000000,0.173141,0.255022,0.022444,0.224442,0.000000,108.000000,106.000000,2.000000,20.000000,0.000000,0.000000:
0000
0000
0000
0000
,
0000
0000
0000
0000
,
0001
0000
0001
0000
,
0100
0000
0100
0000
,
0010
0000
0100
0000
,
0001
0000
1001
0000
,
1000
0000
0000
0000
,
0001
0000
0000
0000
,
2000
0000
3200
0000
,
0310
0010
0010
0000
,
0100
0000
0010
0000
,
0100
0000
2000
0000
,
0000
0000
3020
0000
,
0000
0000
0130
0000
,
0100
0000
0200
0000
,
0301
0001
0002
0000
,
0000
0000
0003
0000
,
1000
1000
2000
0000
,
3200
0000
0320
0000
,
0032
0000
0203
0000
,
0320
0000
0230
0000
,
0302
0000
1003
0000
,
0100
0000
0010
0000
,
0200
0000
0000
0300
0000
0000
0000
0000
,
0010
0000
0000
0000
0000
0002
0000
0000
,
0000
0000
0000
0000
0000
0000
0000
0003
,
0000
0000
1000
0000
,
0001
0000
1000
0001
,
2000
3000
0001
0000
,
1000
0000
0001
1000
,
0001
0000
1000
0000
,
0100
0000
0010
0000
,
0001
0000
0100
0000
,
0010
0000
0100
0000
,
0001
0001
1000
0000
,
0001
0000
1000
0001
,
1000
1000
1000
0000
,
0001
0000
1000
0001
,
1000
1000
1000
0000
,
0010
0000
0100
0000
,
0001
0000
0000
1000
,
0001
1000
0001
1000
,
0002
0000
0003
0001
,
1000
0001
1000
0002
,
0000
0003
1000
0000
,
0100
0000
0010
0000
,
0002
0000
0003
1000
,
0001
0000
1000
0001
,
1000
1000
1000
0001
,
1000
0000
0001
1000
,
0100
0010
0110
0000
;
