#TITLE:Ready For My Love;
#SUBTITLE:(Factory Team Remix);
#ARTIST:David Age;
#TITLETRANSLIT:;
#SUBTITLETRANSLIT:;
#ARTISTTRANSLIT:;
#CREDIT:;
#BANNER:;
#BACKGROUND:;
#LYRICSPATH:;
#CDTITLE:Dance Mania 17.png;
#MUSIC:Ready For My Love (Factory Team Remix).ogg;
#OFFSET:0.020;
#SAMPLESTART:43.459;
#SAMPLELENGTH:12.000;
#SELECTABLE:YES;
#BPMS:0.000=138.064;
#STOPS:;
#BGCHANGES:;

//---------------dance-single - ----------------
#NOTES:
     dance-single:
     :
     Hard:
     8:
     0.584,0.595,0.132,0.000,0.517:
0000
0000
0000
0000
,
0000
0000
0000
0000
,
0000
0000
0000
0000
,
0000
0000
0000
0000
,
1000
0100
0000
0100
0010
0000
0001
0000
0100
0000
0010
1000
0000
1000
0001
0000
,
0010
0100
0000
0100
1000
0000
0010
0000
1000
0000
0100
0010
0000
0010
0001
0000
,
0001
1000
0000
1000
0001
0000
0010
0000
0100
0000
1000
0010
0000
0010
0100
0000
,
0100
0001
0000
0001
1000
0000
0010
0000
1000
0000
0100
0010
0000
0010
0001
0000
,
1000
0001
0100
0010
1000
0100
0001
0100
,
1000
0000
0001
0000
0000
0001
0000
0000
0000
0000
0000
0000
1000
0000
0001
0000
,
0000
0001
0100
0010
1000
0100
1000
0001
,
1000
0010
0000
0000
0100
0000
0001
1000
,
0001
0010
0100
1000
0010
1000
0100
0001
,
0100
0000
1000
0000
0010
0000
0000
0010
0000
0000
0000
0000
1000
0000
0000
0000
,
1100
0000
0000
1000
0000
0010
0000
0000
0101
0000
0000
0001
0000
0010
0000
0000
,
1100
0000
0000
0100
0000
0000
0010
0000
1001
0000
0000
0000
1000
0000
0100
0000
,
0010
0000
0001
0100
0000
0010
0000
0100
0000
0001
0000
0010
0000
0100
0000
0000
,
1000
0000
0000
1000
0000
0000
1000
0000
0001
0000
0000
0001
0000
0000
0001
0000
,
1000
0000
0100
0010
0001
0100
0000
0001
,
1000
0000
0000
1000
0000
0000
1000
0000
0001
0000
0000
0001
0000
0000
0001
0000
,
0100
0000
0010
1000
0000
0100
0000
0010
0000
0100
0000
1000
0000
0001
0000
0000
,
1000
0000
0000
1000
0000
0000
1000
0000
0001
0000
0000
0001
0000
0000
0001
0000
,
1000
0000
0001
0100
0010
1000
0000
0000
,
1001
0000
1001
0000
0000
0000
1000
0000
0001
1000
0001
1000
0001
0000
0000
1000
,
0100
0010
0001
0100
1000
0100
0001
0010
,
0100
0000
0100
1000
0010
1000
0100
0010
,
0001
0000
0001
0100
1000
0100
0001
0010
,
0100
1000
0010
1000
0100
0001
0100
1000
,
1001
0000
1000
0010
0100
0001
0010
0100
,
0010
0000
0010
0001
0100
1000
0100
0001
,
0010
0000
0100
1000
0010
0100
0001
0010
,
1000
0010
0001
0100
1000
0100
0001
0010
,
0100
1000
0000
1000
0001
0000
0100
0000
0010
0000
1000
0100
0000
0100
0010
0000
,
0010
0001
0000
0001
1000
0000
0010
0000
1000
0000
0100
1000
0000
1000
0100
0000
,
0010
0001
0000
0001
0010
0000
0100
0000
1000
0000
0001
0100
0000
0010
1000
0000
,
0100
0010
0000
0001
1000
0000
0001
0000
1000
0000
0010
1000
0000
1000
0100
0000
,
0010
0001
0000
0001
1000
0000
0010
0000
1000
0000
0100
1000
0000
1000
0001
0000
,
0001
0100
0000
0100
0001
0000
0010
0000
0001
0000
1000
0100
0000
0010
0100
0000
,
1000
0001
0000
0010
0100
0000
1000
0000
0010
0000
1000
0100
0000
0010
0001
0000
,
0100
0010
0000
1000
0001
0000
1000
0000
0100
0000
0010
0001
0000
1000
0100
0000
,
0010
0001
0010
0001
0100
0100
0000
0010
,
0000
0010
1000
0100
1000
0000
0000
0010
,
0000
1000
0000
0000
0100
0000
0010
0000
0100
0000
1000
0000
0001
0000
0100
0000
,
0010
0100
0001
1000
0100
0000
0000
0100
,
0000
0100
0000
0000
0100
0000
1000
0000
0001
0000
0001
0000
0000
0000
0001
0000
,
0000
0001
0000
0000
0010
0000
1000
0000
0010
0000
0000
0000
0000
0000
0001
0000
,
0000
0001
0000
0000
0010
0000
0001
0000
0100
0000
1000
0000
0100
0000
0001
0000
,
1000
0000
0100
0000
0010
0000
0001
0000
0100
0000
0000
0001
0000
0000
1000
0000
,
0001
0000
0010
0000
0100
0000
1000
0000
0001
1000
0000
0001
0000
0000
0001
0000
,
0100
0000
0000
0100
0000
0000
0100
0000
0001
0100
0000
0001
0000
0000
0001
0000
,
0010
0000
0000
0010
0000
0000
0010
0000
0001
0010
0000
0001
0000
0000
0001
0000
,
0100
0000
0000
0100
0000
0000
0100
0000
1000
0100
0000
1000
0000
0000
1000
0000
,
0100
0000
0001
0000
0010
0000
0001
0000
1000
0001
0000
1000
0000
0000
1000
0000
,
0100
0000
0000
0100
0000
0000
0100
0000
1000
0100
0000
1000
0000
0000
1000
0000
,
0010
0000
0000
0010
0000
0000
0010
0000
0100
0001
0000
1000
0000
0000
0001
0000
,
1001
0000
0000
0011
0000
0000
1001
0000
1100
0000
0000
1001
0000
0000
0110
0000
;

//---------------dance-double - ----------------
#NOTES:
     dance-double:
     :
     Hard:
     8:
     0.580,0.567,0.183,0.000,0.193:
00000000
00000000
00000000
00000000
,
00000000
00000000
00000000
00000000
,
00000000
00000000
00000000
00000000
,
00000000
00000000
00000000
00000000
,
10000000
01000000
00100000
00010000
01000000
00100000
01000000
00001000
,
00010000
00001000
00000100
00000001
00000010
00000100
00001000
00000100
,
00000001
00000100
00001000
00000010
00010000
00001000
00010000
01000000
,
00010000
00001000
00010000
00001000
00000000
00000000
00000000
00000000
00001000
00010000
00000000
00001000
00000000
00010000
00001000
00010000
,
00001000
00100000
00010000
01000000
00100000
10000000
01000000
00010000
,
01000000
00000000
10000000
00000000
00000000
10000000
00000000
00000000
00000000
00000000
00000000
00000000
10000000
00000000
00100000
00000000
,
01000000
00010000
00100000
00010000
01000000
00100000
10000000
01000000
,
00010000
00001000
00000000
00000000
00000100
00000000
00000001
00001000
,
00000001
00000010
00000100
00010000
00001000
00100000
00010000
10000000
,
00100000
00000000
01000000
00000000
00010000
00000000
00000000
00010000
00000000
00000000
00000000
00000000
00100000
00000000
00000000
00000000
,
00110000
00000000
00000000
00100000
00000000
01000000
00000000
00000000
11000000
00000000
00000000
00100000
00000000
00001000
00000000
00000000
,
00011000
00000000
00000000
00000100
00000000
00000000
00000010
00000000
00000001
00000000
00000000
00000000
00000001
00000000
00000100
00000000
,
00001000
00000000
00010000
01000000
00000000
10000000
00000000
01000000
00000000
00010000
00000000
00001000
00000000
00000100
00000000
00000001
,
00000000
00000000
00000001
00000010
00000100
00001000
00000100
00010000
,
00001000
00000000
00001000
00100000
00010000
10000000
00100000
10000000
,
01000000
00000000
00000000
01000000
00000000
00000000
01000000
00000000
00100000
00000000
00010000
00000000
01000000
00000000
00100000
00000000
,
10000000
00000000
01000000
00100000
00000000
00001000
00000000
00010000
00000000
00000010
00000000
00001000
00000000
00000100
00000000
00000010
,
00000000
00000000
00000010
00000001
00000100
00000010
00000100
00001000
,
00010000
00000000
01000000
10000000
00100000
10000000
01000000
00010000
,
00001000
00010000
00001000
00000000
00000000
00000000
00010000
00000000
00001000
00010000
00001000
00010000
00001000
00000000
00000000
00010000
,
00001000
00010000
00000100
00000010
00000001
00000100
00000010
00001000
,
00000100
00000000
00000100
00001000
00000010
00001000
00000100
00010000
,
01000000
00000000
01000000
10000000
00100000
10000000
01000000
00010000
,
00001000
00000100
00000001
00000010
00000100
00000010
00000001
00000100
,
00000010
00000000
00000010
00001000
00000100
00000001
00000100
00001000
,
00000001
00000000
00000001
00001000
00000010
00001000
00000100
00010000
,
00100000
00000000
00100000
10000000
01000000
00010000
00001000
00010000
,
01000000
10000000
00100000
01000000
00001000
00010000
00001000
00000100
,
00000001
00000010
00000100
00000010
00000001
00000100
00001000
00010000
,
01000000
10000000
00100000
01000000
00001000
00010000
00001000
00100000
,
00010000
10000000
00100000
00010000
00001000
00000100
00000001
00000010
,
00000001
00000100
00001000
00100000
01000000
10000000
00100000
10000000
,
01000000
00010000
00000100
00000010
00001000
00100000
00010000
01000000
,
00100000
10000000
01000000
00100000
00001000
00000010
00000100
00001000
,
00000001
00000100
00000010
00001000
00000100
00010000
01000000
10000000
,
00100000
10000000
01000000
00100000
00010000
10000000
00100000
00001000
,
00000100
00010000
01000000
10000000
00010000
10010000
00000000
11000000
,
00000000
01000000
00100000
00001000
00011000
00000000
00000000
00010100
,
00000000
00000100
00000000
00000000
00000010
00000000
00000001
00000000
00000100
00000000
00001000
00000000
00000100
00000000
00000001
00000000
,
00000010
00000100
00010000
00001000
00011000
00000000
00000000
00110000
,
00000000
00010000
00000000
00000000
10000000
00000000
00100000
00000000
01000000
00000000
00010000
00000000
00000000
00000000
00110000
00000000
,
00000000
00010000
00000000
00000000
00100000
00000000
00001000
00000000
00011000
00000000
00000000
00000000
00000000
00000000
00010100
00000000
,
00000000
00000100
00000000
00000000
00000010
00000000
00000001
00000000
00000100
00000000
00001000
00000000
00000100
00000000
00000001
00000000
,
00000010
00001000
00010000
01000000
10000000
00100000
10000000
00010000
,
10000000
01000000
10000000
00010000
10000000
01000000
10000000
00010000
,
10000000
00100000
10000000
00010000
10000000
00100000
10000000
00010000
,
10000000
01000000
00010000
01000000
10000000
01000000
00010000
01000000
,
10000000
00100000
00010000
00100000
10000000
00100000
00010000
00001000
,
00000100
00000001
00001000
00000001
00000100
00000001
00001000
00000001
,
00000010
00000001
00001000
00000001
00000010
00000001
00001000
00000001
,
00000010
00001000
00000010
00000001
00000100
00001000
00010000
00001000
,
00011000
00000000
00000000
01010000
00000000
00000000
11000000
00000000
10100000
00000000
00000000
00110000
00000000
00000000
00011000
00000000
;

//---------------dance-double - ----------------
#NOTES:
     dance-double:
     :
     Medium:
     7:
     0.454,0.510,0.122,0.000,0.010:
00000000
00000000
00000000
00000000
,
00000000
00000000
00000000
00000000
,
00000000
00000000
00000000
00000000
,
00000000
00000000
00000000
00000000
,
10000000
01000000
10000000
01000000
00100000
01000000
10000000
00010000
,
01000000
00001000
01000000
00001000
00010000
00001000
00000100
00001000
,
00010000
00000010
00010000
00000010
00000100
00000001
00000010
00000100
,
00001000
00000001
00001000
00000001
00000010
00000100
00010000
00001000
,
00011000
01000000
00010000
10000000
,
01000000
10000000
00010000
00000000
00000000
00000000
01000000
00000000
,
00001000
00000000
00010000
00001000
00000010
00000000
00000001
00000000
,
00001000
00000100
00000010
00000000
00000000
00000000
00000000
00000000
,
00000001
00000000
00000100
00001000
00010000
00000000
00010000
01000000
,
10000000
01000000
11000000
00000000
,
10010000
00000000
10000000
01000000
00010000
00000000
00001000
00000100
,
00000001
00000000
00000100
00001000
00011000
00000000
00010000
00000000
,
00001000
00100000
00010000
01000000
00100000
10000000
00010000
00000000
,
10000000
00000000
01000000
00100000
00001000
00000000
00010000
00000000
,
00000010
00000000
00000100
00000001
00001000
00000001
00000000
00000000
,
00000010
00000000
00000100
00000000
00010000
00000000
00001000
00010000
,
00000010
00000100
00000001
00000010
00000100
00001000
00000001
00000000
,
00001000
00000001
00000010
00000100
,
00010000
00000000
00001000
00010000
01000000
00010000
00000000
00000000
,
00011000
00000000
00000000
00000000
00011000
00011000
00011000
00000000
,
00011000
00000000
00000010
00000100
00000010
00000100
00000000
00000001
,
00000000
00000000
00000010
00000100
00000010
00000100
00000000
00001000
,
00000000
00000000
00000010
00000100
00000010
00000100
00000000
00000001
,
00001000
00000000
00000100
00010000
00001000
01000000
00000000
00010000
,
10000000
00000000
01000000
00100000
01000000
00100000
00000000
00010000
,
00000000
00000000
01000000
00100000
01000000
00100000
00000000
10000000
,
00000000
00000000
01000000
00100000
01000000
00100000
00000000
00010000
,
00000000
00010000
01000000
00010000
00100000
00000000
00001000
00000000
,
00010000
00001000
00010000
00001000
00100000
00010000
01000000
00100000
,
10000000
00010000
10000000
00010000
00100000
00001000
00010000
00000100
,
00001000
00000010
00001000
00000010
00000100
00000001
00000010
00000100
,
00001000
00000001
00001000
00000001
00000010
00000001
00000100
00001000
,
00010000
00000100
00010000
00000100
00100000
00010000
01000000
00100000
,
10000000
00010000
10000000
00010000
00100000
01000000
10000000
00100000
,
01000000
00001000
01000000
00001000
00010000
00000010
00000100
00000001
,
00000100
00000010
00000100
00000010
00001000
00000100
00000001
00000100
,
00000000
00010000
00001000
00010000
00000100
00000100
00000000
00001000
,
00000000
00000100
00000010
00000001
00000010
00000000
00000000
00000001
,
00000000
00000000
00000100
00000010
00000100
00001000
00000100
00000010
,
00000100
00000001
00000010
00000100
00010000
00000000
00000000
00011000
,
00000000
00000000
00100000
00010000
10000000
00000000
00000000
10100000
,
00000000
00000000
10000000
00010000
00100000
00000000
00000000
00001010
,
00000000
00000000
00001000
00000001
00000010
00000100
00000010
00000001
,
00001000
00000100
00001000
00000100
00000010
00000000
00000001
00000000
,
00000100
00000000
00000100
00000000
00001000
00010000
00001000
00000000
,
00010000
00000000
00010000
00000000
00001000
00010000
00001000
00000000
,
00100000
00000000
00100000
00000000
00010000
00100000
00010000
00000000
,
01000000
00000000
01000000
00000000
00010000
01000000
00010000
00000000
,
00100000
00000000
00100000
00000000
01000000
10000000
01000000
00000000
,
00010000
00000000
00010000
00000000
00001000
00010000
00001000
00000000
,
00000100
00000000
00000100
00000000
00000001
00000100
00000001
00000000
,
00000001
00000000
00000000
00000100
00000000
00000000
00001000
00000000
00010000
00000000
00000000
01000000
00000000
00000000
10000000
00000000
;

//---------------dance-double - ----------------
#NOTES:
     dance-double:
     :
     Easy:
     4:
     0.264,0.482,0.122,0.000,0.000:
00000000
00000000
00000000
00000000
,
00000000
00000000
00000000
00000000
,
00000000
00000000
00000000
00000000
,
00000000
00000000
00000000
00000000
,
10000000
01000000
00100000
00000000
,
00100000
01000000
10000000
00000000
,
10000000
00010000
01000000
00000000
,
01000000
00001000
00000010
00000100
,
00001000
01000000
10000000
01000000
,
00100000
00010000
00000000
00000000
,
10000000
00100000
01000000
00010000
,
10000000
01000000
00000000
00000000
,
01000000
10000000
00100000
00010000
,
00001000
00000100
00000000
00000000
,
00000101
00000101
00001100
00001100
,
00011000
00011000
01010000
00010000
,
10010000
10000000
01000000
00100000
,
00001000
00010000
00000010
00000000
,
00000010
00001000
00000100
00000010
,
00000001
00000000
00000001
00000000
,
00000100
00000010
00010000
00001000
,
01000000
00000000
00010000
00000000
,
10000000
01000000
00100000
01000000
,
10000000
00000000
01000000
00010000
,
00011000
00010000
00000100
00000010
,
00000100
00010000
00000010
00000100
,
00000010
00010000
00000100
00000010
,
00000100
00001000
00000010
00000100
,
00000101
00000001
00000010
00000100
,
00000010
00000001
00000100
00000010
,
00000100
00000001
00000010
00000100
,
00010000
00001000
00100000
00100000
,
00010000
01000000
10000000
00000000
,
10000000
01000000
00010000
00000000
,
00001000
00000010
00000001
00000000
,
00000001
00000010
00001000
00000000
,
00001000
00000100
00000010
00000000
,
00000010
00000100
00001000
00000000
,
01000000
00100000
00010000
00000000
,
00010000
00100000
01000000
10000000
,
00010000
01000000
00100000
00000000
,
10000000
00000000
01000000
01000000
01000000
00000000
00000000
00000000
,
00010000
00001000
00000100
00000001
,
00001000
00000000
00000001
00000001
00000001
00000000
00000000
00000000
,
00000010
00000100
00010000
00000000
,
00001000
00000000
00100000
00100000
00100000
00000000
00000000
00000000
,
00010000
00100000
10000000
00100000
,
00010000
00010000
00010000
00000000
10000000
00000000
00010000
00000000
,
10010000
00000000
10000000
00000000
,
01000000
00000000
01000000
00000000
,
00010000
00000000
00010000
00000000
,
00000100
00000000
00000100
00000000
,
00000010
00000000
00000010
00000000
,
00000001
00000000
00000001
00000000
,
00001000
00000000
00001000
00000000
,
00000010
00000000
00000000
00000000
00010000
00000000
00000000
00011000
;

//---------------dance-single - ----------------
#NOTES:
     dance-single:
     :
     Medium:
     7:
     0.439,0.425,0.041,0.000,0.188:
0000
0000
0000
0000
,
0000
0000
0000
0000
,
0000
0000
0000
0000
,
0000
0000
0000
0000
,
1000
0000
0000
0100
0000
0000
0010
0000
0001
0000
0000
0100
0000
0000
0010
0000
,
1000
0000
0000
0100
0000
0000
0010
0000
0001
0000
0000
0100
0000
0000
0010
0000
,
1000
0000
0000
0010
0000
0000
0100
0000
0001
0000
0000
0100
0000
0000
0010
0000
,
1000
0000
0000
0010
0000
0000
0100
0000
0001
0000
0000
1000
0000
0000
1000
0000
,
0001
0000
0100
0000
0010
0000
1000
0001
,
0100
0001
1000
0000
0001
0000
1000
0001
,
0000
0000
0001
0100
0010
0100
0001
0000
,
1000
0100
0010
0000
0000
0000
0010
0000
,
0001
0000
0100
0000
0010
1000
0010
0100
,
0010
0000
1000
0000
0001
0000
0000
0001
0000
0000
0000
0000
0000
0000
0000
0000
,
1001
0000
0000
1000
0000
0010
0000
0000
0100
0000
0000
0001
0000
1000
0000
0000
,
0001
0000
0000
0010
0000
0000
0100
0000
1000
0000
0000
0000
0001
0000
0000
0000
,
1000
0100
0001
0100
1000
0100
0001
0100
,
1000
0001
1000
0000
,
1001
0000
1000
0100
0010
0001
0000
1000
,
0001
0001
0100
0010
,
1000
0010
0001
0010
1000
0010
0001
0010
,
1000
0001
1000
0000
,
1001
0000
0001
0010
0100
1000
0000
0000
,
0001
0001
0000
1000
0001
0100
0010
0000
,
1000
0000
0001
0100
1000
0100
0001
1000
,
0000
0000
1000
0100
0001
0100
1000
0001
,
0000
0000
0001
0100
0010
1000
0001
1000
,
0100
0010
0001
0100
0010
1000
0100
0010
,
0001
0000
0001
0010
1000
0010
0001
1000
,
0000
0000
1000
0010
0001
0010
1000
0001
,
0000
0000
0001
0010
0100
1000
0010
0100
,
0001
1000
0100
1000
0010
0000
1010
0000
,
1000
0000
0000
0010
0000
0000
0001
0000
0010
0000
0000
0100
0000
0000
0001
0000
,
1000
0000
0000
0010
0000
0000
0001
0000
0010
0000
0000
0100
0000
0000
0001
0000
,
1000
0000
0000
0100
0000
0000
0001
0000
0100
0000
0000
0010
0000
0000
0001
0000
,
1000
0000
0000
0100
0000
0000
0001
0000
0100
0000
0000
1000
0000
0000
1000
0000
,
0001
0000
0000
0010
0000
0000
1000
0000
0010
0000
0000
0100
0000
0000
1000
0000
,
0001
0000
0000
0010
0000
0000
1000
0000
0010
0000
0000
0100
0000
0000
1000
0000
,
0001
0000
0000
0100
0000
0000
1000
0000
0100
0000
0000
0010
0000
0000
1000
0000
,
0001
0000
0000
0100
0000
0000
1000
0000
0100
0000
0000
0010
0000
0000
1000
0000
,
0000
1000
0100
1000
0001
1000
0000
0001
,
0000
0001
0100
0001
1000
0000
0000
1000
,
0000
0010
0000
0000
0100
0000
0001
0000
1000
0000
0001
0000
1000
0000
0000
0000
,
1000
0100
0010
0100
1000
0000
0000
1000
,
0000
1000
0000
0000
0100
0000
0010
0000
0001
0000
0001
0000
0000
0000
0001
0000
,
0000
0001
0000
0000
0100
0000
0010
0000
1000
0000
0000
0000
0000
0000
0010
0000
,
0000
0010
0000
0000
1000
0000
0001
0000
0100
0000
0010
0000
0100
0000
0010
0000
,
1000
0000
0001
0000
1000
0000
0001
0000
0100
0000
0000
0010
0000
0000
1000
0000
,
0001
0100
0001
0100
0001
0000
0001
0000
,
0010
0000
0010
0000
0010
0100
0010
0000
,
0100
0000
0100
0000
0100
0010
0100
0000
,
1000
0000
1000
0000
1000
0010
1000
0000
,
0010
1000
0010
1000
0010
0000
0010
0000
,
0100
0000
0100
0000
0100
0010
0100
0000
,
0001
0000
0001
0000
0001
1000
0001
0000
,
1000
0000
0000
0010
0000
0000
0100
0000
0010
0000
0000
0001
0000
0000
0010
0000
;

//---------------dance-single - ----------------
#NOTES:
     dance-single:
     :
     Easy:
     4:
     0.274,0.425,0.172,0.000,0.000:
0000
0000
0000
0000
,
0000
0000
0000
0000
,
0000
0000
0000
0000
,
0000
0000
0000
0000
,
1000
0100
1000
0000
,
0001
0100
0001
0000
,
1000
0010
1000
0000
,
0001
0010
0001
1000
,
1001
1000
0010
0100
,
0001
1000
0000
0000
,
0001
0100
0010
1000
,
0001
0001
0000
0000
,
1000
0100
0001
0100
,
1000
0001
1001
0000
,
1100
1100
0101
0101
,
1001
0110
1001
0000
,
1000
0100
0010
0100
,
1000
0001
1000
0000
,
0001
0100
0010
0100
,
0001
1000
0001
0000
,
0010
0100
1000
0010
,
0100
0001
1000
0000
,
0100
1000
0010
0100
,
0001
1000
0001
1001
,
1000
0100
0010
0001
,
1001
0100
0010
1000
,
1001
0100
0010
0001
,
0100
1000
0100
0001
,
0011
0001
1000
0010
,
1010
1000
0001
0010
,
0011
0001
1000
0010
,
0100
0001
0001
1000
,
1001
1000
0010
0000
,
0001
0001
0010
0000
,
1000
1000
0100
0000
,
0001
0001
0100
0000
,
1000
0010
0001
0000
,
0001
0010
1000
0000
,
1000
0100
0001
0000
,
0001
0100
1000
0100
,
0001
0100
0010
0000
,
0001
0000
0100
0100
0100
0000
0000
0000
,
0010
0100
0001
1000
,
0100
0000
0010
0010
0010
0000
0000
0000
,
0001
0010
0100
0000
,
1000
0000
0001
0001
0001
0000
0000
0000
,
0001
0010
1000
0010
,
0001
0000
1000
1000
1000
0000
0000
0000
,
0001
0000
0001
0000
,
0100
0000
0100
0000
,
0010
0000
0010
0000
,
1000
0000
1000
0000
,
0010
0000
0010
0000
,
0100
0000
0100
0000
,
0001
0000
0001
0000
,
1001
0000
0000
0000
1000
0000
0000
0001
;

//---------------dance-solo - Copied from----------------
#NOTES:
     dance-solo:
     Copied from:
     Medium:
     7:
     0.462,0.453,0.162,0.000,0.203: // measure 1
000000
000000
000000
000000
,  // measure 2
000000
000000
000000
000000
,  // measure 3
000000
000000
000000
000000
,  // measure 4
000000
000000
000000
000000
,  // measure 5
100000
000000
000000
001000
000000
000000
000100
000000
100001
000000
000000
000001
000000
000000
010000
000000
,  // measure 6
000001
000000
000000
001000
000000
000000
000100
000000
100001
000000
000000
100000
000000
000000
000010
000000
,  // measure 7
100000
000000
000000
001000
000000
000000
000100
000000
100001
000000
000000
100000
000000
000000
000010
000000
,  // measure 8
100000
000000
000000
001000
000000
000000
000100
000000
100001
000000
000000
100000
000000
000000
000010
000000
,  // measure 9
100000
000000
000100
001000
010000
000000
001000
000010
,  // measure 10
000100
000000
000001
000000
000000
000001
000000
000000
000000
000000
000000
000000
001000
000000
000001
000000
,  // measure 11
000000
000001
000100
001000
100000
000000
100000
001000
,  // measure 12
010000
001000
000000
000000
000000
000000
000000
000000
,  // measure 13
001000
100000
001000
010000
001000
100000
001000
010000
,  // measure 14
001000
000000
000100
000000
000001
000000
000000
000001
000000
000000
000000
000000
000000
000000
000000
000000
,  // measure 15
000001
000000
000000
000100
000000
001000
000000
000000
100000
000000
000000
000100
000000
001000
000000
000000
,  // measure 16
000010
000000
000000
010000
000000
000000
001000
000000
000100
000000
000000
000000
000001
000000
001000
000000
,  // measure 17
000010
001000
010000
001000
000010
001000
010000
001000
,  // measure 18
000001
100000
100001
000000
,  // measure 19
100000
000000
001000
000100
001000
100000
000000
000001
,  // measure 20
010000
000000
000000
010000
000000
000000
010000
000000
000010
000000
000000
000010
000000
000000
000010
000000
,  // measure 21
000100
100000
000100
000001
000100
100000
000100
001000
,  // measure 22
100000
000001
100001
000000
,  // measure 23
100000
000000
000010
100000
000001
100000
000000
000000
,  // measure 24
001000
001000
000000
001000
000100
000001
100000
000000
,  // measure 25
100001
000000
000001
001000
100000
001000
000001
010000
,  // measure 26
000000
000000
000001
000100
100000
000100
000001
010000
,  // measure 27
000000
000000
000001
001000
000100
100000
001000
000100
,  // measure 28
000001
010000
000100
001000
000010
000100
001000
100000
,  // measure 29
000001
000000
100000
001000
000001
001000
100000
000010
,  // measure 30
000000
000000
100000
000100
000001
000100
100000
000010
,  // measure 31
000000
000000
100000
001000
000100
000001
001000
000100
,  // measure 32
010000
001000
000010
001000
010000
000100
001000
000000
,  // measure 33
000001
000000
000000
001000
000000
000000
000100
000000
100100
000000
000000
100000
000000
000000
001000
000000
,  // measure 34
000100
000000
000000
000001
000000
000000
001000
000000
001001
000000
000000
001000
000000
000000
000100
000000
,  // measure 35
100000
000000
000000
001000
000000
000000
000100
000000
000110
000000
000000
000100
000000
000000
000010
000000
,  // measure 36
001000
000000
000000
000100
000000
000000
010000
000000
010100
000000
000000
010000
000000
000000
000001
000000
,  // measure 37
100001
000000
000000
100000
000000
000000
001000
000000
101000
000000
000000
100000
000000
000000
000100
000000
,  // measure 38
001000
000000
000000
000001
000000
000000
000100
000000
000101
000000
000000
000100
000000
000000
000001
000000
,  // measure 39
001000
000000
000000
000100
000000
000000
010000
000000
010100
000000
000000
010000
000000
000000
000100
000000
,  // measure 40
001000
000000
000000
000010
000000
000000
000100
000000
000110
000000
000000
000010
000000
000000
100000
000000
,  // measure 41
000000
100000
000100
001000
000001
000001
000000
000100
,  // measure 42
000000
000100
000001
000100
001000
000000
000000
010000
,  // measure 43
000000
010000
000000
000000
010000
000000
000001
000000
001000
000000
000001
000000
100000
000000
001000
000000
,  // measure 44
000100
000010
000100
001000
001000
000000
000000
010000
,  // measure 45
000000
010000
000000
000000
010000
000000
000100
000000
001000
000000
001000
000000
000000
000000
000010
000000
,  // measure 46
000000
000010
000000
000000
000010
000000
000100
000000
001000
000000
000000
000000
000000
000000
100000
000000
,  // measure 47
000000
100000
000000
000000
100000
000000
000001
000000
001000
000000
000001
000000
100000
000000
001000
000000
,  // measure 48
000100
000000
001000
000000
100000
000000
000100
000000
001000
000000
000000
000001
000000
000000
100000
000000
,  // measure 49
000001
000000
000100
001000
100000
000000
100000
000000
,  // measure 50
100000
000000
001000
000100
000001
000000
000001
000000
,  // measure 51
010000
000000
010000
000100
001000
000000
001000
000000
,  // measure 52
000010
000000
000010
000100
001000
000000
001000
000000
,  // measure 53
100000
000000
100000
000100
010000
000000
010000
000000
,  // measure 54
001000
000000
001000
000100
000010
000000
000010
000000
,  // measure 55
000001
000000
000001
000010
100000
000000
100000
000000
,  // measure 56
001000
000000
000000
000100
000000
000000
000010
000000
000100
000000
000000
100000
000000
000000
000100
000000
;

//---------------dance-solo - ----------------
#NOTES:
     dance-solo:
     :
     Hard:
     8:
     0.530,0.538,0.091,0.000,0.451: // measure 1
000000
000000
000000
000000
,  // measure 2
000000
000000
000000
000000
,  // measure 3
000000
000000
000000
000000
,  // measure 4
000000
000000
000000
000000
,  // measure 5
100000
001000
000000
100000
001000
000000
000100
000000
000001
000000
000000
001000
000000
000000
001000
000000
,  // measure 6
000001
001000
000000
000001
001000
000000
000100
000000
100000
000000
000000
001000
000000
000000
001000
000000
,  // measure 7
100000
001000
000000
100000
001000
000000
000100
000000
000001
000000
000000
100000
000000
000000
100000
000000
,  // measure 8
000010
001000
000000
000010
001000
000000
000001
000000
010000
000000
000000
000001
000000
000000
000001
000000
,  // measure 9
100000
001000
000100
001000
100000
000100
001000
000001
,  // measure 10
100000
000000
000001
000000
000000
000001
000000
000000
000000
000000
000000
000000
001000
000000
000001
000000
,  // measure 11
000000
000100
000001
000100
000010
001000
000100
100000
,  // measure 12
000001
100000
000000
000000
000000
000000
000001
100000
,  // measure 13
001000
000001
001000
100000
001000
000010
001000
010000
,  // measure 14
000001
000000
001000
000000
000001
000000
000000
000001
000000
000000
000000
000000
000000
000000
000000
000000
,  // measure 15
000101
000000
000000
000001
000000
001000
000000
000000
100100
000000
000000
100000
000000
001000
000000
000000
,  // measure 16
001100
000000
000000
000001
000000
000000
100000
000000
100001
000000
000000
000000
100000
000000
000001
000000
,  // measure 17
001000
000000
000100
100000
000000
001000
000000
000100
000000
000001
000000
001000
000000
000100
000000
001000
,  // measure 18
000000
000000
000000
000001
000000
010000
000000
000001
000000
000000
000000
000000
100000
000000
000000
000000
,  // measure 19
000010
000000
000100
000010
001000
001000
000000
000001
,  // measure 20
100000
000000
000000
100000
000000
000000
100000
000000
000001
000000
000000
000001
000000
000000
000001
000000
,  // measure 21
000100
000000
001000
100000
000000
000100
000000
001000
000000
000001
000000
010000
000000
000010
000000
001000
,  // measure 22
000100
000000
000000
000100
000000
000000
000100
000000
001000
000000
000000
001000
000000
000000
001000
000000
,  // measure 23
000001
000000
000001
010000
000001
001000
000000
001000
,  // measure 24
000001
000000
100000
000000
000000
000000
000001
000000
100000
000001
100000
000001
100000
000000
000000
100000
,  // measure 25
001000
000100
000001
000100
001000
100000
000100
001000
,  // measure 26
000001
000000
000001
001000
000100
100000
001000
000100
,  // measure 27
000001
000000
000001
000100
001000
100000
000100
001000
,  // measure 28
000001
010000
000010
001000
000100
010000
001000
000100
,  // measure 29
000001
000000
000001
001000
000100
100000
001000
100000
,  // measure 30
000100
000000
000100
001000
000001
000100
000001
001000
,  // measure 31
000100
000000
000100
100000
001000
000100
000001
001000
,  // measure 32
000010
010000
001000
000100
000010
000100
001000
000000
,  // measure 33
100000
001000
000000
100000
001000
000000
000100
000000
000001
000000
000000
100000
000000
000000
000001
000000
,  // measure 34
001000
000001
000000
001000
000001
000000
010000
000000
000001
000000
000000
001000
000000
000000
000100
000000
,  // measure 35
100000
001000
000000
100000
001000
000000
000100
000000
000001
000000
000000
100000
000000
000000
001000
000000
,  // measure 36
000100
000010
000000
000100
000010
000000
100000
000000
000001
000000
000000
001000
000000
000000
000100
000000
,  // measure 37
100000
000100
000000
010000
000100
000000
001000
000000
000001
000000
000000
000100
000000
000000
001000
000000
,  // measure 38
100000
001000
000000
010000
001000
000000
000100
000000
000001
000000
000000
001000
000000
000000
000010
000000
,  // measure 39
000100
000001
000000
000100
000010
000000
010000
000000
000100
000000
000000
001000
000000
000000
000001
000000
,  // measure 40
100000
001000
000000
010000
001000
000000
000100
000000
000001
000000
001000
000100
000000
010000
000100
000000
,  // measure 41
100000
000100
100000
000001
001000
001000
000000
000100
,  // measure 42
000000
100000
000001
100000
001000
000000
000000
000100
,  // measure 43
000000
000001
000000
000000
100000
000000
000100
000000
001000
000000
000001
000000
001000
000000
100000
000000
,  // measure 44
001000
000010
010000
000100
001000
000000
000000
000001
,  // measure 45
000000
000001
000000
000000
001000
000000
000100
000000
100000
000000
100000
000000
000000
000000
100000
000000
,  // measure 46
000000
100000
000000
000000
001000
000000
000100
000000
000010
000000
000000
000000
000000
000000
000100
000000
,  // measure 47
000000
000100
000000
000000
000001
000000
001000
000000
000100
000000
100000
000000
001000
000000
000001
000000
,  // measure 48
001000
000000
100000
000000
000100
000000
001000
000000
000001
000000
000000
100000
000000
000000
000001
000000
,  // measure 49
001000
000000
000000
000001
000000
000000
001000
000000
100000
000000
000000
001000
000000
000000
100000
000000
,  // measure 50
000100
000000
000000
100000
000000
000000
000100
000000
000001
000000
000000
100000
000000
000000
000001
000000
,  // measure 51
000001
000000
000000
100000
000000
000000
000010
000000
000100
000000
000000
001000
000000
000000
010000
000000
,  // measure 52
000001
000000
000000
001000
000000
000000
000001
000000
010000
000000
000000
000001
000000
000000
001000
000000
,  // measure 53
000100
000000
000000
100000
000000
000000
000100
000000
100000
000000
000000
001000
000000
000000
100000
000000
,  // measure 54
001000
000000
000000
000001
000000
000000
001000
000000
000001
000000
000000
000100
000000
000000
000001
000000
,  // measure 55
000100
000000
000000
100000
000000
000000
000001
000000
001000
000000
000000
000010
000000
000000
010000
000000
,  // measure 56
010100
000000
000000
001000
000000
000000
000110
000000
010010
000000
000000
011000
000000
000000
100001
000000
;

//---------------dance-solo - ----------------
#NOTES:
     dance-solo:
     :
     Easy:
     4:
     0.262,0.453,0.122,0.000,0.000: // measure 1
000000
000000
000000
000000
,  // measure 2
000000
000000
000000
000000
,  // measure 3
000000
000000
000000
000000
,  // measure 4
000000
000000
000000
000000
,  // measure 5
100000
001000
100000
000000
,  // measure 6
000001
001000
000001
000000
,  // measure 7
010000
001000
000100
000000
,  // measure 8
000010
001000
000100
000000
,  // measure 9
100000
000100
001000
000001
,  // measure 10
010000
010000
000000
000000
,  // measure 11
000100
100000
001000
010000
,  // measure 12
000010
100000
000000
000000
,  // measure 13
100000
001000
000001
001000
,  // measure 14
100000
000001
100001
000000
,  // measure 15
100001
100001
100010
100010
,  // measure 16
010010
010010
100001
100000
,  // measure 17
001000
000100
001000
100000
,  // measure 18
000100
001000
000001
000000
,  // measure 19
010000
000001
000100
001000
,  // measure 20
100000
000000
100000
000000
,  // measure 21
100000
001000
000100
000001
,  // measure 22
100000
000000
100000
000000
,  // measure 23
000001
001000
010000
001000
,  // measure 24
000001
000000
000001
000000
,  // measure 25
100001
100000
001000
000100
,  // measure 26
001000
100000
000100
001000
,  // measure 27
000100
100000
001000
000100
,  // measure 28
000001
001000
000010
010000
,  // measure 29
000001
000100
001000
000100
,  // measure 30
000001
001000
000100
001000
,  // measure 31
000001
001000
000010
100000
,  // measure 32
000100
010000
000010
000010
,  // measure 33
010010
000010
010000
000000
,  // measure 34
010000
010000
000010
000000
,  // measure 35
000010
010000
000001
000000
,  // measure 36
010000
000010
100000
000000
,  // measure 37
000001
000001
000100
000000
,  // measure 38
100000
100000
000100
000000
,  // measure 39
000001
100000
000010
000000
,  // measure 40
100000
000001
010000
000010
,  // measure 41
001000
001000
000100
000000
,  // measure 42
100000
000000
001000
001000
001000
000000
000000
000000
,  // measure 43
000100
000001
001000
000100
,  // measure 44
100000
100000
100000
000000
000001
000000
000000
000000
,  // measure 45
000001
001000
000100
000000
,  // measure 46
100000
000000
000100
000100
000100
000000
000000
000000
,  // measure 47
000100
001000
000001
000100
,  // measure 48
000001
000001
000001
000000
100000
000000
000001
000000
,  // measure 49
100001
000000
100000
000000
,  // measure 50
001000
000000
001000
000000
,  // measure 51
000010
000000
000010
000000
,  // measure 52
000001
000000
000001
000000
,  // measure 53
010000
000000
010000
000000
,  // measure 54
001000
000000
001000
000000
,  // measure 55
000100
000000
000100
000000
,  // measure 56
100001
000000
000000
000000
000001
000000
000000
100000
;
