#VERSION:0.83;
#TITLE:Perfume!;
#SUBTITLE:;
#ARTIST:Fusq;
#TITLETRANSLIT:;
#SUBTITLETRANSLIT:;
#ARTISTTRANSLIT:;
#GENRE:EDM;
#ORIGIN:;
#CREDIT:;
#BANNER:Perfume_Banner.png;
#BACKGROUND:Perfume_Background.png;
#PREVIEWVID:;
#JACKET:;
#CDIMAGE:Bengatr-cd.png;
#DISCIMAGE:;
#LYRICSPATH:;
#CDTITLE:Bengatr-cd.png;
#MUSIC:Perfume_.ogg;
#OFFSET:0.000000;
#SAMPLESTART:52.911999;
#SAMPLELENGTH:15.118000;
#SELECTABLE:YES;
#DISPLAYBPM:127.000000;
#BPMS:0.000=127.000,
55.250=190.500,
56.000=127.000,
238.000=190.500,
238.750=63.500,
239.000=127.000;
#STOPS:55.250=0.039,
55.500=0.039,
55.750=0.039;
#DELAYS:;
#WARPS:;
#TIMESIGNATURES:0.000=4=4;
#TICKCOUNTS:0.000=4;
#COMBOS:0.000=1;
#SPEEDS:0.000=1.000=0.000=0;
#SCROLLS:0.000=1.000;
#FAKES:;
#LABELS:0.000=Song Start;
#BGCHANGES:;
#KEYSOUNDS:;
#ATTACKS:
;

//---------------dance-single - ----------------
#NOTEDATA:;
#CHARTNAME:;
#STEPSTYPE:dance-single;
#DESCRIPTION:;
#CHARTSTYLE:;
#DIFFICULTY:Challenge;
#METER:11;
#RADARVALUES:0.683076,0.756352,0.347748,0.492643,0.920083,660.000000,612.000000,48.000000,68.000000,43.000000,0.000000,2.000000,0.000000,0.000000,0.683076,0.756352,0.347748,0.492643,0.920083,660.000000,612.000000,48.000000,68.000000,43.000000,0.000000,2.000000,0.000000,0.000000;
#CREDIT:Benpai x Feraligatr;
#DISPLAYBPM:127.000000;
#NOTES:
// measure 0
0000
0000
0000
0000
,  // measure 1
0000
0000
0000
0000
0000
0000
0000
000M
0000
0000
0000
0000
0000
0000
0000
0000
0000
0000
0000
0000
0000
0000
0000
0000
0000
0000
0000
0000
0000
0000
0000
0000
,  // measure 2
1000
M100
1M00
M001
,  // measure 3
010M
0M10
10M0
M001
,  // measure 4
100M
M010
01M0
0M01
,  // measure 5
001M
0000
01M0
0000
4M00
0000
0000
3000
,  // measure 6
1MM1
0001
M100
M11M
,  // measure 7
1M1M
1000
1MM1
11MM
,  // measure 8
M11M
0001
100M
M1M1
,  // measure 9
1M1M
1MM1
MM11
M42M
,  // measure 10
0000
0000
0000
0000
,  // measure 11
0000
0000
0000
0000
0000
0000
0000
0000
0000
0000
0000
0000
0000
0000
0000
0330
,  // measure 12
0011
0000
1000
0001
0000
0010
0000
1100
0000
0000
1100
0000
0100
0010
0000
0110
,  // measure 13
0000
0000
0110
0000
0100
1000
0000
0001
0100
0000
0010
1000
0000
1000
0001
0010
,  // measure 14
0001
0100
0010
1000
0100
0010
0001
1000
0000
0000
1001
0000
0001
1000
0010
0001
,  // measure 15
0000
0000
0010
0000
0200
0000
0000
0000
0000
0000
0000
0000
0300
0000
0010
0000
2000
0000
0000
0000
0000
0000
3000
0000
0001
0100
0010
1000
0001
0100
0010
1000
,  // measure 16
0001
0000
1000
0100
0000
0010
0000
0001
0000
0000
0001
0000
0100
0001
0000
0020
,  // measure 17
0000
0030
0100
1000
0000
1000
0000
0001
1000
0000
0010
1000
0000
0100
0010
0100
,  // measure 18
2000
0000
3001
0100
0001
0010
0001
0020
0000
0000
0032
0000
1003
0001
0100
1000
,  // measure 19
0000
0000
0100
0000
0020
0000
0000
0000
0000
0000
0000
0000
0030
0000
1000
0000
0002
0000
0000
0000
0000
0000
0000
0000
0000
0000
0000
0000
00M3
0M00
00M0
0M00
,  // measure 20
0011
0000
0001
1000
0000
0010
0000
0100
0001
0000
0100
0000
0001
1000
0000
0100
,  // measure 21
0010
0000
0100
0000
0010
1000
0000
0010
0100
0000
0010
0001
0000
1000
0010
0100
,  // measure 22
0001
0000
1000
0100
0010
0001
1000
0010
0000
0000
0010
0000
1000
0001
0010
1000
,  // measure 23
0000
0010
0200
0000
1000
0000
0310
0001
1000
0000
1000
0000
0020
0000
0030
0000
,  // measure 24
0100
0000
0010
1000
0000
0010
0000
0100
0010
0000
1000
0000
0100
1000
0001
0100
,  // measure 25
0000
0000
0010
0000
1000
0010
0000
0010
0100
0000
0100
0001
0000
1000
0100
1000
,  // measure 26
0001
0000
1000
0010
0100
0001
1000
0100
0000
0000
0100
0000
1000
0001
0100
1000
,  // measure 27
0000
0100
0020
0000
1000
0000
0130
0001
1000
0000
1000
0000
0100
0000
0110
0000
,  // measure 28
0011
0000
1000
0001
0000
0010
0000
0100
1000
0000
0100
0000
1000
0001
0000
0100
,  // measure 29
0000
0001
1000
0100
0010
0001
0000
0010
0100
0000
0010
0001
0000
1000
0010
0100
,  // measure 30
0001
0000
1000
0100
0010
0001
1000
0010
0000
0000
0010
0000
1000
0001
0010
1000
,  // measure 31
0000
0010
0200
0000
0010
0000
1300
0001
0100
0000
0100
0000
0001
0000
1000
0100
,  // measure 32
1000
0000
1000
0010
0000
0100
0000
0001
0100
0000
0001
0000
1000
0100
0010
0001
,  // measure 33
0000
0000
0001
0100
0010
1000
0000
1000
0001
0000
0001
0010
0000
0001
1000
0010
,  // measure 34
0100
0000
0001
1000
0100
0010
0001
1000
0000
0000
1000
0000
0001
0100
0010
0001
,  // measure 35
0000
0000
0010
0000
0200
0000
0000
0000
0001
0000
0000
0000
0310
0000
1000
0000
0001
0000
0000
0000
0001
0000
0000
0000
1000
0100
0010
0001
1000
0100
0010
0001
,  // measure 36
1000
0000
0001
0100
0000
0010
1000
0001
0000
0000
0001
0000
1000
0100
0010
0001
,  // measure 37
0000
0000
0001
0000
0010
1000
0000
0010
0100
0000
0010
0001
0000
1000
0001
0100
,  // measure 38
0010
0100
0001
1000
0100
0010
0001
1000
0010
0000
1000
0000
0001
0100
0010
0001
,  // measure 39
0000
0010
0200
0000
0001
0000
0310
1000
0001
0010
0000
0100
1000
0000
0001
0100
,  // measure 40
0001
0000
0010
0100
0010
0001
1000
0100
0000
0000
0100
0000
1000
0100
0010
0001
,  // measure 41
0000
0000
1000
0100
0010
1000
0000
0010
0100
0000
0010
0001
0000
0010
0100
1000
,  // measure 42
0002
0000
1003
0010
0100
0001
1000
0100
0000
0100
0010
0000
0001
0100
0010
0001
,  // measure 43
0000
0000
0010
0000
0200
0000
0000
0000
0001
0000
0000
0000
0310
0000
1000
0000
0001
0000
0000
0000
0001
0000
0000
0000
1000
0100
0010
0001
1000
0100
0010
0001
,  // measure 44
2000
0000
0000
0000
3001
0000
1000
0020
0000
0030
0010
0100
0000
0001
0010
0100
,  // measure 45
2000
0000
0000
0000
3000
0000
0001
0000
0000
0000
0100
0000
0000
0000
1020
0000
0000
0000
0000
0000
0000
0000
0000
0000
1030
0010
0100
0001
1000
0000
0000
0000
,  // measure 46
1001
0010
1001
0001
1100
0001
1000
0020
,  // measure 47
0030
0000
0200
0000
0300
0000
0001
0000
2002
0000
3003
0000
2001
0000
3001
0100
,  // measure 48
0020
0000
0000
0000
0130
0001
0000
2000
0000
3000
0001
0010
0000
0100
1000
0001
,  // measure 49
0200
0000
0300
0100
0010
1000
0001
0020
0000
0000
0130
0000
1000
0000
0001
0000
,  // measure 50
0101
1000
1100
0000
0011
0000
0010
0010
,  // measure 51
0100
0000
1000
0000
0001
0000
0100
0000
2020
0000
0000
3030
0202
0000
0000
0303
,  // measure 52
0002
0000
0000
0000
0003
0000
1000
0002
0000
0003
0001
0100
0000
0010
0010
2000
,  // measure 53
0000
0000
0000
3001
0000
0100
0000
0120
0000
0000
0000
0000
0030
0000
0000
0000
,  // measure 54
1001
0000
1001
1000
0011
0001
1000
1010
,  // measure 55
0000
0110
0000
0001
0101
0000
0101
0000
,  // measure 56
2001
0000
0000
0000
3000
0001
0000
0021
0000
0030
0010
0001
0000
0010
0100
2000
,  // measure 57
0000
0000
3000
1000
0001
0100
0010
2000
0000
0000
0000
3000
1010
0000
0000
0000
,  // measure 58
1100
0000
1100
0001
0101
0100
0010
1010
,  // measure 59
0000
0000
0001
0000
0000
0010
0100
0000
0002
0000
0000
0003
0220
0000
0000
0330
,  // measure 60
1001
0000
1000
0010
0000
0010
1000
0001
0000
0000
0001
0010
0100
1000
0001
1000
,  // measure 61
0010
0000
0100
0001
0100
1000
0000
0100
0010
0000
0100
0001
0000
1000
0100
0010
,  // measure 62
0001
0000
1000
0001
0100
0010
1000
0001
0000
0100
0001
0000
1000
0001
0010
1000
,  // measure 63
0000
0010
0200
0000
0010
0000
1300
0001
0100
0010
0100
0010
1000
0000
0001
0010
,  // measure 64
0001
0000
0001
0100
0000
0010
1000
0001
0000
1000
0001
1000
0100
0010
0100
1000
,  // measure 65
0000
0000
1000
0001
0100
0010
0000
0010
1000
0000
1000
0001
0000
0010
0100
2000
,  // measure 66
0000
0000
3001
1000
0010
1000
0001
0020
0000
0000
0130
0000
1000
0001
0100
0010
,  // measure 67
0000
0000
1000
0000
0002
0000
0000
0000
0010
0000
0000
0000
1003
0000
0001
0000
0100
0000
0000
0000
0100
0000
0000
0000
0001
0010
0100
1000
0001
0010
0100
1000
,  // measure 68
0001
0000
2000
3020
0230
0302
0000
0023
,  // measure 69
0030
0020
0030
0200
0320
0030
0020
0000
,  // measure 70
0230
0000
0000
0000
2300
0000
3002
0000
0203
0000
0320
0000
0000
0030
0200
0000
,  // measure 71
0000
0300
0200
0000
0000
0300
0002
0000
2003
0000
0000
0000
3200
0000
0000
0000
,  // measure 72
0300
0000
0000
0000
;

//---------------dance-single - ----------------
#NOTEDATA:;
#CHARTNAME:;
#STEPSTYPE:dance-single;
#DESCRIPTION:;
#CHARTSTYLE:;
#DIFFICULTY:Beginner;
#METER:2;
#RADARVALUES:0.113846,0.155943,0.021734,0.007245,0.003622,110.000000,107.000000,3.000000,1.000000,0.000000,0.000000,0.000000,0.000000,0.000000,0.113846,0.155943,0.021734,0.007245,0.003622,110.000000,107.000000,3.000000,1.000000,0.000000,0.000000,0.000000,0.000000,0.000000;
#CREDIT:Benpai;
#DISPLAYBPM:127.000000;
#NOTES:
0000
0000
0000
0000
,
0000
0000
0000
0000
,
0000
0000
0000
0000
,
0000
0000
0000
0000
,
0000
0000
0000
0000
,
0000
0000
0000
0000
,
0000
0000
0000
0000
,
0000
0000
0000
0000
,
0000
0000
0000
0000
,
0000
0000
0000
0000
,
0000
0000
0000
0000
,
0000
0000
0000
0000
,
0001
0000
0000
0000
,
0000
0000
0000
0000
,
0000
0000
0000
0000
,
0000
0000
0000
0000
,
1001
0000
0000
0000
,
0000
0000
0000
0000
,
1000
0000
0000
0000
,
0000
0000
0010
0000
,
1000
0000
0000
0000
,
0001
0000
0000
0000
,
0010
0000
0000
0000
,
0100
0000
0000
0000
,
1000
0000
0001
0000
,
0100
0000
0010
0000
,
0100
0000
0001
0000
,
1000
0000
0100
0000
,
1000
0000
0001
0000
,
0100
0000
0001
0000
,
0010
0000
0100
0000
,
1000
0000
0001
0000
,
0010
0000
0001
0000
,
1000
0000
0010
0000
,
1000
0000
0100
0000
,
0010
0000
0001
0001
,
0001
0000
1000
0000
,
0010
0000
0100
0000
,
0001
0000
1000
0000
,
0100
0000
0010
0000
,
0100
0000
1000
0000
,
0001
0000
0100
0000
,
0010
0000
0100
0000
,
0001
0000
0010
0000
,
0100
0000
1000
0000
,
0010
0000
1000
0000
,
0100
0000
1000
0000
,
0001
0000
0100
0100
,
0100
0000
0001
0000
,
0010
0000
0001
0000
,
1000
0000
0010
0000
,
0100
0000
0010
0100
,
0001
0000
0000
0000
,
1000
0000
0000
0000
,
0100
0000
1000
0000
,
0001
0000
0100
0100
,
0001
0000
0010
0000
,
0100
0000
1000
0000
,
0100
0000
0010
0000
,
0001
0000
2001
0000
,
3010
0000
0100
0000
,
0001
0000
1000
0000
,
0100
0000
1000
0000
,
0010
0000
0100
0000
,
0001
0000
0010
0000
,
0001
0000
0000
0000
0000
0000
0000
0000
0100
0000
0000
0000
0000
0000
0000
0110
,
0000
0000
0010
0000
,
1000
0000
0001
0000
,
1000
0000
0100
0000
,
1000
0000
0001
0000
,
0100
0000
0001
0000
,
0010
0000
0001
1000
;

//---------------dance-single - ----------------
#NOTEDATA:;
#CHARTNAME:;
#STEPSTYPE:dance-single;
#DESCRIPTION:;
#CHARTSTYLE:;
#DIFFICULTY:Medium;
#METER:7;
#RADARVALUES:0.385007,0.389858,0.195608,0.137650,0.115916,372.000000,345.000000,27.000000,19.000000,17.000000,0.000000,0.000000,0.000000,0.000000,0.385007,0.389858,0.195608,0.137650,0.115916,372.000000,345.000000,27.000000,19.000000,17.000000,0.000000,0.000000,0.000000,0.000000;
#CREDIT:Benpai X Feraligatr;
#DISPLAYBPM:127.000000;
#NOTES:
0000
0000
0000
0000
,
0000
0000
0000
0000
,
0011
MM00
0110
M00M
,
1100
00MM
1001
0MM0
,
1010
0M0M
0110
M00M
,
0101
0000
M0M0
0000
2002
0000
0000
3003
,
0001
0100
0010
1000
,
0100
0010
0001
1000
,
0010
0100
0001
0010
,
1000
0010
0100
2000
,
0000
0000
0000
0000
,
0000
0000
0000
0000
0000
0000
0000
0000
0000
0000
0000
0000
0000
0000
0000
3000
,
1002
0000
0000
0000
0000
0003
0000
0010
0000
0000
0010
0000
0000
0000
0000
0100
,
0000
0000
0100
0000
0000
1000
0000
0000
0001
0000
0000
0100
0000
00M0
M000
00M0
,
0002
0000
0000
0000
0000
0000
0003
1000
0000
0000
1000
0000
0010
0000
0000
0100
,
0000
0020
0000
0030
0200
0000
0000
0300
,
1001
0000
0000
0001
0000
1000
0000
0010
0000
0000
0010
0000
0100
0000
0000
0010
,
0000
0000
1000
0000
0000
0001
0000
0000
0100
0000
0000
0010
0000
0000
1000
0000
,
0001
0000
0000
0000
0010
0000
0000
0100
0000
0000
0100
0000
1000
0000
0000
0001
,
0000
0200
0000
0300
0020
0000
0030
0000
,
1010
0000
0010
0100
0001
0000
1000
0001
,
0010
0000
0001
1000
0010
0100
0001
1000
,
0100
0000
0010
0001
1000
0000
0001
0100
,
0010
1000
0001
0000
0010
0100
0010
0000
,
0001
0000
1001
0000
0001
0100
0001
0000
,
1000
0000
1100
0000
0001
0010
0001
1000
,
0010
0000
0101
0000
1000
0001
0100
0000
,
0010
0000
1010
0000
0001
0001
0010
0010
,
0100
0000
1100
0000
0001
0010
0100
0000
,
1000
0000
1001
0000
0001
0100
0010
0100
,
0001
0000
1010
0000
1000
0001
0010
0000
,
0100
0000
1100
0000
1000
1000
0100
0100
,
1000
0000
1001
0000
1000
0001
0100
0000
,
0010
0000
1010
0000
1000
0001
0010
0100
,
1000
0000
1001
0000
0001
0100
0010
0000
,
1000
0000
1001
0000
0001
0001
0010
0100
,
1000
0000
0000
0001
0000
0000
0100
0000
0010
0000
1000
0000
0010
0000
0000
0000
,
0100
0000
0010
0000
0000
1000
0000
0000
0100
0000
0000
0010
0000
0000
0100
0000
,
1000
0000
0010
0000
1000
0000
0000
0100
0000
0000
0010
0000
0001
0000
0100
0000
,
0010
0000
0010
0000
1000
0000
0100
0000
0010
0000
0000
0100
0000
0000
0010
0000
,
0001
0000
1000
0000
0001
0000
0000
0010
0000
0000
0010
0000
0001
0000
0100
0000
,
0010
0000
1000
0000
0000
1000
0000
0000
0010
0000
0000
0100
0000
0000
0001
0000
,
0020
0000
0130
0000
1000
0001
1000
0000
,
0010
0100
0001
0000
1000
0100
1000
0000
,
0020
0000
1030
0001
1000
0000
0100
0010
,
0001
0000
0000
1000
0000
0010
0000
0200
0000
0000
0000
0000
0300
0000
0001
0000
,
0010
0001
0010
0100
1000
0000
0001
1000
,
0000
0010
0000
0100
0001
0000
0001
0000
,
1002
0000
1003
0001
0010
0000
0100
1000
,
0001
0000
1000
0000
0010
0000
0100
0001
,
1000
0000
1000
0001
0010
0001
1000
0010
,
0000
0100
0000
0001
0101
0000
1001
0000
,
0002
0003
0100
0000
,
0010
0000
0100
0001
1000
0000
0000
0000
,
0001
0000
0001
1000
0100
0010
0001
1000
,
0000
0010
0000
0100
0001
0000
0001
0000
,
2000
3000
0100
0000
,
0010
0000
0001
1000
0010
0000
0100
0000
,
0001
0000
0001
1000
0010
0100
0001
1000
,
0000
0000
0100
0000
0000
0000
0100
0000
0100
0000
0000
0000
0220
0000
0000
0330
,
1000
0001
0010
0000
0100
1000
0001
0000
,
0100
0000
0001
0000
0100
0000
0000
0000
0010
0000
0000
1000
0000
0000
0010
0000
,
0100
0001
0100
0000
0001
1000
0001
0000
,
0010
0001
1000
0000
0010
0010
0100
0001
,
1000
0100
0010
0000
0001
1000
0010
0000
,
0100
0000
0001
0000
0000
0100
0000
0000
0010
0000
0000
1000
0000
0000
0000
0002
,
0000
0000
0000
0000
0003
0000
0000
0010
0000
0000
0010
0000
0100
0000
0000
0000
,
1000
0001
0100
0000
0010
0010
0200
0000
,
0310
0000
1000
0001
1000
0100
0000
0010
,
0000
0010
0000
0001
0100
0000
0100
0000
,
0010
0000
0100
0010
1000
0001
0000
0010
,
0000
0010
0000
0100
0010
0000
0100
0000
;

//---------------dance-single - ----------------
#NOTEDATA:;
#CHARTNAME:;
#STEPSTYPE:dance-single;
#DESCRIPTION:;
#CHARTSTYLE:;
#DIFFICULTY:Hard;
#METER:9;
#RADARVALUES:0.555776,0.625946,0.123161,0.434685,0.735342,537.000000,520.000000,17.000000,60.000000,1.000000,0.000000,5.000000,0.000000,0.000000,0.555776,0.625946,0.123161,0.434685,0.735342,537.000000,520.000000,17.000000,60.000000,1.000000,0.000000,5.000000,0.000000,0.000000;
#CREDIT:Feraligatr;
#DISPLAYBPM:127.000000;
#NOTES:
0000
0000
0000
0000
,
0000
0000
0000
0000
0000
0000
0000
000M
0000
0000
0000
0000
0000
0000
0000
0000
0000
0000
0000
0000
0000
0000
0000
0000
0000
0000
0000
0000
0000
0000
0000
0000
,
1000
0010
1000
0001
,
1000
0100
1000
0010
,
1000
0010
1000
0001
,
1000
0000
0100
0000
2000
0000
0000
3000
,
0001
0100
0001
1000
,
0001
0010
0001
0100
,
0001
1000
0001
0100
,
0001
0010
0001
2000
,
0000
0000
0000
0000
,
0000
0000
0000
0000
0000
0000
0000
0000
0000
0000
0000
0000
0000
0000
0000
3000
,
0110
0000
1000
0001
0000
0100
0000
0010
0000
0000
0010
0000
0100
0001
0000
1000
,
0000
0000
1000
0000
0000
0100
0000
0000
0010
0000
0000
0001
0000
1000
0001
1000
,
0010
0000
0100
0001
0100
0010
1000
0001
0000
0000
0001
0000
1000
0100
0000
0010
,
0000
0001
2000
0000
0000
0000
3000
0001
2000
0000
0000
3000
0040
0000
0000
0000
,
0130
0000
0001
1000
0000
0100
0000
0010
0000
0000
0010
0000
0001
1000
0000
0010
,
0000
0000
0010
0000
0100
0001
0000
0000
1000
0000
0000
0100
0000
0000
0010
0001
,
2000
0000
3001
1000
0010
1000
0001
1000
0000
0000
1000
0000
0001
0010
0000
0100
,
0000
1000
0002
0000
0000
0000
0003
1000
0002
0000
0000
0000
0003
0000
0000
0000
,
0101
0000
0100
0010
0000
1000
0000
0001
0000
0000
0001
0000
0010
0100
0000
1000
,
0000
0000
1000
0000
0001
0100
0000
0100
0010
0000
0010
1000
0000
0000
0001
0000
,
0011
0000
0001
1000
0001
0100
0010
1000
0000
0000
1000
0000
0001
0010
0000
0100
,
0000
1000
0002
0000
0000
0000
1003
0001
1000
0000
1000
0000
0010
0000
0000
0000
,
0101
0000
0100
0010
0000
1000
0000
0001
0000
0000
0001
0000
0010
0100
1000
0100
,
0000
0000
0100
0000
1000
0001
0000
0001
0100
0000
0100
0010
0000
0000
1000
0000
,
1001
0000
0001
0010
0100
1000
0001
1000
0000
0000
1000
0000
0001
0100
0000
0010
,
0000
0100
0002
0000
0000
0000
1003
0001
1000
0000
0100
0000
1100
0000
1100
0000
,
0011
0000
1000
0001
0000
0100
0000
0010
0000
0000
0010
0000
0100
0001
0000
1000
,
0000
0001
1000
0100
0010
0001
0000
0001
1000
0000
1000
0010
0000
0100
0000
0000
,
0101
0000
0001
1000
0001
0010
0100
1000
0000
0000
1000
0000
0001
0100
0000
0010
,
0000
0100
0002
0000
0000
0000
1003
0100
1000
0000
1000
0000
0001
0000
0001
1000
,
0001
0000
1000
0010
0000
0100
0000
0001
0000
0000
0001
0000
1000
0001
0010
0100
,
0000
0000
0100
0000
1000
0001
0000
0001
0100
0000
0100
0010
0000
1000
0000
0000
,
1001
0000
0001
0010
0001
1000
0001
0100
0000
0000
0100
0000
0010
1000
0000
0001
,
0000
0010
0002
0000
0000
0000
1003
0001
1000
0000
1000
0000
0040
0000
0000
0000
,
0130
0000
0001
1000
0000
0001
0010
0100
0000
0000
0100
0000
1000
0001
0100
0010
,
0000
0000
0010
0000
0000
0100
0000
0001
1000
0000
1000
0100
0000
1000
0010
0100
,
0001
1000
0000
1000
0000
0001
0100
0010
1000
0000
0100
0000
0000
0010
0001
1000
,
0000
0001
0200
0000
0000
0000
0310
0000
1000
0001
0000
0010
0000
0000
0100
1000
,
0100
0000
0010
0001
0000
1000
0001
0100
0000
0000
0100
0000
0010
1000
0001
0010
,
0000
0000
0010
0100
0000
1000
0000
0001
0100
0000
0100
0010
0000
1000
0001
0010
,
0200
0000
1300
0001
0000
0100
0000
0100
0000
0100
0010
0000
1000
0001
0000
0010
,
0000
0100
2000
0000
0000
0001
3000
1000
0001
0000
0001
0000
0040
0000
0000
0000
,
0230
0000
0000
0000
1300
0000
0001
0200
0000
0300
0100
0010
0000
0010
1000
0001
,
0020
0000
0030
0100
0000
1000
0000
1002
0000
0000
0000
0000
0403
0000
0310
0000
,
1000
0010
1000
0001
0010
0100
1000
0002
,
0003
0000
0200
0000
0300
0000
0001
0000
2002
0000
3003
0000
2001
0000
3001
1000
,
0002
0000
0000
0000
0103
0000
0001
2000
0000
3000
1000
0100
0000
0010
0001
1000
,
0020
0000
0030
0010
0000
0000
0100
0002
0000
0000
1003
0000
0100
0000
0010
0000
,
0011
0000
0011
1000
1010
0000
0001
0001
,
0000
0010
0000
0010
0200
0000
2300
0000
,
3002
0000
0000
0000
0003
0000
1000
0002
0000
0003
0001
0100
0000
0100
0010
2000
,
0000
0000
0000
3001
0000
0100
0000
0020
0000
0000
0000
0000
0030
0000
0000
0000
,
1000
0000
0001
0100
0010
0100
0001
1000
,
0000
0100
0000
0010
0001
0000
0001
0000
,
0200
0000
0000
0000
0300
0010
0000
1000
0000
0000
1000
0001
0000
0001
0010
0200
,
0000
0000
0300
1000
0001
1000
0010
0200
0000
0000
0000
0000
0301
0000
0000
0000
,
1000
0000
1000
0100
0010
0001
1000
0010
,
0000
0000
0100
0000
0000
0001
0100
0000
0020
0000
0000
0030
2000
0000
0000
3000
,
1001
0000
0001
0010
0000
0100
0010
0001
0000
0000
0001
1000
0000
1000
0010
0100
,
0000
0000
0100
0000
0001
1000
0000
1000
0100
0000
0100
0010
0000
0001
1000
0001
,
0100
0000
0010
1000
0001
1000
0001
0010
0000
0000
0010
0000
0100
1000
0000
0001
,
0000
0100
0002
0000
0000
0000
1003
0100
1000
0000
1000
0000
0010
0000
0010
0100
,
0001
0000
1000
0100
0000
0010
0001
1000
0000
0000
1000
0001
0100
0010
1000
0010
,
0000
0000
0100
0000
0001
1000
0000
1000
0100
0000
0100
0010
0000
0001
1000
0020
,
0000
0000
0130
0000
0001
1000
0100
0010
0000
0000
0010
0000
0001
1000
0000
0010
,
0000
0100
0002
0000
0000
0000
1003
0100
1000
0000
1000
0000
0004
0000
0000
0000
,
1003
0000
0002
0203
0320
2030
0000
3200
,
0300
0200
0300
0020
0230
0300
0200
0000
,
0320
0000
0000
0000
0032
0000
2003
0000
3020
0000
0230
0000
0000
0300
0020
0000
,
0000
0030
0020
0000
0000
0030
2000
0000
3002
0000
0000
0000
0023
0000
0000
0000
,
0030
0000
0000
0000
;

//---------------dance-single - ----------------
#NOTEDATA:;
#CHARTNAME:;
#STEPSTYPE:dance-single;
#DESCRIPTION:;
#CHARTSTYLE:;
#DIFFICULTY:Easy;
#METER:4;
#RADARVALUES:0.256671,0.286892,0.072447,0.152140,0.000000,248.000000,238.000000,10.000000,21.000000,0.000000,0.000000,0.000000,0.000000,0.000000,0.256671,0.286892,0.072447,0.152140,0.000000,248.000000,238.000000,10.000000,21.000000,0.000000,0.000000,0.000000,0.000000,0.000000;
#CREDIT:Feraligatr;
#DISPLAYBPM:127.000000;
#NOTES:
0000
0000
0000
0000
,
0000
0000
0000
0000
,
1000
0000
0100
0000
,
0010
0000
0001
0000
,
1000
0000
0010
0000
,
0100
0000
0001
0000
,
0010
0000
0100
0000
,
0010
0000
0001
0000
,
1000
0000
0010
0000
,
0100
0000
0002
0000
,
0000
0000
0000
0000
,
0000
0000
0000
0000
0000
0000
0000
0000
0000
0000
0000
0000
0000
0000
0000
0003
,
1001
0000
1000
0000
,
0010
0100
0001
1000
,
0100
0000
0010
0000
,
0001
1000
0001
0200
,
0310
0100
0001
1000
,
0100
0010
0001
1000
,
0001
0100
0001
1000
,
0100
0010
0200
0300
,
1001
1000
0010
0100
,
0001
1000
0100
0010
,
0001
1000
0010
0100
,
0001
1000
0100
1000
,
0001
0100
0010
0100
,
0001
1000
0100
0010
,
0001
1000
0100
1000
,
0001
0100
0010
0100
,
0101
1000
0001
0010
,
0001
1000
0010
0100
,
0001
1000
0100
1000
,
0001
0100
0010
1000
,
1001
1000
0010
0100
,
0001
1000
0100
0010
,
0001
0010
0100
1000
,
0001
0100
0010
0100
,
0101
1000
0001
1000
,
0100
0010
0100
1000
,
0001
0100
0010
0100
,
0001
1000
0100
1000
,
0001
0100
0010
1000
,
0001
0010
0100
1000
,
0001
0010
0100
1000
,
0001
0100
0001
1000
,
0200
0310
0001
1000
,
0010
0100
0010
0000
,
1000
1000
0001
0001
,
0010
0100
1000
1000
,
1001
0001
0100
0010
,
0100
0001
1000
0100
,
1000
1000
0001
0100
,
0010
1000
0001
0010
,
0200
0300
1000
0000
,
0001
0000
0100
0000
,
0010
0010
0100
0000
,
0001
0000
1000
1000
,
0200
0300
0010
0000
,
0001
0000
1000
0001
,
0100
0100
0010
0000
,
0010
0000
0000
0000
1000
0000
0000
0000
0002
0000
0000
0003
1000
0000
0000
0000
,
0101
0001
1000
0100
,
1000
0001
0100
0010
,
1010
0001
1000
0100
,
0010
0001
0010
0100
,
1100
0001
0100
0010
,
0100
0001
1000
0100
,
1100
0001
0100
0010
,
0100
0001
1000
0100
,
0020
0032
2003
3000
,
0002
0203
0320
2030
,
3002
0023
0230
0300
,
2000
3002
0203
0320
,
0030
0000
0000
0000
;
