#TITLE:Hikikomori (feat. ZZIKO);
#SUBTITLE:;
#ARTIST:The Hair Kid;
#TITLETRANSLIT:;
#SUBTITLETRANSLIT:;
#ARTISTTRANSLIT:;
#GENRE:EDM;
#CREDIT:;
#BANNER:Hikikomori_Banner.png;
#BACKGROUND:Hikikomori_Background.png;
#LYRICSPATH:;
#CDTITLE:;
#MUSIC:Hikikomori.ogg;
#OFFSET:-0.030000;
#SAMPLESTART:75.000000;
#SAMPLELENGTH:15.000000;
#SELECTABLE:YES;
#BPMS:0.000000=128.000000
;
#STOPS:158.000000=-0.468750
;
#BGCHANGES:;
#KEYSOUNDS:;
#ATTACKS:;

//---------------dance-single - ----------------
#NOTES:
     dance-single:
     :
     Challenge:
     10:
     0.630059,1.006363,0.235407,0.304644,0.553898,637.000000,603.000000,34.000000,44.000000,2.000000,0.000000,0.630059,1.006363,0.235407,0.304644,0.553898,637.000000,603.000000,34.000000,44.000000,2.000000,0.000000:
// measure 0
0000
0000
0000
0000
,  // measure 1
0000
0000
0000
0000
,  // measure 2
0000
0000
0000
0000
,  // measure 3
0000
0000
0000
0000
,  // measure 4
0002
0000
0000
0000
0000
0000
0000
2003
,  // measure 5
0000
0000
0000
0000
,  // measure 6
3200
0000
0000
0000
0000
0000
0000
0320
,  // measure 7
0000
0000
0000
0030
,  // measure 8
0001
0000
0010
0000
0100
0000
0010
0000
0001
0000
1000
0100
0000
1000
0100
0000
,  // measure 9
1000
0000
0010
0000
0100
0000
0010
0000
1000
0000
0001
0100
0000
0001
0100
0000
,  // measure 10
0010
0000
0100
0000
0001
0000
1000
0000
0100
0000
0010
0100
0000
0010
0100
0000
,  // measure 11
0010
0000
0000
0000
0000
0000
0001
0000
0000
0000
0000
0000
0100
0000
0000
0000
0000
0000
0010
0000
0000
0000
0000
0000
1000
0000
0000
0001
0000
0000
0010
0000
0000
0001
0000
0000
1000
0000
0000
0000
0000
0000
0001
0000
0100
0000
0010
0000
,  // measure 12
1000
0001
1000
0001
0100
0010
0100
0010
1000
0100
1000
0001
0100
0010
0100
0001
,  // measure 13
0100
0000
0000
0010
0000
0000
1000
0000
0000
0100
0000
0000
0010
0000
0000
0001
0000
0000
1000
0000
0000
0001
0000
0000
0100
0000
0000
0001
0000
0000
0010
0000
0000
0100
0000
0000
1000
0000
0100
0000
0010
0000
0002
0000
0000
0000
0000
0000
,  // measure 14
0013
0000
0000
0001
0000
0000
0010
0000
0000
0100
0000
0000
0010
0000
0001
0000
0010
0000
0001
0000
0000
0100
0000
0000
0001
0000
0100
0000
0010
0000
1000
0000
0010
0000
1000
0000
0100
0000
0010
0000
0001
0000
1000
0000
0100
0000
0010
0000
,  // measure 15
0001
0000
0000
0000
,  // measure 16
1002
0000
0000
0000
1003
0000
0010
0100
0010
0000
1000
0000
0100
0000
0020
0000
,  // measure 17
0000
0000
0000
0000
0000
0000
0031
0000
0000
0000
0000
0000
1000
0000
0100
0000
0010
0000
0001
0000
0100
0000
0010
0000
1000
0000
0000
0000
0000
0000
0010
0000
0000
0000
0000
0000
0100
0000
0000
0010
0000
0000
1000
0000
0000
0000
0000
0000
,  // measure 18
1020
0000
0000
0030
1000
0100
1000
0000
0010
0000
0100
0001
0100
0000
0102
0000
,  // measure 19
0000
0000
0000
0000
0000
0000
1003
0000
0000
0000
0000
0000
0100
0000
0000
0000
0000
0000
1000
0000
0000
0000
0000
0000
0010
0000
0100
0000
0010
0000
0100
0000
0000
0001
0000
0000
1000
0000
0000
0010
0000
0000
0100
0000
0000
0001
0000
0000
,  // measure 20
1000
0000
0100
0010
0001
1000
0000
0100
,  // measure 21
1000
0000
0001
0100
0001
0010
0100
1000
,  // measure 22
0010
0000
0000
0010
0100
0000
0001
0000
1000
0000
0100
0000
1000
0000
0020
0000
,  // measure 23
0000
0000
0000
0000
M030
000M
0110
0000
,  // measure 24
2000
0000
3100
0010
0100
1000
0010
1000
,  // measure 25
0001
0000
0001
1000
0000
0100
0000
1000
,  // measure 26
0020
0000
0130
0001
0010
0100
0010
0001
,  // measure 27
0100
0000
0010
0100
0000
1000
0100
0010
,  // measure 28
1000
0001
0010
0100
0010
0001
0100
0010
,  // measure 29
1000
0000
0100
0000
0010
0000
0200
0000
0000
0000
1300
0001
1000
0000
0010
0000
,  // measure 30
2000
0000
0000
0000
3100
0000
0002
0000
0000
0000
0103
1000
0100
0000
0210
0000
,  // measure 31
0000
0000
0000
0000
0300
0000
1000
0000
0001
0000
0100
0010
1000
0000
0010
0000
,  // measure 32
1010
0000
1000
0000
0100
0010
0002
0000
0000
0003
0100
0010
0100
0010
2000
0000
,  // measure 33
3001
0000
0010
0001
0010
0000
0200
0000
0320
0000
0230
0000
2300
0000
3200
0000
,  // measure 34
1300
0000
0001
0100
1000
0100
0002
0000
0003
0010
0100
1000
0001
1000
0001
0000
,  // measure 35
0000
0000
0010
0100
0010
0000
0100
0000
0001
0000
0100
0000
0010
0000
0001
0000
,  // measure 36
0201
0000
0310
0000
1000
0000
0002
0000
0000
0003
0100
0010
1000
0010
2000
0000
,  // measure 37
3001
0010
0100
0010
0001
0000
0100
0000
0010
0000
0001
0000
0010
0000
2000
0000
,  // measure 38
0000
0000
0000
3100
0000
0000
1000
0100
0010
0001
1000
0100
0010
0001
0010
0100
1000
0001
0100
0010
1000
0001
0010
0100
,  // measure 39
0020
0000
0030
2002
3003
0000
0000
MMMM
,  // measure 40
0000
0000
MMMM
0000
0000
0000
0001
0010
,  // measure 41
0011
0000
0001
0100
0001
0000
0010
0000
1100
0000
1000
0000
0001
0000
0100
0000
,  // measure 42
0101
0000
0001
0010
0001
0000
1000
0000
1100
0000
0100
0000
0010
0001
0000
0100
,  // measure 43
0010
0000
0100
0000
0010
0000
1000
0000
1001
0000
0001
0000
1000
0001
1000
0100
,  // measure 44
0000
0100
0000
0010
0001
0010
0100
0000
1100
0000
1000
0001
0000
0001
0000
0100
,  // measure 45
0002
0000
1003
0000
0100
0000
1000
0000
0010
0000
0100
0001
0000
0001
0000
0100
,  // measure 46
0010
0000
0100
0000
1000
0000
0100
0000
0010
0000
2000
0000
3001
0000
0010
0001
,  // measure 47
0010
0000
0100
0010
0000
0010
0001
0000
1000
0000
0001
0000
0101
0000
0000
0000
,  // measure 48
1100
0000
0000
0000
0011
0000
0000
0000
1010
0000
1000
0001
0000
0001
0010
0000
,  // measure 49
0100
0000
1000
0000
0001
0000
0100
0000
0110
0000
0010
0000
1000
0100
0000
1000
,  // measure 50
0100
0000
0010
0000
0002
0000
0103
0000
0010
0000
1000
0010
0100
0000
0010
0000
,  // measure 51
0100
0000
1000
0100
0000
0100
0001
0000
0010
0000
0001
0000
0010
0100
0010
0000
,  // measure 52
0010
0000
0001
0100
0001
0010
0100
0000
1100
0000
1000
0100
0000
0010
0000
0000
,  // measure 53
0011
0000
0001
0010
0100
0000
0010
0000
1001
0000
0001
0000
0100
0010
0000
1000
,  // measure 54
0100
1000
0100
0010
0001
0010
0001
0100
0010
1000
0100
0010
0001
0000
0000
0000
,  // measure 55
0001
2000
0000
3000
0010
0200
0000
0000
,  // measure 56
0300
0000
1000
0100
0002
0000
0000
0000
0000
0000
0003
0000
1000
0000
0100
0000
,  // measure 57
1000
0100
0010
0010
0001
0200
0000
0310
,  // measure 58
0100
0001
0000
0010
0110
0000
2000
0000
,  // measure 59
3010
0200
0310
0010
1000
0200
0000
1300
,  // measure 60
0001
0000
0100
0000
0000
0000
0010
0000
0010
0000
0000
0000
1000
0000
0000
0100
,  // measure 61
1000
0000
0010
0100
0010
0000
0100
0000
0001
0000
1000
0100
1000
0000
0010
0000
,  // measure 62
0100
0000
0001
0010
0000
0000
0001
0000
1000
0001
0000
0000
0200
0000
0000
0000
,  // measure 63
0310
0000
1000
0100
0000
0000
0100
0000
0010
0001
0010
0001
1000
0000
0010
0000
,  // measure 64
0100
0000
0001
0000
1000
0100
1000
0010
0100
0010
1000
0100
0010
0000
0001
0000
,  // measure 65
0011
0000
0001
0100
0010
0000
0100
0000
0110
0000
0010
1000
0010
0000
1000
0000
,  // measure 66
1100
0000
0100
0010
0001
0100
0010
1000
0001
0100
0001
0000
1000
0000
0100
0000
,  // measure 67
0110
0000
0100
1000
0010
0000
0100
0000
0101
0000
0001
0000
0010
0001
0000
0100
,  // measure 68
0001
0000
1000
0010
0100
0000
0010
0000
1010
0000
0010
0000
0100
0000
0001
0000
,  // measure 69
0011
0000
0001
0010
0001
0000
0100
0000
0110
0000
0010
1000
0001
0000
0100
0000
,  // measure 70
0101
0000
0001
0010
0000
0001
1000
0000
1001
0000
0001
0000
0010
0100
1000
0000
,  // measure 71
1010
0000
0010
0100
0010
0000
0100
0000
0001
0000
1000
0000
0001
0100
0001
1000
,  // measure 72
0100
0000
0000
1000
0000
0000
0010
0000
0000
0100
0000
0000
0001
0000
0000
0010
0000
0000
0100
0000
0000
0010
0000
0000
0001
0000
1000
0000
0010
0000
0100
0000
0001
0000
1000
0000
0001
0000
0000
0000
0000
0000
0010
0000
0000
0000
0000
0000
,  // measure 73
0100
0000
0010
0000
0100
2000
0000
0000
,  // measure 74
3000
0001
0100
0010
0100
0001
0010
0000
,  // measure 75
0001
0000
0100
0000
1000
0200
0000
0000
,  // measure 76
0000
0000
0300
0000
;

//---------------dance-single - ----------------
#NOTES:
     dance-single:
     :
     Hard:
     9:
     0.484660,0.609114,0.096932,0.470813,0.249254,490.000000,476.000000,14.000000,68.000000,0.000000,0.000000,0.484660,0.609114,0.096932,0.470813,0.249254,490.000000,476.000000,14.000000,68.000000,0.000000,0.000000:
0000
0000
0000
0000
,
0000
0000
0000
0000
,
0000
0000
0000
0000
,
0000
0000
0000
0000
,
0000
0000
0000
0000
,
0000
0000
0000
0000
,
0000
0000
0000
0000
,
0000
0000
0000
0000
,
1000
0000
0010
0000
0100
0000
0001
0000
1000
0000
0000
0010
0000
0000
1000
0000
,
0100
0000
0010
0000
0100
0000
0010
0000
0001
0000
0000
0010
0000
0000
0001
0000
,
0100
0000
0010
0000
1000
0000
0100
0000
1000
0000
0000
0100
0000
0000
0010
0000
,
0001
0000
1000
0000
0010
0000
1000
0000
0001
0000
0000
1000
0000
0000
0400
0000
,
1300
0000
0010
0000
1000
0000
0010
0000
0100
0000
0001
0100
0000
0001
0100
0001
,
0010
0000
0100
0000
0010
0000
0001
0000
1000
0000
0010
1000
0000
0010
1000
0100
,
0010
0000
0100
0000
1000
0000
0010
0000
0100
0000
0001
0010
0001
1000
0010
1000
,
0001
0000
0000
0000
,
2000
0000
3100
0010
0001
2000
0000
3020
,
0000
0000
0130
0000
0001
0000
0100
0000
0010
0000
0100
0000
0001
0000
0010
0100
,
2000
0000
0000
0000
3100
1000
0010
0000
0100
0000
0001
0000
1000
0000
1200
0000
,
0000
0000
0310
0000
0001
0000
1000
0000
0010
0000
0000
0100
0000
0010
0100
0010
,
1000
0000
0001
0100
0001
0100
0000
0010
,
1000
0000
0100
0000
1000
0010
0100
0010
,
1000
0000
0000
0100
0010
0000
0001
0000
1000
0000
0001
0000
0010
0000
0200
0000
,
0000
0000
0300
0000
,
0020
0000
0031
1000
0100
0002
0000
0203
,
0000
0300
1000
0100
0000
1000
0000
0010
,
0200
0000
0301
0100
0010
2000
0000
3020
,
0000
0030
0100
1000
0000
0100
0010
0100
,
0001
1000
0001
0010
0100
2000
0000
3100
,
0000
0000
1000
0000
0001
0000
0200
0000
0000
0000
0301
0010
0001
0000
0100
0000
,
0020
0000
0130
0020
0000
1030
0100
0210
,
0000
0000
0000
0000
0300
0000
0010
0000
0001
0000
0010
0100
1000
0000
0010
0000
,
1010
0000
1000
0000
0100
0000
2000
0000
3000
0000
0001
0100
0001
0000
2000
0000
,
3001
0000
0100
0001
0100
0000
0010
0000
1000
0000
0100
0000
0010
0000
0001
0000
,
0100
0000
0010
0100
0010
0000
2000
0000
3000
0010
0100
0010
0000
1000
0001
0000
,
0000
0000
0010
0100
0010
0000
0001
0000
0100
0000
0010
0000
1000
0000
0100
0000
,
0010
0000
0001
0000
1000
0000
0002
0000
0000
0003
0100
0010
1000
0000
0010
0000
,
0000
0100
0001
0010
0001
0000
0100
0000
0010
0000
1000
0000
0010
0000
2000
0000
,
0000
0000
3004
0000
0000
0000
0000
0000
0000
0000
0000
0000
0000
0000
0000
0003
,
0021
0000
0030
1001
0000
0000
0000
MMMM
,
0000
0000
MMMM
0000
0000
0000
1000
0002
,
0103
0020
1030
0200
0310
0002
1003
0020
,
0130
0020
1030
0200
1300
0200
0310
0002
,
0103
0000
0020
0000
0130
0000
0002
0000
1003
0000
0100
0000
1000
0001
1000
0001
,
0000
1000
0000
0001
0010
0100
0010
0000
0001
0000
2000
0000
3010
0000
0200
0000
,
0301
2000
3100
2000
3010
0200
0310
0200
,
0301
2000
3100
0020
0031
0200
0310
2000
,
3010
0200
0301
2000
3100
0010
0011
0000
,
1100
0000
0000
0000
1010
0000
0000
0000
0101
0000
0000
0001
0000
1000
0000
0000
,
0100
0000
2000
0000
3001
0000
0200
0000
0310
0000
1000
0100
0000
1000
0100
0000
,
0010
0000
0001
0000
2000
0000
3010
0000
1000
0000
0200
0000
0310
0001
0000
0010
,
0001
0000
0200
0000
0310
0000
2000
0000
3001
0000
0010
0000
0001
0100
0010
0000
,
0010
0000
1000
0100
0010
0100
1000
0000
0001
0000
0100
0010
0000
0010
0000
0000
,
1000
0000
0002
0000
0013
0000
0200
0000
1300
0000
0001
0000
0100
0010
0000
0100
,
0010
0000
1000
0000
0001
0010
0001
0000
1000
0100
1000
0000
0010
0000
0000
0000
,
0100
2000
0000
3000
0100
0020
0000
0000
,
0030
0000
1000
0001
1000
0000
0000
0000
0000
0000
0000
0000
0100
0000
0010
0000
,
0100
0000
1000
0100
0010
0200
0000
1300
,
0001
0020
0000
0000
0130
0000
0020
0000
,
0031
0200
0000
0310
1000
0200
0000
0000
,
0310
0002
0000
0103
0100
0000
0010
0000
,
1000
0100
1000
0100
0010
0001
0100
0010
,
0100
0000
0010
0000
1000
0000
0100
0000
0000
0010
0000
0000
0200
0000
0000
0000
,
1300
0100
0010
0001
0100
0001
0040
0000
,
0000
0000
0000
0000
0130
1000
0001
0010
,
0011
0000
0001
0100
0000
0001
0100
0000
0010
0000
1000
0000
0100
0000
1000
0000
,
1100
0000
0100
0010
0000
0100
0010
0000
0001
1000
0001
0000
1000
0000
0001
0000
,
1001
0000
1000
0001
0000
1000
0100
0000
0010
0000
0100
0000
1000
0001
0000
0100
,
0010
0000
0100
0001
1000
0000
0100
0000
0010
0000
0100
0000
1000
0000
0100
0000
,
0010
0000
0001
0100
0000
0001
0100
0000
0010
0000
1000
0000
0001
0000
0100
0000
,
0101
0000
0001
0010
0000
0001
1000
0000
0001
0000
0100
0000
0010
0000
0100
0000
,
0110
0000
0010
1000
0000
0010
0100
0000
0001
0000
1000
0000
0100
0000
0010
0001
,
0010
0000
0100
1000
0100
0000
1000
0001
2000
0000
3020
0000
1030
0000
0100
0000
,
0020
0030
0001
0000
1000
0200
0000
0000
,
0300
1000
0100
0010
0100
0010
0001
0000
,
0100
0000
0010
0000
1000
0002
0000
0000
,
0000
0000
0003
0000
;

//---------------dance-single - ----------------
#NOTES:
     dance-single:
     :
     Beginner:
     1:
     0.064292,0.078671,0.000000,0.027695,0.000000,65.000000,65.000000,0.000000,4.000000,0.000000,0.000000,0.064292,0.078671,0.000000,0.027695,0.000000,65.000000,65.000000,0.000000,4.000000,0.000000,0.000000:
0000
0000
0000
0000
,
0000
0000
0000
0000
,
0000
0000
0000
0000
,
0000
0000
0000
0000
,
0000
0000
0000
0000
,
0000
0000
0000
0000
,
0000
0000
0000
0000
,
0000
0000
0000
0000
,
1000
0000
0000
0000
,
0010
0000
0000
0000
,
0100
0000
0000
0000
,
0001
0000
0000
0000
,
0010
0000
0000
0000
,
0100
0000
0000
0000
,
1000
0000
0000
0000
,
0001
0000
0000
0000
,
1000
0000
0000
0000
,
0000
0000
0000
0000
,
0100
0000
0000
0000
,
0000
0000
0000
0000
,
1000
0000
0000
0000
,
0001
0000
0000
0000
,
0100
0000
0002
0000
,
0000
0000
0003
0000
,
0010
0000
0000
0000
,
0100
0000
0000
0000
,
0010
0000
0000
0000
,
0001
0000
0000
0000
,
1000
0000
0000
0000
,
0010
0000
0000
0000
,
1000
0000
0001
0000
,
0000
0000
0000
0000
,
0010
0000
0000
0000
,
0100
0000
0000
0000
,
1000
0000
0000
0000
,
0100
0000
0000
0000
,
0010
0000
0000
0000
,
0001
0000
0000
0000
,
0200
0000
0000
0000
,
0320
0000
0000
0000
0030
0000
0000
00M0
,
0000
00M0
0000
1000
,
0000
0000
0000
0001
,
0000
0000
0000
0100
,
0000
0000
0000
0010
,
0000
0000
0000
0100
,
0000
0000
0000
0001
,
0000
0000
0000
0010
,
0000
0000
0000
0200
,
0000
0000
0300
0000
,
0010
0000
0000
0001
,
0000
0000
0000
0100
,
0000
0000
0000
0010
,
0000
0000
0000
1000
,
0000
0000
0000
0100
,
0000
0000
0000
1000
,
0000
0000
0000
0000
,
0000
0000
0000
0001
,
0000
0000
0000
1000
,
0000
0000
0000
0100
,
0000
0000
0000
0010
,
0000
0000
0000
0100
,
0000
0000
0000
1000
,
0000
0000
0000
0001
,
0000
0000
0000
0100
,
0000
0000
0000
0010
,
0000
0000
0000
1000
,
0000
0000
0000
0001
,
0000
0000
0000
0100
,
0000
0000
0000
0001
,
0000
0000
0000
0010
,
0000
0000
0000
0100
,
0000
0000
0000
1000
,
0000
0000
0000
0001
,
0000
0000
0000
0010
,
0000
0000
0000
0001
,
0000
0000
0000
1000
;

//---------------dance-single - ----------------
#NOTES:
     dance-single:
     :
     Easy:
     3:
     0.192875,0.236012,0.000000,0.041542,0.000000,195.000000,195.000000,0.000000,6.000000,0.000000,0.000000,0.192875,0.236012,0.000000,0.041542,0.000000,195.000000,195.000000,0.000000,6.000000,0.000000,0.000000:
0000
0000
0000
0000
,
0000
0000
0000
0000
,
0000
0000
0000
0000
,
0000
0000
0000
0000
,
0000
0000
0000
0000
,
0000
0000
0000
0000
,
0000
0000
0000
0000
,
0000
0000
0000
0000
,
0001
0000
1000
0000
,
0100
0000
0010
0000
,
0100
0000
1000
0000
,
0001
0000
0100
0000
,
0010
0000
0010
0000
,
0100
0000
0100
0000
,
0001
0010
0100
1000
,
0001
0000
0000
0000
,
1000
0000
0010
0000
,
0100
0000
0001
0000
,
0100
0000
0010
2000
,
3001
0000
0010
0000
,
0100
0000
0010
0000
,
0001
1000
0001
1000
,
0100
0010
0001
0100
,
0002
0000
0003
0000
,
0010
0000
0100
0000
,
0010
0000
0001
0000
,
1000
0000
0010
0000
,
1000
0000
0001
0000
,
0100
0000
0100
0000
,
0010
0000
0010
0000
,
1000
0000
0001
0010
,
0001
0000
1000
0010
,
0100
0000
0010
0000
,
1000
0000
0100
0000
,
0010
0001
0010
0000
,
0100
1000
0100
0000
,
1000
0000
0001
0000
,
0100
0010
0100
0000
,
0002
0000
0000
0000
,
2003
0000
0000
0000
3000
0000
0000
M000
,
0000
M000
0000
0001
,
0100
0001
0000
1000
,
0100
1000
0000
0010
,
0100
0010
0000
1000
,
1000
0001
0001
0010
,
0100
0010
0000
0100
,
1000
0001
0000
0100
,
0010
1000
0000
0100
,
0100
0100
0100
1000
,
0001
1000
0010
0100
,
0001
0010
0001
1000
,
0010
1000
0100
0010
,
0001
0010
0001
1000
,
0010
0100
0010
1000
,
0100
0010
0100
2000
,
0000
0000
0000
0000
,
0000
0000
3000
0001
,
0100
0010
1000
0000
,
0001
0000
1000
0100
,
0010
0100
1000
0010
,
0100
0000
0010
1000
,
0001
0100
0001
1000
,
0100
1000
0010
0100
,
0001
0100
0010
0100
,
0100
0100
0100
0010
,
1000
0100
0010
0001
,
0100
0001
1000
0001
,
0010
0100
0010
0001
,
1000
0010
1000
0100
,
0010
0100
0010
0001
,
0100
0001
1000
0100
,
1000
0010
0100
0010
,
0010
0010
0010
2000
,
0000
3010
0100
0001
,
0000
1000
0100
0010
,
0001
1000
0010
1000
;

//---------------dance-single - ----------------
#NOTES:
     dance-single:
     :
     Medium:
     6:
     0.347175,0.448744,0.117703,0.325415,0.000000,351.000000,334.000000,17.000000,47.000000,0.000000,0.000000,0.347175,0.448744,0.117703,0.325415,0.000000,351.000000,334.000000,17.000000,47.000000,0.000000,0.000000:
0000
0000
0000
0000
,
0000
0000
0000
0000
,
0000
0000
0000
0000
,
0000
0000
0000
0000
,
0000
0000
0000
0000
,
0000
0000
0000
0000
,
0000
0000
0000
0000
,
0000
0000
0000
0000
,
0001
0000
0010
0100
2000
0000
3000
0100
,
0010
0000
0001
0100
0020
0000
0030
1000
,
0001
0000
0100
0010
0200
0000
0300
0001
,
1000
0000
0100
1000
0002
0000
0003
0100
,
0010
1000
0010
1000
0001
0100
0001
0100
,
0001
0010
0100
1000
0100
0010
0001
1000
,
0010
0010
1000
1000
0001
0001
0100
0100
,
0010
0000
0000
0000
,
2000
0000
3100
0000
0010
0002
0000
0203
,
0000
0000
0300
0010
0100
0010
1000
0100
,
2000
0000
3100
0010
0001
1000
0000
1002
,
0000
0003
0010
0000
0001
0100
0040
0000
,
1030
0000
0100
0010
0100
0000
1000
0100
,
1000
0000
0001
1000
0001
0000
0010
0100
,
1000
0000
0010
0000
0100
0000
0001
2000
,
0000
0000
3000
0000
,
0001
0000
1001
0000
1000
0100
0000
2000
,
0000
3000
0010
0100
0000
0010
0000
1000
,
0100
0000
1100
0000
1000
0001
0000
0200
,
0000
0300
0010
0100
0000
0001
1000
0001
,
0010
0100
0010
0100
1000
0001
0000
0100
,
0000
0001
0010
0200
0000
0300
0010
0001
,
1000
0000
0001
0020
0000
0031
0000
1001
,
0000
0000
0000
1000
0001
0010
0100
1000
,
0010
0000
0100
0001
0000
1000
0100
2000
,
3001
0000
0100
0000
0001
0010
0001
0100
,
0010
0000
1000
0200
0300
1000
0001
0100
,
0000
0010
0010
0000
1000
0001
1000
0100
,
0000
1000
0010
0200
0300
0001
0100
0010
,
0000
0100
0001
0100
0001
1000
0100
2000
,
0000
0000
3020
0000
0000
0000
0000
0000
0000
0000
0000
0000
0000
0000
0000
0030
,
0200
0000
0300
0110
0000
0000
0000
MMMM
,
0000
MMMM
0000
0200
,
0310
2000
0000
3000
0100
0020
0000
0030
,
0001
2000
0000
3000
0100
0020
0000
0030
,
0100
2000
0000
3000
0001
0100
0010
0000
,
0010
0000
1000
0001
1000
0200
0000
0300
,
1000
0020
0000
0030
0100
0002
0000
0003
,
0100
0020
0000
0030
0100
0002
0000
0003
,
1000
0200
0000
0300
0010
0000
0011
0000
,
0110
1100
1001
0001
,
0100
0020
0000
0030
1000
0200
0000
0300
,
0010
0200
0000
0300
1000
2000
0000
3000
,
0010
0200
0000
0300
0001
1000
0100
0000
,
0100
0000
0010
0001
1000
0020
0000
0030
,
1000
0200
0000
0300
0010
0002
0000
0003
,
0010
0100
0010
0001
1000
0100
1000
0000
,
0010
0200
0000
0300
0001
0020
0000
0000
,
0030
0100
0010
0000
0000
0000
0001
0000
,
1001
0000
1000
0100
1000
0100
0000
0010
,
0001
0020
0000
0000
0031
0000
0100
0000
,
0010
0200
0000
0301
1000
0010
0000
0000
,
0100
0002
0000
0013
0010
0000
0100
0000
,
1000
0001
0100
0001
,
0010
0100
1000
0010
,
0100
0010
1000
0001
,
0001
0000
0001
0000
0010
0100
1000
0000
,
0101
0000
0100
0010
0100
0000
0001
0000
,
1001
0000
1000
0100
1000
0001
0100
0000
,
0110
0000
0010
1000
0100
0010
0001
0000
,
0011
0000
0001
0100
0010
0100
0001
0000
,
1100
0000
1000
0001
0100
0010
0000
1000
,
0100
0010
0000
0100
0110
0000
0010
0000
,
0011
0000
1000
0010
1000
0100
0010
0001
,
1000
0010
0100
0001
1000
0100
1000
0100
,
1000
0000
0001
0000
0100
0002
0000
0000
,
0003
0100
0010
0100
0001
0010
0001
0000
,
0010
0000
0100
0000
1000
0020
0000
0000
,
0000
0030
0000
0000
;
