#TITLE:Go Into The Groove;
#SUBTITLE:;
#ARTIST:Queen of Times;
#TITLETRANSLIT:;
#SUBTITLETRANSLIT:;
#ARTISTTRANSLIT:;
#CREDIT:;
#BANNER:[Combine Week] - Go Into The Groove (Euro Mix)-jacket.png;
#BACKGROUND:[Combine Week] - Go Into The Groove-bg.png;
#LYRICSPATH:[Combine Week] - Go Into The Groove (Euro Mix).lrc;
#CDTITLE:;
#MUSIC:[Combine Week] - Go Into The Groove.ogg;
#OFFSET:-0.625;
#SAMPLESTART:71.840;
#SAMPLELENGTH:12.000;
#SELECTABLE:YES;
#BPMS:0.000=138.200;
#STOPS:;
#BGCHANGES:;

//---------------dance-single - ----------------
#NOTES:
     dance-single:
     :
     Hard:
     5:
     0.360,0.445,0.428,0.105,0.033:
0000
0000
0000
0000
,
0000
0000
0000
0000
,
0000
0000
0000
0000
,
0000
0000
0000
0000
,
1000
0001
1000
1001
,
1000
0010
1000
1010
,
0010
0100
0010
0110
,
0100
0001
0100
0010
,
1000
0000
0000
0000
0001
0000
0000
0000
0200
0000
0000
0310
0000
0000
0000
0000
,
0000
0000
0000
0000
1000
0000
0000
0000
0200
0000
0000
0310
0000
0000
0000
0000
,
0000
0000
0000
0000
0001
0000
0000
0000
0200
0000
0000
0310
0000
0000
0000
0000
,
0000
0000
0000
0000
1000
0000
0000
0000
0200
0000
0000
0310
0000
0000
0000
0000
,
0000
0000
0000
0000
0001
0000
0000
0000
0020
0000
0000
0130
0000
0000
0000
0000
,
0000
0000
0000
0000
1000
0000
0000
0000
0020
0000
0000
0130
0000
0000
0000
0000
,
0000
0000
0000
0000
0001
0000
0000
0000
0020
0000
0000
0130
0000
0000
0000
0000
,
1000
0000
0001
0000
0000
1000
0001
0000
,
1000
0100
0010
0100
,
1000
0100
0001
0100
,
1100
0001
0101
1000
,
1010
0011
0101
1100
,
0001
0100
0010
0100
,
0001
0100
1000
0100
,
0101
1000
1100
1000
,
1010
0011
0101
1100
,
1001
1000
0001
0010
,
0200
0000
0000
0301
0000
0000
0001
0000
,
0100
1000
0010
1000
,
0001
0010
0100
1000
,
1000
0010
0100
0001
,
0020
0000
0000
1030
0000
0000
1000
0000
,
0010
0001
0100
0001
,
0010
0100
1000
1000
,
0001
0000
0100
0010
0000
1000
0010
0000
,
0100
0001
0010
0100
,
1000
0000
0001
0010
0000
0010
0100
0000
,
1000
0001
2001
3100
,
1000
0000
0001
0010
0000
0100
0010
0000
,
0001
0100
0010
1000
,
0100
0000
1000
0010
0000
0010
0100
0000
,
0001
0010
1100
0000
,
1001
0000
0000
0101
0000
0000
1001
0000
,
1010
1000
0100
0010
,
0011
0001
1000
0000
,
1001
0001
0100
0010
,
2010
3001
0101
0000
,
1001
0001
0100
0010
,
1010
1000
0001
0000
,
0001
0100
1000
0010
,
0001
1000
1001
0000
,
1000
0010
0100
0010
,
1000
0010
0001
0010
,
1010
0001
0011
0001
,
0110
1001
1100
1001
,
0001
0010
0100
0010
,
0001
0010
1000
0010
,
0011
1000
1010
1000
,
0110
1001
1100
1001
,
0011
0000
0000
1100
0000
0000
1001
0000
,
0110
0000
0001
1000
0001
0000
0000
0000
;

//---------------dance-single - ----------------
#NOTES:
     dance-single:
     :
     Challenge:
     5:
     0.343,0.334,0.228,0.114,0.033:
0000
0000
0000
0000
,
0000
0000
0000
0000
,
0000
0000
0000
0000
,
0000
0000
0000
0000
,
1000
0000
0100
0000
0010
0000
0001
1000
,
0001
0100
0010
1001
,
1000
0000
0100
0000
0010
0000
0001
1000
,
0001
0100
0010
1001
,
0000
0000
0001
0000
1000
0000
0001
0000
0200
0000
0000
0310
0000
0000
0000
0000
,
0000
0000
1000
0000
0001
0000
1000
0000
0200
0000
0000
0310
0000
0000
0000
0000
,
0000
0000
0001
0000
1000
0000
0001
0000
0200
0000
0000
0310
0000
0000
0000
0000
,
0000
0000
1000
0000
0001
0000
1000
0000
0200
0000
0000
0310
0000
0000
0000
0000
,
0000
0000
0001
0000
1000
0000
0001
0000
0200
0000
0000
0310
0000
0000
0000
0000
,
0000
0000
1000
0000
0001
0000
1000
0000
0200
0000
0000
0310
0000
0000
0000
0000
,
0000
0000
0001
0000
1000
0000
0001
0000
0200
0000
0000
0310
0000
0000
0000
0000
,
2000
0000
0000
0000
0000
0001
3001
0000
,
1000
0000
0100
0000
0001
0000
0100
1000
,
0000
1100
0000
1100
0000
1000
0000
0100
,
0000
0100
0000
0001
0000
0001
0000
0010
,
0000
0010
0000
1000
0000
0001
0000
0000
,
0001
0000
0100
0000
1000
0000
0100
0001
,
0000
0101
0000
0101
0000
0001
0000
0100
,
0000
0100
0000
1000
0000
1000
0000
0010
,
0000
0010
0000
0001
0000
1000
0000
0000
,
1001
0100
0010
1000
,
0001
0200
0000
0310
0000
0000
0010
0000
,
1000
0000
0100
0000
0001
0000
0100
1000
,
0000
0001
0000
0101
0000
1001
0000
0000
,
1000
0010
0001
0010
,
1000
0200
0000
0310
0000
0000
0010
0000
,
0001
0000
0100
0000
1000
0000
0100
0001
,
0000
1000
0000
1100
0000
1001
0000
0000
,
0001
0000
0100
0010
0000
1000
0100
0000
,
0020
0000
0000
1000
0000
0031
0000
0000
,
0001
0000
0100
0010
0000
1000
0010
0000
,
0100
0000
0001
1000
0001
0000
0000
0000
,
1000
0000
0010
0100
0000
0001
0010
0000
,
0200
0000
0000
0001
0000
1300
0000
0000
,
1000
0000
0010
0100
0000
0001
0100
0000
,
0010
0000
1000
0001
1000
0000
0000
0000
,
MMMM
0000
0000
MMMM
0000
0000
MMMM
0000
,
1000
0000
0100
0000
0011
0000
0000
0001
,
0000
0100
1010
0000
,
1000
0000
0100
0000
0001
0000
0010
0100
,
0000
0110
0000
1001
0000
0000
0000
0000
,
0001
0000
0100
0000
1010
0000
0000
1000
,
0000
0100
0011
0000
,
0001
0000
0100
0000
1000
0000
0010
0100
,
0000
0110
0000
1001
0000
0000
0000
0000
,
1000
0000
0100
0000
0010
0000
0100
1000
,
0000
1100
0000
1100
0000
1000
0000
0100
,
0000
0100
0000
0001
0000
0001
0000
0010
,
0000
0010
0000
1000
0000
0001
0000
0000
,
0001
0000
0100
0000
0010
0000
0100
0001
,
0000
0101
0000
0101
0000
0001
0000
0100
,
0000
0100
0000
1000
0000
1000
0000
0010
,
0000
0010
0000
0001
0000
1000
0000
0000
,
MMMM
0000
0000
MMMM
0000
0000
MMMM
0000
,
1001
0000
1000
0001
0100
0000
0000
0000
;

//---------------dance-single - ----------------
#NOTES:
     dance-single:
     :
     Medium:
     4:
     0.270,0.306,0.105,0.181,0.000:
0000
0000
0000
0000
,
0000
0000
0000
0000
,
0000
0000
0000
0000
,
0000
0000
0000
0000
,
1000
0100
1000
1000
,
0001
0100
0002
0003
,
1000
0010
1000
1000
,
0001
0010
0001
0001
,
1000
0000
0000
0000
0001
0000
0000
0000
0200
0000
0000
0300
0000
0000
0000
0000
,
0000
0000
0000
0000
0001
0000
0000
0000
2000
0000
0000
3000
0000
0000
0000
0000
,
0000
0000
0000
0000
0001
0000
0000
0000
0020
0000
0000
0030
0000
0000
0000
0000
,
0000
0000
0000
0000
0001
0000
0000
0000
2000
0000
0000
3000
0000
0000
0000
0000
,
0001
0000
0000
0000
1000
0000
0000
0000
0200
0000
0000
0300
0000
0000
0000
0000
,
0000
0000
0000
0000
1000
0000
0000
0000
0002
0000
0000
0003
0000
0000
0000
0000
,
0000
0000
0000
0000
1000
0000
0000
0000
0020
0000
0000
0030
0000
0000
0000
0000
,
1000
0000
0000
1000
0000
0000
2000
3000
0000
1001
0000
0000
,
1000
0000
0100
0000
1000
0000
0000
0001
,
0000
0100
0000
1000
0000
0100
0000
0001
,
0000
0100
0000
1000
0000
0100
0000
0010
,
0000
1000
0000
0001
0000
0010
0000
0000
,
0001
0000
0100
0000
0001
0000
0000
1000
,
0000
0100
0000
0001
0000
0100
0000
1000
,
0000
0100
0000
0010
0000
0001
0000
1000
,
0000
0010
0000
0100
0000
0001
0000
0000
,
0011
1000
0001
0000
,
0001
0000
0000
0001
0000
0000
0000
0000
,
1000
0000
0010
0000
0100
0000
0000
0001
,
0000
0100
0000
0010
0000
1000
0000
0000
,
0001
0100
0010
0000
,
1000
0000
0000
1000
0000
0000
0000
0000
,
0001
0000
0010
0000
0100
0000
0000
1000
,
0000
0100
0000
0010
0000
0001
0000
0000
,
1000
0000
0000
0010
0000
0000
0100
0000
,
0002
0000
2003
0000
,
3001
0000
0000
1000
0000
0000
0100
0000
,
2000
0000
3002
0000
,
1003
0000
0000
0100
0000
0000
0010
0000
,
0002
0000
2003
0000
,
3001
0000
0000
0100
0000
0000
0001
0000
,
1000
0001
1001
0000
,
0110
0000
0000
1100
0000
0000
0101
0000
,
1001
0000
1000
0000
0100
0000
0000
0001
,
0000
0100
1000
0000
,
0001
0000
0100
0000
0010
0000
0000
2000
,
0000
0000
0000
3001
0000
0000
0000
0000
,
1000
0000
0001
0000
0100
0000
0000
1000
,
0000
0100
0001
0000
,
0001
0000
0100
0000
0010
0000
0000
2000
,
0000
0000
0000
3001
0000
0000
0000
0000
,
1000
0000
0100
0000
0010
0000
0000
0100
,
0000
1000
0000
0100
0000
0001
0000
0100
,
0000
1000
0000
0100
0000
0010
0000
0001
,
0000
0100
0000
0001
0000
1000
0000
0000
,
0001
0000
0100
0000
0010
0000
0000
0100
,
0000
0001
0000
0100
0000
1000
0000
0100
,
0000
0001
0000
0100
0000
0010
0000
1000
,
0000
0100
0000
1000
0000
0001
0000
0000
,
0110
0000
0000
1100
0000
0000
0101
0000
,
2002
0000
3003
0000
;

//---------------dance-single - ----------------
#NOTES:
     dance-single:
     :
     Easy:
     2:
     0.170,0.250,0.048,0.162,0.000: // measure 1
0000
0000
0000
0000
,  // measure 2
0000
0000
0000
0000
,  // measure 3
0000
0000
0000
0000
,  // measure 4
0000
0000
0000
0000
,  // measure 5
1000
0000
1000
1001
,  // measure 6
0001
0000
0001
1001
,  // measure 7
1000
0000
1000
1001
,  // measure 8
0001
0000
0001
1000
,  // measure 9
0001
0000
0000
0000
,  // measure 10
1000
0000
0000
0000
,  // measure 11
0001
0000
0000
0000
,  // measure 12
1000
0000
0000
0000
,  // measure 13
0100
0000
0000
0000
,  // measure 14
0010
0000
0000
0000
,  // measure 15
0100
0000
0000
0000
,  // measure 16
0020
0000
0000
0030
,  // measure 17
0001
0000
1000
0000
,  // measure 18
0001
0000
0000
0000
,  // measure 19
1000
0000
0100
0000
,  // measure 20
0010
0000
0001
0000
,  // measure 21
1000
0000
0001
0000
,  // measure 22
1000
0000
0000
0000
,  // measure 23
0001
0000
0100
0000
,  // measure 24
0010
0000
1000
0000
,  // measure 25
0001
0000
0100
0000
,  // measure 26
0020
0000
0000
0030
0000
0000
0000
0000
,  // measure 27
1000
0000
0010
0000
,  // measure 28
0100
0000
0001
0001
,  // measure 29
1000
0000
0100
0000
,  // measure 30
0020
0000
0000
0030
0000
0000
0000
0000
,  // measure 31
0001
0000
0010
0000
,  // measure 32
0100
0000
1000
1000
,  // measure 33
0002
0000
0000
0000
,  // measure 34
2003
0000
3020
0000
,  // measure 35
0230
0000
0000
0000
,  // measure 36
0320
0000
2030
0000
,  // measure 37
3002
0000
0000
0000
,  // measure 38
2003
0000
3020
0000
,  // measure 39
0230
0000
0000
0302
,  // measure 40
2003
0000
3000
0000
,  // measure 41
0001
0000
0000
1000
0000
0000
0001
0000
,  // measure 42
1000
0000
0001
0000
,  // measure 43
0100
0000
0010
0000
,  // measure 44
0100
0000
0010
0000
,  // measure 45
1000
0001
1000
0000
,  // measure 46
1000
0000
1000
0000
,  // measure 47
0010
0000
0100
0000
,  // measure 48
0010
0000
0100
0000
,  // measure 49
0001
1000
1001
0000
,  // measure 50
1000
0000
1000
0000
,  // measure 51
0100
0000
0100
0000
,  // measure 52
0001
0000
0010
0000
,  // measure 53
1000
0000
0001
0000
,  // measure 54
1000
0000
1000
0000
,  // measure 55
0100
0000
0100
0000
,  // measure 56
0001
0000
0010
0000
,  // measure 57
1000
0000
0001
0000
,  // measure 58
1000
0000
0000
0001
0000
0000
1000
0000
,  // measure 59
2002
0000
3003
0000
;

//---------------dance-single - ----------------
#NOTES:
     dance-single:
     :
     Beginner:
     1:
     0.077,0.138,0.038,0.000,0.000:
0000
0000
0000
0000
,
0000
0000
0000
0000
,
0000
0000
0000
0000
,
0000
0000
0000
0000
,
1000
0000
0000
0000
,
0100
0000
0000
0000
,
0010
0000
0000
0000
,
0001
0000
0000
0000
,
1001
0000
0000
0000
,
1000
0000
0000
0000
,
0001
0000
0000
0000
,
1000
0000
0000
0000
,
0100
0000
0000
0000
,
0010
0000
0000
0000
,
0100
0000
0000
0000
,
0000
0000
0000
0000
,
1000
0000
0000
0000
,
0000
0000
0000
0000
,
0001
0000
0001
0000
,
0001
0000
0000
0000
,
0001
0000
0000
0000
,
0000
0000
0000
0000
,
1000
0000
1000
0000
,
1000
0000
0000
0000
,
1001
0000
0000
0000
,
0000
0000
0000
0000
,
1000
0000
0000
0000
,
0000
0000
0000
0000
,
0010
0000
0000
0000
,
0000
0000
0000
0000
,
0100
0000
0000
0000
,
0000
0000
0000
0000
,
0001
0000
0000
0000
,
1000
0000
1000
0000
,
0100
0000
0000
0000
,
0010
0000
0010
0000
,
0001
0000
0000
0000
,
1000
0000
1000
0000
,
0100
0000
0000
0000
,
0010
0010
0010
0000
,
0000
0000
0000
0000
,
1001
0000
0000
0000
,
0000
0000
0000
0000
,
0001
0000
0000
0000
,
1000
0000
1000
0000
,
0001
0000
0000
0000
,
0000
0000
0000
0000
,
1000
0000
0000
0000
,
0001
0000
0001
0000
,
1000
0000
0000
0000
,
0000
0000
0000
0000
,
0001
0000
1000
0000
,
0001
0000
0000
0000
,
0001
0000
0000
0000
,
0000
0000
0000
0000
,
0010
0000
0100
0000
,
0010
0000
0000
0000
,
0000
0000
0000
0000
,
0110
0000
0000
0000
;

//---------------dance-double - ----------------
#NOTES:
     dance-double:
     :
     Hard:
     5:
     0.370,0.445,0.438,0.114,0.033:
00000000
00000000
00000000
00000000
,
00000000
00000000
00000000
00000000
,
00000000
00000000
00000000
00000000
,
00000000
00000000
00000000
00000000
,
00010000
00000010
00001000
00001001
,
00000001
00000100
00001000
00010000
,
01000000
10000000
00010000
10010000
,
10000000
01000000
00010000
00001000
,
00011000
00000000
00000000
00000000
00010000
00000000
00000000
00000000
00000200
00000000
00000000
00000310
00000000
00000000
00000000
00000000
,
00000000
00000000
00000000
00000000
00000001
00000000
00000000
00000000
00000200
00000000
00000000
00000310
00000000
00000000
00000000
00000000
,
00000000
00000000
00000000
00000000
00001000
00000000
00000000
00000000
00000200
00000000
00000000
00000310
00000000
00000000
00000000
00000000
,
00000000
00000000
00000000
00000000
00000001
00000000
00000000
00000000
00000200
00000000
00000000
00001300
00000000
00000000
00000000
00000000
,
00100000
00000000
00000000
00000000
00010000
00000000
00000000
00000000
02000000
00000000
00000000
03100000
00000000
00000000
00000000
00000000
,
00000000
00000000
00000000
00000000
10000000
00000000
00000000
00000000
02000000
00000000
00000000
03100000
00000000
00000000
00000000
00000000
,
00000000
00000000
00000000
00000000
00010000
00000000
00000000
00000000
02000000
00000000
00000000
03100000
00000000
00000000
00000000
00000000
,
02000000
00000000
03002000
00000000
00013000
00001000
00001000
00000000
,
00010000
00001000
00000010
00001000
,
01000000
10000000
01000000
00010000
,
00110000
00001000
00010010
00001000
,
00001100
00000101
00000011
00001010
,
00001000
00010000
00100000
00010000
,
00000100
00000001
00000100
00001000
,
00101000
00010000
10100000
10000000
,
11000000
01010000
00110000
10100000
,
10010000
10000000
01000000
00010000
,
00002000
00000000
00000000
00003100
00000000
00000000
00000001
00000000
,
00000010
00001000
00010000
00100000
,
10000000
00010000
00100000
00021000
,
00030100
00000001
00000100
00010000
,
02000000
00000000
00000000
13000000
00000000
00000000
10000000
00000000
,
00100000
00010000
00001000
00000010
,
00000001
00001000
00000100
00010000
,
00011000
00000000
00100000
00010000
00000000
10000000
00100000
00000000
,
01000000
00010000
00001000
00000010
,
00000100
00000000
00000001
00000010
00000000
00000100
00000010
00000000
,
00000001
00000100
00001000
00010000
,
00100000
00000000
10000000
00100000
00000000
00010000
00001000
00000000
,
00000100
00000001
00000010
00000001
,
00000100
00000000
00001000
00010000
00000000
00000100
00001000
00000000
,
00000001
00000010
00001100
00000000
,
00011000
00000000
00000000
01010000
00000000
00000000
11000000
00000000
,
10010000
00010000
01000000
00100000
,
10100000
10000000
01000000
00010000
,
00011000
00010000
00000010
00000100
,
00000001
00001000
00001001
00000000
,
00000001
00000100
00001000
00100000
,
00110000
00010000
01000000
00001000
,
00011000
00010000
00000010
00000001
,
00000100
00001000
00000001
00000100
,
00000001
00000010
00000001
00000100
,
00001000
00010000
01000000
10000000
,
10100000
00010000
00110000
10000000
,
11000000
01010000
00110000
10100000
,
10010000
00100000
10000000
01000000
,
00010000
00001000
00011000
00010000
,
00010010
00001000
00001010
00001000
,
00001100
00000101
00000011
00001010
,
00011000
00000000
00000000
00001100
00000000
00000000
00000101
00000000
,
00001001
00000000
00000001
00001000
00010000
00000000
00000000
00000000
;

//---------------dance-double - ----------------
#NOTES:
     dance-double:
     :
     Challenge:
     6:
     0.370,0.390,0.295,0.143,0.033:
00000000
00000000
00000000
00000000
,
00000000
00000000
00000000
00000000
,
00000000
00000000
00000000
00000000
,
00000000
00000000
00000000
00000000
,
00010000
00000000
00000010
00000000
00000100
00000000
00000001
00001000
,
00000001
00000100
00001000
00011000
,
00010000
00000000
00001000
00000000
00100000
00000000
00010000
10000000
,
00010000
01000000
00100000
10010000
,
10000000
00000000
00010000
00000000
10000000
00000000
00010000
00000000
02000000
00000000
00000000
03100000
00000000
00000000
00000000
00000000
,
00000000
00000000
10000000
00000000
00010000
00000000
10000000
00000000
02000000
00000000
00000000
03100000
00000000
00000000
00000000
00000000
,
00000000
00000000
00010000
00000000
10000000
00000000
00010000
00000000
02000000
00000000
00000000
03100000
00000000
00000000
00000000
00000000
,
00000000
00000000
10000000
00000000
00010000
00000000
10000000
00000000
02000000
00000000
00000000
03100000
00000000
00000000
00001000
00000000
,
00010000
00000000
00000100
00000000
00001000
00000000
00000001
00000000
00000200
00000000
00000000
00000310
00000000
00000000
00000000
00000000
,
00000000
00000000
00001000
00000000
00000001
00000000
00001000
00000000
00000200
00000000
00000000
00000310
00000000
00000000
00000000
00000000
,
00000000
00000000
00000001
00000000
00001000
00000000
00000001
00000000
00000200
00000000
00000000
00000310
00000000
00000000
00000000
00000000
,
00020000
00000000
00002000
00000000
00033000
00010000
00001000
00000000
,
00010000
00000000
01000000
00000000
10000000
00000000
00001000
00010000
,
00000000
00011000
00000000
00011000
00000000
00010000
00000000
00000100
,
00000000
00000100
00000000
00000001
00000000
00000001
00000000
00000010
,
00000000
00000010
00000000
00010000
00000000
00001000
00000000
00000000
,
00001000
00000000
00000100
00000000
00000001
00000000
00010000
00001000
,
00000000
00011000
00000000
00011000
00000000
00001000
00000000
01000000
,
00000000
01000000
00000000
10000000
00000000
10000000
00000000
00100000
,
00000000
00100000
00000000
00001000
00000000
00010000
00000000
00000000
,
00011000
00000100
00001000
00000001
,
00000100
00000020
00000000
00001030
00000000
00000000
00001000
00000000
,
00000010
00000000
00000001
00000000
00000010
00000000
00010000
00001000
,
00000000
00010000
00000000
00100000
00000000
10010000
00000000
00000000
,
00011000
01000000
00100000
10000000
,
01000000
00200000
00000000
00310000
00000000
00000000
00010000
00000000
,
00100000
00000000
10000000
00000000
00100000
00000000
00001000
00010000
,
00000000
00001000
00000000
00000100
00000000
00001001
00000000
00000000
,
00000011
00000000
00000001
00000010
00000000
00000100
00001000
00000000
,
00000200
00000000
00000000
00000001
00000000
00001300
00000000
00000000
,
00001100
00000000
00010000
00001000
00000000
01000000
00010000
00000000
,
10000000
00000000
00010000
10000000
00010000
00000000
00000000
00000000
,
10010000
00000000
10000000
01000000
00000000
00100000
00010000
00000000
,
02000000
00000000
00000000
10000000
00000000
03010000
00000000
00000000
,
01010000
00000000
00001000
00010000
00000000
00000100
00001000
00000000
,
00000001
00000000
00001000
00000001
00001000
00000000
00000000
00000000
,
00001001
00000000
00000000
00011000
00000000
00000000
10010000
00000000
,
00110000
00000000
00010000
00000000
01000000
00000000
00000000
01010000
,
00000000
00010000
10000000
00000000
,
11000000
00000000
10000000
00000000
00100000
00000000
00020000
00000010
,
00000000
00001000
00000000
00030100
00000000
00000000
00000000
00000000
,
00001010
00000000
00001000
00000000
00000100
00000000
00000000
00001100
,
00000000
00001000
00000001
00000000
,
00000101
00000000
00000001
00000000
00000010
00000000
00002000
00100000
,
00000000
00010000
00000000
01003000
00000000
00000000
00000000
00000000
,
00001000
00000000
01000000
00000000
10000000
00000000
00010000
00001000
,
00000000
00011000
00000000
00011000
00000000
00010000
00000000
00000010
,
00000000
00000010
00000000
00000001
00000000
00000001
00000000
00000100
,
00000000
00000100
00000000
00001000
00000000
00000001
00000000
00000000
,
00010000
00000000
00000100
00000000
00000001
00000000
00001000
00010000
,
00000000
00011000
00000000
00011000
00000000
00001000
00000000
00100000
,
00000000
00100000
00000000
10000000
00000000
10000000
00000000
01000000
,
00000000
01000000
00000000
00010000
00000000
10000000
00000000
00000000
,
10010000
00000000
00000000
00011000
00000000
00000000
00001001
00000000
,
00001100
00000000
00000100
00010000
00001000
00000000
00000000
00000000
;

//---------------dance-double - ----------------
#NOTES:
     dance-double:
     :
     Medium:
     4:
     0.273,0.334,0.095,0.181,0.000:
00000000
00000000
00000000
00000000
,
00000000
00000000
00000000
00000000
,
00000000
00000000
00000000
00000000
,
00000000
00000000
00000000
00000000
,
10000000
00010000
10000000
10000000
,
01000000
00010000
00000200
00000300
,
00001000
00000001
00001000
00001000
,
00000100
00010000
00001000
00011000
,
00010000
00000000
00000000
00000000
01000000
00000000
00000000
00000000
20000000
00000000
00000000
30000000
00000000
00000000
00000000
00000000
,
00000000
00000000
00000000
00000000
01000000
00000000
00000000
00000000
00020000
00000000
00000000
00030000
00000000
00000000
00000000
00000000
,
00000000
00000000
00000000
00000000
00001000
00000000
00000000
00000000
00000200
00000000
00000000
00000300
00000000
00000000
00000000
00000000
,
00000000
00000000
00000000
00000000
00000001
00000000
00000000
00000000
00000200
00000000
00000000
00000300
00000000
00000000
00000000
00000000
,
00000000
00000000
00000000
00000000
00001000
00000000
00000000
00000000
00020000
00000000
00000000
00030000
00000000
00000000
00000000
00000000
,
00000000
00000000
00000000
00000000
01000000
00000000
00000000
00000000
20000000
00000000
00000000
30000000
00000000
00000000
00000000
00000000
,
00000000
00000000
00000000
00000000
01000000
00000000
00000000
00000000
00020000
00000000
00000000
00030000
00000000
00000000
00000000
00000000
,
00002000
00000000
00000000
00000000
00003000
00010000
00001000
00000000
,
00010000
01000000
10000000
00001000
,
00000100
00000001
00010000
00001000
,
00100000
00010000
01000000
00010000
,
00100000
01000000
00010000
00001000
,
00010000
01000000
10000000
00001000
,
00000100
00000001
00010000
00001000
,
00000010
00001000
01000000
00010000
,
00100000
00001000
00000100
00000001
,
00001001
00000001
00000100
00000000
,
00000001
00000000
00000000
00000001
00000000
00000000
00000000
00000000
,
00000100
00000000
00001000
00000000
00010000
00000000
00000000
00010000
,
00000000
00001000
00000000
01000000
00000000
00010000
00000000
00000000
,
00010000
10000000
01000000
00000000
,
10000000
00000000
00000000
10000000
00000000
00000000
00000000
00000000
,
01000000
00000000
00010000
00000000
00001000
00000000
00000000
00010000
,
00000000
00000100
00000000
00001000
00000000
00000001
00000000
00000000
,
00001001
00000000
00000000
00000001
00000000
00000000
00000100
00000000
,
00002000
00000000
00203000
00000000
,
01300000
00000000
00000000
10000000
00000000
00000000
01000000
00000000
,
00200000
00000000
00302000
00000000
,
00013000
00000000
00000000
00000010
00000000
00000000
00000100
00000000
,
00002000
00000000
00203000
00000000
,
01300000
00000000
00000000
10000000
00000000
00000000
01000000
00000000
,
00020000
00000000
00002000
00033000
,
00011000
00000000
00000000
00001100
00000000
00000000
00000101
00000000
,
00001000
00000000
00000100
00000000
00000010
00000000
00000000
00000001
,
00000000
00000100
00001000
00000000
,
00010000
00000000
00001000
00000000
00100000
00000000
00000000
00100000
,
00000000
01000000
00000000
10000000
00000000
00000000
00000000
00000000
,
00010000
00000000
01000000
00000000
00100000
00000000
00000000
10000000
,
00000000
01000000
00010000
00000000
,
00001000
00000000
00010000
00000000
00000010
00000000
00000000
00001000
,
00000000
00000010
00000000
00010000
00000000
00000000
00000000
00000000
,
00010000
00100000
10000000
00001000
,
00000010
00000001
00000100
00001000
,
00010000
00001000
00000010
00001000
,
00100000
00010000
01000000
00100000
,
00010000
00100000
10000000
00001000
,
00000010
00000001
00000100
00001000
,
00010000
00001000
00000010
00001000
,
00100000
00010000
01000000
00100000
,
10100000
00000000
00000000
01010000
00000000
00000000
00011000
00000000
,
00022000
00000000
00033000
00000000
;

//---------------dance-double - ----------------
#NOTES:
     dance-double:
     :
     Easy:
     3:
     0.197,0.278,0.067,0.133,0.000:
00000000
00000000
00000000
00000000
,
00000000
00000000
00000000
00000000
,
00000000
00000000
00000000
00000000
,
00000000
00000000
00000000
00000000
,
10000000
00000000
10000000
10010000
,
00010000
00000000
00010000
00100000
,
00001000
00000000
00001000
00011000
,
00010000
00000000
00000100
00001000
,
00000001
00000000
00000100
00000000
,
00001000
00000000
00000100
00000000
,
00000001
00000000
00000100
00000000
,
00001000
00000000
00010000
00001000
,
00010000
00000000
01000000
00000000
,
10000000
00000000
01000000
00000000
,
00010000
00000000
01000000
00000000
,
10000000
00000000
00000000
00010000
,
10010000
00000000
10000000
00000000
,
00100000
01000000
00001000
00000000
,
00010000
00000000
00000100
00000000
,
00000010
00000001
00001000
00000000
,
00000001
00000000
00001000
00000000
,
00000010
00000100
00001000
00000000
,
00010000
00000000
00001000
00000000
,
00100000
00010000
10000000
00000000
,
10010000
00000000
10000000
00000000
,
01000000
00000000
00000000
00000000
,
00010000
00000000
00010000
00000000
,
00001000
00000000
00000000
00000000
,
00000100
00000000
00000100
00000000
,
00000001
00000000
00000000
00000000
,
00000001
00000000
00000010
00000000
,
00001000
00000000
00000000
00000000
,
00012000
00000000
00000000
00000000
,
00203000
00000000
00320000
00000000
,
02030000
00000000
00000000
00000000
,
23000000
00000000
32000000
00000000
,
03002000
00000000
00000000
00000000
,
00023000
00000000
00030020
00000000
,
00000230
00000000
00000000
00000302
,
00000203
00001000
00000310
00010000
,
00001000
00000000
00000000
00010000
00000000
00000000
00001000
00000000
,
00100000
00010000
10000000
00000000
,
01000000
00000000
00010000
00000000
,
00000010
00001000
00000001
00000000
,
00000100
00000000
00001000
00000000
,
00100000
00010000
10000000
00000000
,
01000000
00000000
00100000
00000000
,
00000010
00001000
00000001
00000000
,
00000100
00000000
00000010
00000000
,
00011000
00000000
00010000
00000000
,
01000000
10000000
00010000
00000000
,
00100000
00000000
00001000
00000000
,
00010000
00000100
00000001
00000000
,
00000100
00000000
00010000
00000000
,
00001000
00010000
01000000
00000000
,
10000000
00000000
00100000
00000000
,
00010000
00001000
00000010
00001000
,
00010000
00000000
00000000
00001000
00000000
00000000
00010000
00000000
,
00022000
00000000
00033000
00000000
;
