#VERSION:0.83;
#TITLE:Genji v. Hanzo;
#SUBTITLE:(Overwatch Dubstep Rap);
#ARTIST:None Like Joshua & Nemraps;
#TITLETRANSLIT:;
#SUBTITLETRANSLIT:;
#ARTISTTRANSLIT:;
#GENRE:;
#ORIGIN:;
#CREDIT:;
#BANNER:[Combine Week] - Genji v. Hanzo (Overwatch Dubstep Rap).png;
#BACKGROUND:[Combine Week] - Genji v. Hanzo (Overwatch Dubstep Rap)-bg.png;
#PREVIEWVID:;
#JACKET:[Combine Week] - Genji v. Hanzo (Overwatch Dubstep Rap)-jacket.png;
#CDIMAGE:;
#DISCIMAGE:;
#LYRICSPATH:;
#CDTITLE:;
#MUSIC:[Combine Week] - Genji v. Hanzo (Overwatch Dubstep Rap).ogg;
#OFFSET:-0.900000;
#SAMPLESTART:72.904999;
#SAMPLELENGTH:13.800000;
#SELECTABLE:YES;
#DISPLAYBPM:35.000000:140.000000;
#BPMS:0.000=140.000,
16.000=280.000,
17.000=140.000,
131.000=35.000,
132.000=140.000,
142.000=280.000,
143.000=140.000,
143.500=70.000,
144.000=280.000,
146.500=140.000,
146.750=70.000,
147.000=140.000,
158.000=280.000,
159.000=140.000,
159.500=70.000,
160.000=280.000,
162.500=140.000,
162.750=70.000,
163.000=140.000,
196.000=280.000,
199.000=140.000,
199.500=70.000,
200.000=140.000,
236.500=70.000,
237.000=280.000,
238.000=140.000,
260.000=35.000;
#STOPS:16.000=0.054,
16.250=0.054,
16.500=0.054,
16.750=0.482,
144.000=0.054,
144.250=0.054,
144.500=0.054,
144.750=0.054,
145.000=0.054,
145.250=0.054,
145.500=0.054,
145.750=0.054,
160.000=0.054,
160.250=0.054,
160.500=0.054,
160.750=0.054,
161.000=0.054,
161.250=0.054,
161.500=0.054,
161.750=0.054,
196.000=0.071,
196.333=0.071,
196.667=0.071,
197.000=0.071,
197.333=0.071,
197.667=0.071;
#DELAYS:;
#WARPS:;
#TIMESIGNATURES:0.000=4=4;
#TICKCOUNTS:0.000=4;
#COMBOS:0.000=1;
#SPEEDS:0.000=1.000=0.000=0,
205.000=2.000=0.330=0,
205.333=1.000=0.670=0,
232.000=2.000=1.000=0,
233.000=1.000=1.000=0;
#SCROLLS:0.000=0.000,
1.000=0.300,
1.500=0.600,
2.000=0.900,
2.500=1.200,
3.000=1.500,
4.000=1.000,
131.250=2.000,
131.375=4.000,
131.500=6.000,
131.625=8.000,
131.750=10.000,
131.875=12.000,
132.000=1.000,
134.000=3.000,
134.500=2.500,
135.000=2.000,
135.500=1.500,
136.000=1.000,
150.000=3.000,
150.500=2.500,
151.000=2.000,
151.500=1.500,
152.000=1.000,
200.500=2.000,
200.750=3.000,
201.000=4.000,
201.250=3.000,
201.500=2.000,
201.750=1.000,
226.000=0.000,
227.500=2.000,
228.000=1.000;
#FAKES:;
#LABELS:0.000=Song Start;
#LASTSECONDHINT:127.762619;
#BGCHANGES:;
#KEYSOUNDS:;
#ATTACKS: TIME=57.04:LEN=1.20:MODS=Stealth: TIME=93.48:LEN=0.44:MODS=Flip: TIME=96.05:LEN=0.44:MODS=Confusion: TIME=102.05:LEN=0.44:MODS=Stealth: TIME=109.76:LEN=0.44:MODS=Confusion;

//---------------dance-single - ----------------
#NOTEDATA:;
#CHARTNAME:;
#STEPSTYPE:dance-single;
#DESCRIPTION:;
#CHARTSTYLE:;
#DIFFICULTY:Beginner;
#METER:2;
#RADARVALUES:0.171192,0.205652,0.139163,0.069581,0.003866,155.000000,137.000000,18.000000,9.000000,23.000000,0.000000,0.000000,0.000000,0.000000,0.171192,0.205652,0.139163,0.069581,0.003866,155.000000,137.000000,18.000000,9.000000,23.000000,0.000000,0.000000,0.000000,0.000000;
#CREDIT:;
#ATTACKS:TIME=57.04:LEN=1.20:MODS=Stealth:TIME=93.48:LEN=0.44:MODS=Flip:TIME=96.05:LEN=0.44:MODS=Confusion:TIME=102.05:LEN=0.44:MODS=Stealth:TIME=109.76:LEN=0.44:MODS=Confusion:TIME=57.04:LEN=1.20:MODS=Stealth:TIME=93.48:LEN=0.44:MODS=Flip:TIME=96.05:LEN=0.44:MODS=Confusion:TIME=102.05:LEN=0.44:MODS=Stealth:TIME=109.76:LEN=0.44:MODS=Confusion:TIME=57.04:LEN=1.20:MODS=Stealth:TIME=93.48:LEN=0.44:MODS=Flip:TIME=96.05:LEN=0.44:MODS=Confusion:TIME=102.05:LEN=0.44:MODS=Stealth:TIME=109.76:LEN=0.44:MODS=Confusion:TIME=57.04:LEN=1.20:MODS=Stealth:TIME=93.48:LEN=0.44:MODS=Flip:TIME=96.05:LEN=0.44:MODS=Confusion:TIME=102.05:LEN=0.44:MODS=Stealth:TIME=109.76:LEN=0.44:MODS=Confusion:TIME=57.040001:LEN=1.200000:MODS=Stealth:TIME=93.480003:LEN=0.440000:MODS=Flip:TIME=96.050003:LEN=0.440000:MODS=Confusion:TIME=102.050003:LEN=0.440000:MODS=Stealth;
#DISPLAYBPM:140.000000;
#NOTES:
0000
0000
0000
0000
,
1000
0000
1000
0000
,
0001
0000
0001
0000
,
0100
0000
0100
0000
,
M010
0000
0000
000M
1001
0000
0000
0000
0000
0000
0000
0000
0001
0000
0000
0000
,
0000
0100
0000
0010
,
0000
1000
0000
1000
,
0000
0100
0000
0010
,
0000
0001
0000
0100
,
0000
0100
0000
0010
,
0000
0010
0000
1000
,
0000
0001
0000
0010
,
0000
0100
0000
1000
,
0000
1000
0000
0001
,
0000
0001
0000
0100
,
0000
0010
0000
1000
,
0000
0001
0000
0100
,
0100
0100
0000
0010
,
0010
0010
0000
1000
,
1000
1000
0000
0001
,
0001
0001
0000
0200
,
0000
0301
0000
0020
,
0000
0130
0000
2000
,
0000
3010
0000
1000
,
0000
0001
0001
0001
,
0000
1001
0000
1000
,
0000
1001
0000
0100
,
0000
0110
0000
0010
,
0000
0110
0000
0001
,
0000
0010
0000
1000
,
0000
0010
0000
0001
,
0000
0100
0000
0010
,
0000
1000
0000
1M01
,
10M1
0000
0000
0000
0M20
0000
0000
0030
,
1001
0000
0100
0000
,
0010
0000
1M01
0000
,
10M0
0000
0M01
0000
,
0010
0000
0000
0000
020M
0000
0000
0300
,
1001
0000
0010
0000
,
0100
0000
M110
0000
,
00M1
0000
1M00
0000
,
1000
0000
0010
0000
,
0100
0000
0100
0000
,
0001
0000
0100
0000
,
0010
0000
0010
0000
,
0100
0000
0001
0000
,
1000
0000
1000
0000
,
0010
0000
1000
0000
,
0001
0000
0001
0000
,
10M0
0000
1M01
0000
,
00M1
0000
0010
0000
,
0100
M000
1001
0000
,
0000
0100
0010
0000
,
1M00
0000
0001
0000
,
1000
0000
20M2
3003
,
1001
0000
0010
0000
,
1000
0000
0001
0M00
,
0000
0000
0010
0000
,
M010
0000
0100
0000
,
0100
000M
0000
0000
1000
0000
0000
0000
,
0010
0000
0100
0000
,
0100
0000
1001
0000
,
0010
0000
20M2
3003
,
1001
0000
0001
0000
,
0010
0000
0100
0000
,
100M
0000
0001
0000
,
0100
0000
0010
0000
;

//---------------dance-single - ----------------
#NOTEDATA:;
#CHARTNAME:;
#STEPSTYPE:dance-single;
#DESCRIPTION:;
#CHARTSTYLE:;
#DIFFICULTY:Hard;
#METER:11;
#RADARVALUES:0.688082,0.699293,0.255132,0.208744,0.719007,623.000000,590.000000,33.000000,27.000000,23.000000,0.000000,0.000000,0.000000,0.000000,0.688082,0.699293,0.255132,0.208744,0.719007,623.000000,590.000000,33.000000,27.000000,23.000000,0.000000,0.000000,0.000000,0.000000;
#CREDIT:;
#ATTACKS:TIME=57.04:LEN=1.20:MODS=Stealth:TIME=93.48:LEN=0.44:MODS=Flip:TIME=96.05:LEN=0.44:MODS=Confusion:TIME=102.05:LEN=0.44:MODS=Stealth:TIME=109.76:LEN=0.44:MODS=Confusion:TIME=57.040001:LEN=1.200000:MODS=Stealth:TIME=93.480003:LEN=0.440000:MODS=Flip:TIME=96.050003:LEN=0.440000:MODS=Confusion:TIME=102.050003:LEN=0.440000:MODS=Stealth:TIME=109.760002:LEN=0.440000:MODS=Confusion:TIME=57.040001:LEN=1.200000:MODS=Stealth:TIME=93.480003:LEN=0.440000:MODS=Flip:TIME=96.050003:LEN=0.440000:MODS=Confusion:TIME=102.050003:LEN=0.440000:MODS=Stealth:TIME=109.760002:LEN=0.440000:MODS=Confusion;
#DISPLAYBPM:35.000000:140.000000;
#NOTES:
0000
0000
0000
0000
,
0001
0000
0010
0000
0100
0000
1000
0001
0010
0100
1000
0000
0001
0000
0000
0001
,
1000
0010
0100
0000
0001
0000
0001
1000
0010
0100
0001
1000
0100
0000
1000
0000
,
0001
0010
0001
1000
0010
0000
1000
0000
0100
0000
1000
0001
0100
0000
0010
0000
,
1M00
0001
1000
0M01
0010
0100
1000
0001
0010
0000
0001
0000
1000
0010
1000
0010
,
0100
0001
0100
0001
0010
0000
0001
0100
0010
0000
0000
0000
0001
0010
0001
0010
,
1000
0100
1000
0100
0010
0000
0001
0100
0010
0000
1000
0100
0010
0000
0001
0100
,
0010
1000
0000
1000
0000
0010
0100
0001
1000
0000
0000
1000
0100
1000
0010
0100
,
0001
0000
0001
0100
0001
0010
0100
1000
0001
0000
0000
0000
0001
0100
0001
1000
,
0010
0000
0000
0000
1000
0100
1000
0001
0010
0000
0000
0000
0001
0010
0001
1000
,
0010
0000
0010
1000
0000
1000
0001
0010
0100
0000
0000
1000
0001
0000
0001
0000
,
0010
0000
0010
0100
1000
0000
1000
0010
0000
0000
0000
0010
0100
0000
1000
0100
,
0001
0000
1000
0001
0010
0000
1000
0010
0001
0000
0000
0000
0100
0000
0100
0000
,
0010
0000
0010
1000
0001
0000
0001
0000
1000
0000
1000
0000
0100
0000
0010
0001
,
0000
1000
0010
0000
0100
0000
0010
0000
1001
0000
1000
0000
0100
1000
0000
0010
,
0000
0100
0001
0000
0100
0000
0001
0010
0000
0100
0000
1000
0001
0000
0100
0001
,
1000
0100
0010
0000
0001
0000
1000
0000
0020
0000
0000
0000
0000
0000
1030
0100
,
0010
0001
1000
0010
0100
0000
0001
0000
1001
0000
0000
1000
0001
0100
0010
0000
,
1000
0000
0100
0010
0001
0000
1000
0000
1001
0000
0000
1000
0010
0000
0001
0000
,
0010
0000
0000
0100
0001
1000
0100
0010
0001
1000
0010
0100
0001
0000
1000
0100
,
0000
0100
0010
0000
0001
0000
1000
0000
0110
0000
0000
0000
1000
0000
0100
1000
,
0000
1000
0000
0000
0001
0100
0010
1000
0001
0010
0100
1000
0001
0000
0001
0010
,
0000
0010
0100
0000
1000
0100
0010
0001
1000
0010
0100
0001
1000
0000
1000
0010
,
0000
0010
0100
0000
0001
0100
1000
0100
0010
1000
0001
0010
0100
0000
0000
0100
,
0000
0100
0010
0001
0100
0000
0010
0100
0000
0010
1000
0000
0001
0000
0010
0100
,
0000
0010
0001
1000
0001
0000
0100
0010
0000
0100
0001
0000
0000
0000
1000
0000
,
0010
0000
0100
0010
1000
0000
0100
0010
0000
0100
1000
0000
0000
0000
0100
0000
,
1000
0000
0001
1000
0010
0000
0100
0010
0000
1000
0001
0000
0100
0000
0100
0001
,
1000
0000
0000
0000
0000
0000
1000
0000
0000
0001
0000
0000
0100
0000
0000
0000
0000
0000
0010
0000
0000
0100
0000
0000
0000
0000
0000
0001
0000
0000
1000
0000
0000
0000
0000
0000
0000
0000
0000
0000
0100
0000
0000
0000
1000
0000
0000
0000
,
0010
0100
0001
0010
0100
1000
0010
0000
0010
0000
0000
0000
,
0001
0010
0100
0001
1000
0100
0010
0000
0100
0000
0000
0000
,
0000
0100
1000
0000
0010
0000
0100
0001
0010
0000
0100
0000
0110
0000
0000
0000
,
0000
0000
0001
0000
1000
0000
0010
0100
0001
0000
1000
0000
1M01
0000
0000
0000
,
10M1
0001
0010
0100
220M
0000
0000
0300
,
3001
0100
0010
1000
1010
0010
0100
0001
,
0010
0100
1000
0001
M202
0000
0000
0303
,
00M1
1000
0001
1000
0001
1000
0001
1000
0M02
0000
0000
0000
0013
0000
0100
1000
,
0010
1000
0001
0100
02M2
0000
0000
0300
,
1003
0100
0010
0001
0011
0010
0100
1000
,
0001
0001
0100
0010
M022
0000
0000
0033
,
001M
0100
0010
0100
0010
0100
0010
0100
M020
0000
0000
0000
1030
0000
0100
0010
,
0001
0000
0000
0000
0001
0000
0100
0010
0100
0000
0010
0000
1000
0000
0001
0000
,
1001
0000
0001
0000
0010
0000
0100
0000
1001
0000
1000
0000
0100
1000
0010
0100
,
0001
0010
0100
0100
1000
0010
0100
0001
,
1000
0000
0010
0000
1000
0000
0001
0000
0010
0000
0001
0000
1001
0000
0000
0001
0000
0000
0200
0000
0000
0320
0000
0000
,
1030
0000
0001
0000
0001
0000
0010
0000
0110
0000
0100
0010
0100
0000
1000
0001
,
1000
0000
0000
0010
0000
0000
0100
0000
0000
0010
0000
0000
1000
0000
0001
0000
1000
0000
0001
0000
0000
0000
0000
0000
,
0011
0000
0100
1000
1100
1000
0010
1010
,
0010
0000
0100
0000
0001
0000
0101
0000
0001
0010
0100
1000
0010
0100
0001
0000
,
10M0
0001
1000
0001
1000
0001
2M00
0000
0000
0000
0000
0000
,
32M0
0000
0000
0000
0310
0000
0001
0100
,
0001
1M01
2000
0000
,
3000
0100
0010
0000
0110
0000
0002
2003
,
3M10
0000
0100
0000
1002
0000
0000
0013
,
0000
0010
0001
1000
20M2
0000
0000
3003
,
1001
0000
0000
0000
0100
0000
1000
0000
0010
0000
0000
0000
0000
0000
1000
0001
,
0100
0010
0100
0001
1000
0000
00M0
0000
,
1001
0000
0000
0000
1000
0000
0100
0010
0100
0000
0010
0000
0001
0000
1000
0000
,
20M2
0000
0000
3003
1001
1000
0100
0010
,
0001
10M0
0000
0000
1001
0000
1000
0100
,
0010
0000
0001
0000
0100
0000
1000
0000
0100
0000
0001
0000
1000
0000
0100
0000
0010
0000
2000
0000
0000
3002
0000
0000
,
0103
0000
1000
0000
0010
0000
0100
0000
0001
0000
1000
0001
0100
0000
0001
0000
,
0010
0100
1000
0001
10M1
0000
0110
0000
,
1001
0000
0000
0000
0001
0000
0100
0000
0010
1000
0010
1000
0010
0100
0001
0000
,
1000
0000
0100
0010
0001
0000
1000
0000
0010
0100
0001
1000
0100
0010
0001
0000
,
1M00
0000
0000
0000
1000
0000
0000
0000
0000
0000
0000
0000
0100
0000
0010
0001
0100
0000
0000
0000
0100
0000
0000
0000
0000
0000
0001
0000
1000
0000
0010
0100
,
0001
0000
0000
0000
0001
0000
0000
0000
0000
0000
1000
0001
0010
0000
0010
0001
1000
0010
1000
0000
0000
0000
0000
0000
0000
0000
0000
0000
0020
0000
0230
0000
,
0300
0000
0000
0000
;

//---------------dance-single - ----------------
#NOTEDATA:;
#CHARTNAME:;
#STEPSTYPE:dance-single;
#DESCRIPTION:;
#CHARTSTYLE:;
#DIFFICULTY:Easy;
#METER:4;
#RADARVALUES:0.272803,0.284365,0.108238,0.100506,0.003866,247.000000,233.000000,14.000000,13.000000,23.000000,0.000000,0.000000,0.000000,0.000000,0.272803,0.284365,0.108238,0.100506,0.003866,247.000000,233.000000,14.000000,13.000000,23.000000,0.000000,0.000000,0.000000,0.000000;
#CREDIT:;
#ATTACKS:TIME=57.040001:LEN=1.200000:MODS=Stealth:TIME=93.480003:LEN=0.440000:MODS=Flip:TIME=96.050003:LEN=0.440000:MODS=Confusion:TIME=102.050003:LEN=0.440000:MODS=Stealth:TIME=109.760002:LEN=0.440000:MODS=Confusion:TIME=57.040001:LEN=1.200000:MODS=Stealth:TIME=93.480003:LEN=0.440000:MODS=Flip:TIME=96.050003:LEN=0.440000:MODS=Confusion:TIME=102.050003:LEN=0.440000:MODS=Stealth:TIME=109.760002:LEN=0.440000:MODS=Confusion;
#DISPLAYBPM:35.000000:140.000000;
#NOTES:
// measure 0
0000
0000
0000
0000
,  // measure 1
1000
0100
1000
0010
,  // measure 2
0100
0001
0100
0010
,  // measure 3
0001
0010
0100
0001
,  // measure 4
10M1
0000
0000
0M00
1000
0000
0000
0000
0100
0000
0000
0000
0010
0000
0000
0000
,  // measure 5
0001
1000
1000
0100
,  // measure 6
1000
0001
0001
0100
,  // measure 7
0001
0010
0010
1000
,  // measure 8
0010
0100
0100
1000
,  // measure 9
0010
0100
0001
1000
,  // measure 10
0100
0010
0001
1000
,  // measure 11
1000
0001
0001
0100
,  // measure 12
0100
0010
0010
0001
,  // measure 13
0010
1000
0100
0001
,  // measure 14
0100
1000
0010
0100
,  // measure 15
0100
0010
0010
1000
,  // measure 16
1000
0001
0001
0000
,  // measure 17
1000
0100
0010
0001
,  // measure 18
0001
0100
0010
0100
,  // measure 19
0100
0001
1000
0010
,  // measure 20
0010
1000
0001
0010
,  // measure 21
0100
1000
1000
1000
,  // measure 22
0010
0001
0001
0001
,  // measure 23
0010
0100
0100
0100
,  // measure 24
0001
0010
0100
1000
,  // measure 25
0010
0010
0100
0000
,  // measure 26
0001
0010
0100
0000
,  // measure 27
1000
0100
0010
0001
,  // measure 28
0001
0100
0010
0000
,  // measure 29
0001
0010
0100
0000
,  // measure 30
0100
0010
1000
0000
,  // measure 31
0001
0010
0100
0000
,  // measure 32
1000
0010
0100
10M1
,  // measure 33
1M01
0000
0001
0000
M020
0000
0000
0030
,  // measure 34
0100
1000
0010
0100
,  // measure 35
0001
1000
02M0
0000
,  // measure 36
031M
0000
M010
0001
,  // measure 37
1001
0000
1000
0000
002M
0000
0000
0030
,  // measure 38
0100
0001
0010
1000
,  // measure 39
0010
0001
2M00
0000
,  // measure 40
30M1
0000
0M01
0010
,  // measure 41
0001
0100
0010
0010
,  // measure 42
1000
0100
0010
0010
,  // measure 43
0001
0010
0100
0100
,  // measure 44
1000
0010
0100
0100
,  // measure 45
0001
0001
0001
1000
,  // measure 46
0100
0100
0100
0110
,  // measure 47
1001
1000
0010
0001
,  // measure 48
1000
0100
0001
0000
,  // measure 49
10M1
0000
1M01
0000
,  // measure 50
M200
0000
0310
0000
,  // measure 51
1000
0M01
2002
0000
,  // measure 52
0003
3100
0010
0001
,  // measure 53
10M0
0000
0002
0000
,  // measure 54
0000
0103
M220
0330
,  // measure 55
2001
0000
3010
0000
,  // measure 56
0100
0001
10M0
0000
,  // measure 57
0001
0010
0100
0100
,  // measure 58
100M
0000
0100
0100
,  // measure 59
0010
M000
0000
0000
1001
0000
1000
0000
,  // measure 60
0001
0100
0010
1000
,  // measure 61
0001
0001
0001
0010
,  // measure 62
0100
0100
022M
0330
,  // measure 63
1001
0000
0010
1000
,  // measure 64
0001
0010
0100
1000
,  // measure 65
0M01
0000
0000
0010
0100
0000
0000
1000
,  // measure 66
0010
0000
0000
0100
0001
0000
0000
1000
;

//---------------dance-single - ----------------
#NOTEDATA:;
#CHARTNAME:;
#STEPSTYPE:dance-single;
#DESCRIPTION:;
#CHARTSTYLE:;
#DIFFICULTY:Medium;
#METER:7;
#RADARVALUES:0.467189,0.517511,0.131431,0.092775,0.077313,423.000000,406.000000,17.000000,12.000000,23.000000,0.000000,0.000000,0.000000,0.000000,0.467189,0.517511,0.131431,0.092775,0.077313,423.000000,406.000000,17.000000,12.000000,23.000000,0.000000,0.000000,0.000000,0.000000;
#CREDIT:;
#ATTACKS:TIME=57.040001:LEN=1.200000:MODS=Stealth:TIME=93.480003:LEN=0.440000:MODS=Flip:TIME=96.050003:LEN=0.440000:MODS=Confusion:TIME=102.050003:LEN=0.440000:MODS=Stealth:TIME=109.760002:LEN=0.440000:MODS=Confusion:TIME=57.040001:LEN=1.200000:MODS=Stealth:TIME=93.480003:LEN=0.440000:MODS=Flip:TIME=96.050003:LEN=0.440000:MODS=Confusion:TIME=102.050003:LEN=0.440000:MODS=Stealth:TIME=109.760002:LEN=0.440000:MODS=Confusion;
#DISPLAYBPM:35.000000:140.000000;
#NOTES:
0000
0000
0000
0000
,
1000
0100
1000
0010
0100
0001
0010
0000
,
0001
0100
0001
0010
0100
1000
0010
0100
,
0001
0001
0100
0100
0010
0010
1000
1000
,
10M1
0000
0000
0M00
0001
0000
1000
0000
0010
0000
0000
0000
0100
0000
0001
0000
,
0010
1000
0010
0001
1000
0000
0100
1000
,
0010
0001
0010
1000
0001
0000
1000
0100
,
0010
0000
0001
0010
0100
0000
0001
0100
,
1000
0001
0100
0010
1000
0000
0100
1000
,
0100
0000
0010
0001
0010
0000
0001
0100
,
0001
1000
1000
0010
1000
0000
0001
0010
,
0100
1000
0010
0001
0010
0000
1000
0100
,
0010
0001
0100
1000
0100
0000
0001
1000
,
0100
0010
0100
0100
1000
0000
1000
0001
,
0010
0100
0010
0010
0001
0100
0010
1000
,
0000
1000
0010
0100
0000
0100
0001
0010
,
0100
1000
0001
1000
1001
0000
0000
1000
,
0100
1000
0010
0100
0001
0000
0001
0100
,
0001
0010
0100
1000
1000
0000
0010
1000
,
0001
0000
0010
0001
1000
0001
0100
0001
,
1000
0000
0100
1000
0001
0000
0100
0010
,
1000
0000
0001
0010
0100
1000
0001
0100
,
0010
0000
0001
0010
0100
0001
1000
0100
,
0010
0000
1000
0010
0001
0100
0010
0000
,
0010
0000
0100
0001
1000
0000
0100
1000
,
0010
0100
0010
1000
0100
0010
0000
0010
,
0001
0100
0010
0100
0001
0010
0000
0100
,
0001
0100
0010
0001
1000
1000
0010
0010
,
1000
0000
0000
0001
0000
0000
0010
0000
0000
0010
0000
0000
0001
0000
0000
0001
0000
0000
0000
0000
0000
0000
0100
0000
,
0001
0000
1000
0100
0000
0100
0010
0000
0010
0000
0000
0000
,
0100
0000
0100
1000
0000
1000
0001
0000
0001
0000
0000
0000
,
0000
1000
0010
0100
0001
0000
1001
0000
,
0000
0001
0010
0100
1000
0000
1M01
0000
,
10M1
0000
0001
0100
M020
0000
0000
0030
,
1000
0000
0100
1000
0010
0000
0001
0010
,
0000
0100
0001
0000
02M0
0000
0000
0300
,
001M
0100
0010
0100
M010
0000
1000
0001
,
1000
0000
0100
0010
0M02
0000
0000
0003
,
0010
0000
0100
0010
0001
0000
1000
0100
,
0000
0010
0100
0000
200M
0000
0000
0000
,
3M01
1000
0001
1000
00M1
0000
0100
0010
,
0100
0000
0001
0100
0010
0100
0001
0000
,
1000
0100
0010
0100
0000
1000
0001
0000
,
1000
0010
0100
0000
0100
0010
1000
0000
,
0001
0010
0001
0100
0000
0000
0100
0010
,
1000
0010
1000
0010
0100
0000
0010
0100
,
0001
0100
0001
0100
0010
0000
0110
0000
,
1001
0000
1000
0010
0100
0010
1000
0000
,
0001
0010
0001
0100
0000
0000
0110
0000
,
0M01
1000
0001
1000
0001
1000
00M2
0000
0000
0000
0000
0000
,
M023
0000
0000
0000
0130
0000
1000
0010
,
0100
10M1
0020
0000
,
0030
0100
0001
0000
0010
0000
0100
1000
,
0M01
0000
1001
0000
1000
0000
0000
0010
,
0000
0010
0100
0000
20M2
0000
0000
3003
,
1001
0000
0001
0010
0100
0000
0100
1000
,
0000
1000
0010
0100
0110
0000
000M
0000
,
1001
0000
0001
0010
0100
1000
0010
0100
,
M002
0000
0000
0000
1003
0100
0010
0100
,
1000
001M
0000
0000
0110
0000
0100
0010
,
1000
0010
0100
0001
0000
0000
0001
0010
,
0100
1000
0100
1000
0010
0000
1000
0100
,
0010
0001
0010
0001
2M02
0000
0000
3003
,
1001
0000
0001
0100
1000
0100
0001
0000
,
1000
0010
0001
0010
1000
0001
0010
0100
,
100M
0000
1000
0000
0000
0010
1000
0001
0010
0000
0010
0000
0000
0100
1000
0010
,
0100
0000
0100
0000
0000
0010
1000
0010
0100
0001
0000
0000
0000
0000
0010
0100
;
