#TITLE:Evolution Canceler;
#SUBTITLE:(Instrumental);
#ARTIST:Kobaryo;
#TITLETRANSLIT:;
#SUBTITLETRANSLIT:;
#ARTISTTRANSLIT:;
#GENRE:Speedcore;
#CREDIT:;
#BANNER:Evolution Canceler-bn.png;
#BACKGROUND:Evolution Canceler-bg.png;
#LYRICSPATH:;
#CDTITLE:;
#MUSIC:Evolution Canceler (Instrumental).ogg;
#OFFSET:0.325;
#SAMPLESTART:109.720;
#SAMPLELENGTH:21.940;
#SELECTABLE:YES;
#DISPLAYBPM:88.000:175.000;
#BPMS:0.000=700.000,4.000=87.500,20.000=175.000,52.000=1000000.062,54.000=87.500,56.000=1000000.062,56.125=87.500,57.000=1000000.062,59.000=87.500,60.000=1000000.062,63.000=175.000,64.000=1000000.062,66.000=87.500,68.000=1000000.062,68.125=87.500,69.000=1000000.062,71.000=87.500,72.000=1000000.062,75.000=175.000,76.000=1000000.062,78.000=175.000,84.000=1000000.062,86.000=175.000,88.000=1000000.062,91.000=175.000,92.000=1000000.062,94.000=175.000,104.000=87.500,106.000=1000000.062,113.000=175.000,114.000=1000000.062,125.000=175.000,126.000=1000000.062,133.000=175.000,134.000=1000000.062,138.000=175.000,139.000=1000000.062,145.000=175.000,146.000=1000000.062,152.000=21.875,152.125=1000000.062,157.000=175.000,158.000=1000000.062,165.000=1000000.062,169.000=175.000,170.000=1000000.062,176.000=21.875,176.125=1000000.062,181.000=175.000,182.000=1000000.062,193.000=175.000,195.000=1000000.062,195.125=175.000,196.000=1000000.062,196.500=175.000,197.000=1000000.062,197.125=175.000,199.000=1000000.062,199.125=175.000,200.500=1000000.062,201.000=175.000,201.500=1000000.062,201.625=175.000,203.000=1000000.062,203.125=175.000,204.000=1000000.062,204.500=175.000,205.000=1000000.062,205.125=175.000,207.000=1000000.062,207.125=175.000,208.000=21.875,208.125=1000000.062,213.000=175.000,215.000=1000000.062,215.125=175.000,216.000=1000000.062,216.500=175.000,217.000=1000000.062,217.125=175.000,219.000=1000000.062,219.125=175.000,220.500=1000000.062,221.000=175.000,221.500=1000000.062,221.625=175.000,223.000=1000000.062,223.125=175.000,224.000=1000000.062,224.500=175.000,225.000=1000000.062,225.125=175.000,227.000=1000000.062,227.125=175.000,228.000=1000000.062,233.000=175.000,235.000=1000000.062,235.125=175.000,236.000=1000000.062,236.500=175.000,237.000=1000000.062,237.125=175.000,239.000=1000000.062,239.125=175.000,240.500=1000000.062,245.000=175.000,247.000=1000000.062,247.125=175.000,248.000=1000000.062,248.500=175.000,249.000=1000000.062,249.125=175.000,251.000=1000000.062,251.125=175.000,252.000=21.875,252.125=1000000.062,257.000=175.000,259.000=1000000.062,259.125=175.000,260.000=1000000.062,260.500=175.000,261.000=1000000.062,261.125=175.000,263.000=1000000.062,263.125=175.000,264.500=1000000.062,269.000=175.000,271.000=1000000.062,271.125=175.000,272.000=1000000.062,272.125=175.000,273.000=1000000.062,281.000=179.000,282.000=1000000.062,283.000=87.500,286.000=1000000.062,287.000=87.500,290.000=1000000.062,291.000=87.500,294.000=1000000.062,295.000=87.500,298.000=1000000.062,298.125=175.000,299.000=1000000.062,299.125=175.000,300.000=1000000.062,300.125=175.000,301.000=1000000.062,301.125=175.000,302.000=1000000.062,302.125=175.000,303.000=1000000.062,303.125=175.000,304.000=1000000.062,304.125=175.000,305.000=1000000.062,305.125=175.000,306.000=1000000.062,306.125=175.000,307.000=1000000.062,307.125=175.000,308.000=1000000.062,308.125=175.000,309.000=1000000.062,309.125=175.000,310.000=1000000.062,310.125=175.000,311.000=1000000.062,311.125=175.000,312.000=1000000.062,312.125=175.000,313.000=1000000.062,313.125=175.000,314.000=1000000.062,314.125=175.000,315.000=1000000.062,315.125=175.000,316.000=1000000.062,316.125=175.000,317.000=1000000.062,317.125=175.000,318.000=1000000.062,318.125=175.000,319.000=1000000.062,319.125=175.000,320.000=1000000.062,320.125=175.000,321.000=1000000.062,321.125=175.000,322.000=1000000.062,322.125=175.000,323.000=1000000.062,323.125=175.000,324.000=1000000.062,324.125=175.000,325.000=1000000.062,325.125=175.000,326.000=87.500,328.000=1000000.062,343.000=1000000.062,347.000=175.000,348.000=1000000.062,360.000=175.100,362.000=1000000.062,362.667=175.000,363.000=1000000.062,367.000=175.000,368.000=1000000.062,369.000=175.000,369.667=1000000.062,373.000=175.000,373.667=1000000.062,377.000=175.000,377.667=1000000.062,387.000=175.000,388.000=1000000.062,389.000=175.000,389.667=1000000.062,393.000=175.000,393.667=1000000.062,396.000=175.000,397.667=1000000.062,398.000=175.000,399.000=1000000.062,400.000=175.000,403.000=1000000.062,407.000=175.000,408.000=1000000.062,409.000=87.500;
#STOPS:52.000=0.257
,52.750=0.257
,53.500=0.172
,56.000=0.086
,57.000=0.257
,57.750=0.257
,58.500=0.171
,60.000=0.086
,60.250=0.086
,60.500=0.086
,60.750=0.086
,61.000=0.171
,61.500=0.172
,62.000=0.086
,62.250=0.086
,62.500=0.086
,62.750=0.086
,64.000=0.257
,64.750=0.257
,65.500=0.171
,68.000=0.086
,69.000=0.257
,69.750=0.257
,70.500=0.172
,72.000=0.086
,72.250=0.086
,72.500=0.086
,72.750=0.086
,73.000=0.172
,73.500=0.171
,74.000=0.086
,74.250=0.086
,74.500=0.086
,74.750=0.086
,76.000=0.257
,76.750=0.257
,77.500=0.171
,84.000=0.257
,84.750=0.257
,85.500=0.171
,88.000=0.086
,88.250=0.086
,88.500=0.086
,88.750=0.086
,89.000=0.171
,89.500=0.171
,90.000=0.086
,90.250=0.086
,90.500=0.086
,90.750=0.086
,92.000=0.257
,92.750=0.257
,93.500=0.172
,106.000=0.171
,106.500=0.172
,107.000=0.171
,107.500=0.172
,108.000=0.171
,108.500=0.172
,109.000=0.171
,109.500=0.171
,110.000=0.171
,110.500=0.172
,111.000=0.171
,111.500=0.171
,112.000=0.172
,112.500=0.171
,114.000=0.171
,114.500=0.172
,115.000=0.171
,115.500=0.172
,116.000=0.171
,116.500=0.171
,117.000=0.171
,117.500=0.172
,118.000=0.171
,118.500=0.171
,119.000=0.171
,119.500=0.172
,120.000=0.086
,120.250=0.086
,120.500=0.171
,126.000=0.171
,126.500=0.172
,127.000=0.171
,127.500=0.171
,128.000=0.171
,128.500=0.172
,129.000=0.171
,129.500=0.171
,130.000=0.172
,130.500=0.171
,131.000=0.171
,131.500=0.171
,132.000=0.171
,132.500=0.171
,134.000=0.171
,134.500=0.172
,135.000=0.171
,135.500=0.171
,136.000=0.171
,136.500=0.171
,137.000=0.172
,137.500=0.171
,139.000=0.172
,139.500=0.171
,140.000=0.086
,140.250=0.086
,140.500=0.085
,140.750=0.086
,146.000=0.172
,146.500=0.171
,147.000=0.171
,147.500=0.171
,148.000=0.172
,148.500=0.171
,149.000=0.171
,149.500=0.171
,150.000=0.172
,150.500=0.171
,151.000=0.171
,151.500=0.086
,151.750=0.086
,158.000=0.171
,158.500=0.172
,159.000=0.171
,159.500=0.171
,160.000=0.171
,160.500=0.171
,161.000=0.171
,161.500=0.172
,162.000=0.171
,162.500=0.172
,163.000=0.086
,163.250=0.086
,163.500=0.172
,164.000=0.171
,164.500=0.172
,170.000=0.171
,170.500=0.171
,171.000=0.171
,171.500=0.172
,172.000=0.171
,172.500=0.171
,173.000=0.171
,173.500=0.172
,174.000=0.171
,174.500=0.172
,175.000=0.086
,175.250=0.086
,175.500=0.085
,175.750=0.086
,182.000=0.171
,182.500=0.171
,183.000=0.172
,183.500=0.171
,184.000=0.171
,184.500=0.171
,185.000=0.086
,185.250=0.086
,185.500=0.085
,185.750=0.086
,186.000=0.171
,186.500=0.171
,187.000=0.171
,187.500=0.172
,188.000=0.086
,188.250=0.086
,188.500=0.085
,188.750=0.086
,195.000=0.043
,196.000=0.086
,196.250=0.086
,197.125=0.043
,199.000=0.043
,200.500=0.085
,200.750=0.086
,201.500=0.043
,203.000=0.043
,204.000=0.086
,204.250=0.085
,205.000=0.043
,207.000=0.043
,215.000=0.043
,216.000=0.086
,216.250=0.086
,217.000=0.043
,219.000=0.043
,220.500=0.086
,220.750=0.086
,221.500=0.043
,223.000=0.043
,224.000=0.085
,224.250=0.086
,225.000=0.043
,227.000=0.043
,228.000=0.086
,228.250=0.086
,228.500=0.085
,228.750=0.086
,235.000=0.043
,236.000=0.086
,236.250=0.085
,237.000=0.043
,239.000=0.043
,240.500=0.086
,240.750=0.086
,247.000=0.043
,248.000=0.085
,248.250=0.086
,249.000=0.043
,251.000=0.043
,259.000=0.043
,260.000=0.086
,260.250=0.086
,261.000=0.043
,263.000=0.043
,264.500=0.086
,264.750=0.086
,271.000=0.043
,272.000=0.043
,273.000=0.086
,273.250=0.086
,273.500=0.085
,273.750=0.086
,274.000=0.086
,274.250=0.085
,274.500=0.086
,274.750=0.086
,275.000=0.085
,275.250=0.086
,275.500=0.086
,275.750=0.085
,276.000=0.086
,276.250=0.086
,276.500=0.085
,276.750=0.086
,282.000=0.171
,282.250=0.086
,282.375=0.171
,282.625=0.171
,282.875=0.086
,286.000=0.171
,286.250=0.086
,286.375=0.172
,286.625=0.171
,286.875=0.086
,290.000=0.172
,290.250=0.086
,290.375=0.172
,290.625=0.171
,290.875=0.086
,294.000=0.171
,294.250=0.086
,294.375=0.171
,294.625=0.171
,294.875=0.086
,298.000=0.043
,299.000=0.043
,300.000=0.043
,301.000=0.043
,302.000=0.043
,303.000=0.043
,304.000=0.043
,305.000=0.043
,306.000=0.043
,307.000=0.043
,308.000=0.043
,309.000=0.043
,310.000=0.043
,311.000=0.043
,312.000=0.043
,313.000=0.043
,314.000=0.043
,315.000=0.043
,316.000=0.043
,317.000=0.043
,318.000=0.043
,319.000=0.043
,320.000=0.043
,321.000=0.043
,322.000=0.043
,323.000=0.043
,324.000=0.043
,325.000=0.043
,328.000=0.057
,328.167=0.057
,328.333=0.115
,328.667=0.114
,329.000=0.057
,329.167=0.057
,329.333=0.114
,329.667=0.115
,330.000=0.057
,330.167=0.057
,330.333=0.114
,330.667=0.114
,331.000=0.115
,331.333=0.114
,331.667=0.114
,332.000=0.057
,332.167=0.057
,332.333=0.115
,332.667=0.114
,333.000=0.057
,333.167=0.057
,333.333=0.114
,333.667=0.115
,334.000=0.114
,334.333=0.114
,334.667=0.115
,335.000=0.114
,335.333=0.114
,335.667=0.115
,336.000=0.057
,336.167=0.057
,336.333=0.114
,336.667=0.114
,337.000=0.057
,337.167=0.057
,337.333=0.115
,337.667=0.114
,338.000=0.114
,338.333=0.115
,338.667=0.114
,339.000=0.114
,339.333=0.115
,339.667=0.114
,340.000=0.057
,340.167=0.057
,340.333=0.114
,340.667=0.115
,341.000=0.057
,341.167=0.057
,341.333=0.114
,341.667=0.114
,342.000=0.057
,342.167=0.057
,342.333=0.115
,342.667=0.114
,348.000=0.057
,348.167=0.057
,348.333=0.114
,348.667=0.115
,349.000=0.057
,349.167=0.057
,349.333=0.114
,349.667=0.114
,350.000=0.057
,350.167=0.057
,350.333=0.115
,350.667=0.114
,351.000=0.114
,351.333=0.115
,351.667=0.114
,352.000=0.057
,352.167=0.057
,352.333=0.114
,352.667=0.115
,353.000=0.057
,353.167=0.057
,353.333=0.114
,353.667=0.114
,354.000=0.115
,354.333=0.114
,354.667=0.114
,355.000=0.115
,355.333=0.114
,355.667=0.114
,356.000=0.057
,356.167=0.057
,356.333=0.115
,356.667=0.114
,357.000=0.057
,357.167=0.057
,357.333=0.114
,357.667=0.115
,358.000=0.057
,358.167=0.057
,358.333=0.114
,358.667=0.114
,359.000=0.115
,359.333=0.114
,359.667=0.114
,362.000=0.057
,362.167=0.057
,362.333=0.057
,362.500=0.057
,368.000=0.057
,368.167=0.057
,368.333=0.115
,368.667=0.114
,369.667=0.114
,370.000=0.115
,370.333=0.114
,370.667=0.114
,371.000=0.115
,371.333=0.114
,371.667=0.114
,372.000=0.057
,372.167=0.057
,372.333=0.115
,372.667=0.114
,373.667=0.114
,374.000=0.115
,374.333=0.114
,374.667=0.114
,375.000=0.115
,375.333=0.114
,375.667=0.114
,376.000=0.057
,376.167=0.057
,376.333=0.115
,376.667=0.114
,377.667=0.114
,378.000=0.115
,378.333=0.114
,378.667=0.114
,379.000=0.115
,379.333=0.114
,379.667=0.114
,380.000=0.057
,380.167=0.057
,380.333=0.115
,380.667=0.114
,381.000=0.114
,381.333=0.115
,381.667=0.114
,382.000=0.057
,382.167=0.057
,382.333=0.114
,382.667=0.114
,388.000=0.057
,388.167=0.057
,388.333=0.115
,388.667=0.114
,389.667=0.114
,390.000=0.115
,390.333=0.114
,390.667=0.114
,391.000=0.115
,391.333=0.114
,391.667=0.114
,392.000=0.057
,392.167=0.057
,392.333=0.115
,392.667=0.114
,393.667=0.114
,394.000=0.115
,394.333=0.114
,394.667=0.114
,395.000=0.115
,395.333=0.114
,395.667=0.114
,397.667=0.115
,399.000=0.114
,399.333=0.114
,399.667=0.115
,408.000=0.171
,408.250=0.086
,408.375=0.172
,408.625=0.171
,408.875=0.086
;
#TIMESIGNATURES:0.000=4=4
;
#BGCHANGES:;
#KEYSOUNDS:;

//---------------dance-single - ----------------
#NOTES:
     dance-single:
     :
     Challenge:
     13:
     0.981,1.000,1.000,0.439,1.000,724.000,139.000,59.000,111.000,0.000,1.000,0.981,1.000,1.000,0.439,1.000,724.000,139.000,59.000,111.000,0.000,1.000:
0000
0000
0000
0000
,
2002
3003
0000
0000
,
M000
0000
00M0
0000
,
M000
0000
000M
0000
,
M000
0000
0M00
0000
,
1000
0000
0001
0000
1000
0010
1000
0001
1000
0100
0010
0000
0001
0010
0100
0010
,
0001
1000
0001
0000
0100
0010
1000
0001
0100
0001
1000
0000
0100
0010
0001
0010
,
0100
1000
0001
0000
0100
0001
1000
0001
0010
0100
1000
0000
0001
1000
0010
1000
,
0100
0010
0001
0000
1000
0100
0010
0001
0100
0001
1000
0000
0010
1000
0001
1000
,
0100
0010
0001
0000
1000
0001
0100
0010
1000
0001
1000
0000
0010
1000
0001
1000
,
0100
0010
0001
0000
0100
0001
1000
0100
0010
0001
1000
0000
0010
1000
0001
1000
,
0100
0010
0001
0000
1000
0001
0100
0001
1000
0010
1000
0000
0010
1000
0001
1000
,
0100
0010
0001
0000
1000
0010
1000
0001
1000
0100
0010
0000
0001
1000
0010
0100
,
0110
0000
0000
0000
0000
0000
1010
0000
0000
0000
0000
0000
1001
0000
0000
0000
1100
0000
0000
0000
MM00
M0M0
M00M
M00M
M0M0
MM00
M0M0
M00M
M00M
M0M0
MM00
0000
,
0000
0000
0000
0000
1001
0000
0000
0011
0000
0000
0101
0000
0110
0000
0000
0000
,
0010
1000
0001
2000
0100
0000
0010
0000
3001
0010
0100
1000
0002
0000
0000
0003
,
0011
0000
0000
0000
0000
0000
0110
0000
0000
0000
0000
0000
1100
0000
0000
0000
1001
0000
0000
0000
MM00
M0M0
M00M
M00M
M0M0
MM00
M0M0
M00M
M00M
M0M0
MM00
0000
,
0000
0000
0000
0000
0101
0000
0000
1001
0000
0000
1100
0000
0110
0000
0000
0000
,
0010
0001
1000
0002
0100
0000
0010
0000
1003
0100
0010
0001
2000
0000
0000
3000
,
1100
0000
0000
1010
0000
0000
0110
0000
0100
0001
0100
0000
0001
1000
0001
0000
,
1000
0100
1000
0000
0100
0010
0100
0000
0010
0001
0010
0000
0001
1000
0001
0000
,
1001
0000
0000
1100
0000
0000
1010
0000
0010
1000
0010
0000
1000
0100
1000
0000
,
0100
1000
0001
2000
0010
0000
0100
0000
3001
0100
0010
1000
0002
0000
0000
0003
,
0101
0000
0000
0011
0000
0000
0110
0000
0100
1000
0001
0000
0100
0001
1000
0000
,
0010
1000
0001
0000
0100
0010
1000
0000
0001
0010
0100
0000
1000
0100
0010
0000
,
0001
0010
0001
0100
0001
1000
0010
1000
0100
1000
0001
0010
0100
1000
0001
0100
,
0010
0000
0000
0000
0000
0000
1000
1000
1001
0000
0001
0000
0011
0000
0010
0000
,
0110
0100
1100
1000
1001
0001
0101
0100
,
0110
1010
2002
3003
0011
0010
0110
0100
,
1100
1000
1001
0001
0101
0100
0110
1010
,
1000
0100
0010
0000
0022
0000
0000
0000
0000
0000
0000
0000
0000
0000
0000
0000
,
0000
0000
0033
0000
0101
0100
0110
0010
,
1010
1000
1001
0001
0011
0010
0110
0100
,
1100
1001
0202
0303
0110
0010
1010
1000
,
1001
0001
0011
0010
0110
0000
1100
0001
,
0100
0001
1000
0020
2000
0000
0000
0000
0000
0000
0000
0000
0000
0000
0000
0000
,
0000
0000
3030
0000
1001
1000
1100
0001
,
0101
0000
1000
0000
1010
0000
0001
0000
0011
0000
1000
0000
1100
0000
0100
0010
,
0001
0022
0000
0000
,
0000
0000
0033
0000
1001
0001
1100
1000
,
0101
0000
1000
0000
1010
0000
0001
0000
1000
0000
0100
0000
0010
0001
1000
0000
,
1010
0010
0220
0000
0000
0000
0000
0000
,
0000
0000
0330
0000
0101
1000
1010
0001
,
0011
0000
1000
0000
1100
0000
0001
0000
0011
0000
0010
0000
0001
1000
0100
0010
,
0001
2002
0000
0000
,
0000
0000
3003
0000
1010
1000
0101
0001
,
1010
0000
1000
0000
0100
0010
0001
0010
0100
0000
1000
0000
1001
0000
0001
0000
,
0100
0001
1000
0200
0020
0000
0000
0000
0000
0000
0000
0000
0000
0000
0000
0000
,
0000
0000
0330
0000
0010
0100
1100
1000
,
0001
0100
0010
0000
1010
0000
1000
0000
0001
0000
0010
0000
0011
0000
0001
0000
,
1000
0000
0100
0010
0001
0000
1001
0000
1000
0000
0010
0000
0110
0000
0100
0000
,
0001
1000
0100
0000
0110
0000
0010
0000
0100
0000
1000
0000
1001
0000
0001
0000
,
0100
0220
0000
0000
,
0000
0000
0330
0000
0010
1000
1001
0001
,
0010
0100
1000
0000
1001
0000
0001
0000
0100
0000
0010
0000
1010
0000
1000
0000
,
0100
0000
0010
0001
1000
0000
1100
0000
0100
0000
0010
0000
0011
0000
0001
0000
,
1000
0001
0100
0000
0101
0000
0001
0000
1M00
0M00
0M10
0M00
1M10
0M00
1M00
0M00
,
0M01
0M10
0M01
2M00
0M20
0000
0000
0000
0000
0000
0000
0000
0000
0000
0000
0000
,
0000
0000
3030
0000
1000
0100
0110
0010
,
0100
1000
0001
0000
0101
0000
0100
0000
0010
0000
1000
0000
1001
0000
0001
0000
,
0010
0000
0100
0020
0002
0000
0000
0000
0000
0000
0000
0000
0000
0000
0000
0000
,
0000
0000
0033
0000
0010
0001
0101
0100
,
0010
1000
0001
0000
0101
0000
0100
0000
0001
0000
1000
0000
1100
0000
0100
0000
,
0040
0200
0000
0000
,
0000
0000
0330
0000
0010
0001
1001
1000
,
0010
0100
0001
0000
0101
0000
0100
0000
0001
0000
1000
0000
1100
0000
0100
0000
,
0010
0000
0001
2000
0020
0000
0000
0000
0000
0000
0000
0000
0000
0000
0000
0000
,
0000
0000
3030
0000
1000
0010
0110
0100
,
0101
0000
0001
0000
1000
0100
0010
0001
0100
0100
1000
0010
0010
0001
0100
0100
,
0010
0001
0100
0100
2000
0000
0000
0000
0000
0000
0000
0000
0000
0000
0000
0000
,
0000
0000
0000
0000
0000
0000
0000
0000
3000
0000
0000
0000
0000
0000
0000
0000
1001
0000
M000
0M00
0000
00M0
0000
0M00
M000
0000
0000
0000
0000
0000
0000
0000
,
0000
0000
0000
0000
0000
0000
0000
0000
0000
0000
M000
0000
0000
0000
000M
0000
M000
0000
00M0
0M00
0000
000M
0000
0M00
00M0
0000
0000
0000
0000
0000
0000
0000
,
0000
0000
0000
0000
0000
0000
M000
0000
0000
0000
0000
0000
000M
0000
00M0
0000
000M
0000
0M00
00M0
0000
M000
0000
00M0
0M00
0000
0000
0000
0000
0000
0000
0000
,
0000
0000
0000
0000
0000
0000
0000
0000
0000
0000
000M
0000
0000
0000
00M0
0000
000M
0000
M000
00M0
0000
0M00
0000
00M0
M000
0000
0000
0000
0000
0000
0000
0000
,
0000
0000
1100
0110
,
0011
1001
0101
0110
,
1010
1001
0011
1001
,
1010
1100
0110
0011
,
0101
0110
1010
1100
,
0110
0011
1001
0101
,
0110
1010
1001
1100
,
0110
0000
0000
0000
0000
0000
0011
0000
0000
0000
0000
0000
1001
0000
0000
0000
0000
0000
0000
0000
0000
0001
0000
0001
,
0100
0010
0100
0000
0001
0000
1000
0100
1000
0000
0001
0000
0010
0100
0010
0000
0100
0000
2000
3000
0001
0000
0100
0000
,
0010
0100
0010
0000
1000
0000
0001
1000
0100
0000
0010
0000
0100
0000
1000
0000
0001
0000
0200
0300
0001
0000
1000
0000
,
0100
0010
0100
0000
1000
0000
0001
0010
0001
0000
1000
0000
0001
0000
0010
0000
0001
0000
0200
0300
0010
0000
1000
0000
,
0001
1000
0100
0000
0010
0000
0001
1000
0100
0000
0010
0000
0100
1000
0001
0000
0010
0000
0002
0000
0000
0000
0000
0000
,
0000
0000
0000
0003
,
1000
0010
1000
0000
0001
0000
1000
0100
1000
0000
0001
0000
0010
0100
0010
0000
0001
0000
2000
3000
0010
0000
0100
0000
,
0001
0010
0001
0000
1000
0000
0001
0010
0100
0000
1000
0000
0001
0000
0100
0000
0010
0000
2000
3000
0001
0000
1000
0000
,
0100
0010
0100
0000
1000
0000
0100
0010
0100
0000
1000
0000
0001
0100
0001
0000
1000
0000
0020
0030
0100
0000
0001
0000
,
2000
0000
0000
0000
0000
0000
3002
0000
0000
0000
0000
0000
1003
0100
0010
0100
1000
0000
0002
0000
0000
0000
0000
0000
,
0000
0000
0000
0003
,
1000
0010
1000
0000
0001
0000
0200
0300
0000
0000
0001
0000
1000
0000
0100
0000
0010
0000
0002
0003
0100
0000
0001
0000
,
0010
0100
0010
0000
0001
0000
2000
3000
0000
0000
0001
0000
0100
0000
0010
0000
1000
0000
0002
0003
1000
0000
0100
0000
,
0010
0001
0010
0000
0100
0000
2000
3000
0000
0000
0001
0000
1000
0000
0100
0000
0010
0000
0001
0000
1000
0000
0001
0000
,
0100
0010
1000
0000
0001
0000
0200
0300
0001
0000
1000
0000
0001
0010
0100
0000
1000
0000
0002
0000
0000
0000
0000
0000
,
0000
0000
0000
0003
,
0100
0010
0100
0000
0001
0000
2000
3000
0000
0000
0100
0000
0010
0000
0100
0000
1000
0000
0002
0003
0100
0000
0010
0000
,
1000
0100
1000
0000
0001
0000
0020
0030
0000
0000
0001
0000
1000
0000
0010
0000
1000
0000
0200
0300
0010
0000
0001
0000
,
1000
0000
0000
1001
0000
0001
0100
0000
0000
0100
0010
1000
,
0002
0023
0230
2300
,
0000
0000
0000
3000
,
1001
0000
MM00
M0M0
M00M
M0M0
MM00
M0M0
M00M
M0M0
MM00
0000
0000
0000
0000
0000
0000
0000
0000
0000
0000
0000
0000
0000
0000
0000
0000
0000
0000
0000
0000
0000
;

//---------------dance-single - ----------------
#NOTES:
     dance-single:
     :
     Hard:
     11:
     0.831,0.990,0.543,0.365,0.864,659.000,73.000,49.000,111.000,0.000,26.000,0.831,0.990,0.543,0.365,0.864,659.000,73.000,49.000,111.000,0.000,26.000:
0000
0000
0000
0000
,
2002
3003
0000
0000
,
M000
0000
00M0
0000
,
M000
0000
000M
0000
,
M000
0000
0M00
0000
,
1000
0000
0001
0000
1000
0100
1000
0000
0001
0000
0100
0000
0010
1000
0010
0000
,
1000
0000
0100
0000
0010
0001
0010
0000
0001
0000
1000
0000
0010
0100
0010
0000
,
1000
0000
0001
0000
0010
0100
0010
0000
0001
0000
1000
0000
0100
0010
0100
0000
,
1000
0000
0001
0000
0100
0010
0100
0000
0001
0000
1000
0000
0010
1000
0010
0000
,
1000
0000
0001
0000
0010
0001
0010
0000
0001
0000
1000
0000
0001
0100
0001
0000
,
1000
0000
0001
0000
1000
0100
1000
0000
0001
0000
0010
0000
0001
0100
0001
0000
,
1000
0000
0010
0000
1000
0100
1000
0000
0001
0000
0010
0000
0001
0100
0001
0000
,
1000
0000
0010
0000
0100
0010
0100
0000
0001
0000
1000
0000
0100
0010
0100
0000
,
1000
0000
0000
0000
0000
0000
0100
0000
0000
0000
0000
0000
0010
0000
0000
0000
0011
0000
0000
0000
MM00
M0M0
M00M
M00M
M0M0
MM00
M0M0
M00M
M00M
M0M0
MM00
0000
,
0000
0000
0000
0000
0001
0000
0000
0100
0000
0000
0010
0000
1010
0000
0000
0000
,
1000
0100
1000
0100
1000
0000
0001
0000
0010
0100
0010
0100
0010
0000
0000
0000
,
0100
0000
0000
0000
0000
0000
1000
0000
0000
0000
0000
0000
0001
0000
0000
0000
0101
0000
0000
0000
MM00
M0M0
M00M
M00M
M0M0
MM00
M0M0
M00M
M00M
M0M0
MM00
0000
,
0000
0000
0000
0000
0001
0000
0000
0100
0000
0000
0010
0000
1010
0000
0000
0000
,
1000
0100
1000
0100
1000
0000
0001
0000
0100
0010
0100
0010
0100
0000
0000
0000
,
0001
0000
0000
0001
0000
0000
0001
0000
1000
0010
1000
0000
0001
0100
0001
0000
,
1000
0100
1000
0000
0001
0010
0001
0000
1000
0010
1000
0000
0001
0100
0001
0000
,
1000
0000
0000
1000
0000
0000
1000
0000
0001
0010
0001
0000
1000
0100
1000
0000
,
0001
0100
0001
0100
0001
0000
0010
0000
0100
1000
0100
1000
0100
0000
0000
0000
,
1000
0000
0000
1000
0000
0000
1000
0000
0001
0100
0010
0000
1000
0010
0100
0000
,
0001
1000
0100
0000
0010
0001
1000
0000
0100
0010
0001
0000
0010
0100
1000
0000
,
0001
0100
0010
1000
0100
0010
0001
1000
,
1001
0000
0000
0000
0000
0000
0001
0001
1000
0000
1000
0000
0010
0000
0010
0000
,
0100
0100
0001
0001
1000
1000
0100
0100
,
1000
0001
1001
0000
1000
1000
0001
0001
,
0100
0100
0010
0010
1000
1000
0001
0001
,
1000
0100
0010
0000
0022
0000
0000
0000
0000
0000
0000
0000
0000
0000
0000
0000
,
0000
0000
0033
0000
0001
0001
0100
0100
,
0010
0010
1000
1000
0001
0001
1000
1000
,
0100
0010
0220
0330
0100
0100
1000
1000
,
0001
0001
0100
0100
0110
0000
1010
0010
,
1000
0100
0010
0100
2000
0000
0000
0000
0000
0000
0000
0000
0000
0000
0000
0000
,
0000
0000
3000
0000
0100
0100
1000
1000
,
0001
0000
0001
0000
0100
0000
0100
0000
0010
0000
0010
0000
1000
0000
0100
0010
,
0001
0022
0000
0000
,
0000
0000
0033
0000
0001
0001
1000
1000
,
0010
0000
0010
0000
0100
0000
0100
0000
0001
0000
1000
0000
0001
1000
0010
0000
,
1000
0100
2200
0000
0000
0000
0000
0000
,
0000
0000
3300
0000
1000
1000
0100
0100
,
0010
0000
0010
0000
0001
0000
0001
0000
1000
0000
1000
0000
0001
0100
0010
0100
,
0001
2002
0000
0000
,
0000
0000
3003
0000
1000
1000
0001
0001
,
1000
0000
1000
0000
0100
0010
0001
0010
0100
0000
0100
0000
1000
0000
1000
0000
,
0001
0100
0010
0100
0002
0000
0000
0000
0000
0000
0000
0000
0000
0000
0000
0000
,
0000
0000
0003
0000
0010
0001
0011
0010
,
0001
1000
0001
0000
1001
0000
1000
0000
0010
0000
0100
0000
0110
0000
0010
0000
,
0100
0000
0001
0100
0001
0000
0101
0000
0100
0000
0001
0000
1001
0000
1000
0000
,
0100
0010
0100
0000
0110
0000
0010
0000
0001
0000
1000
0000
1001
0000
0001
0000
,
0100
0220
0000
0000
,
0000
0000
0330
0000
0010
1000
1001
0001
,
0010
0100
0010
0000
0110
0000
0100
0000
1000
0000
0001
0000
0101
0000
0100
0000
,
0010
0000
1000
0010
1000
0000
1001
0000
0001
0000
0010
0000
0110
0000
0100
0000
,
1000
0100
1000
0000
1001
0000
0001
0000
1M00
0M00
0M10
0M00
1M10
0M00
1M00
0M00
,
0M01
0M10
0M01
2M00
0M20
0000
0000
0000
0000
0000
0000
0000
0000
0000
0000
0000
,
0000
0000
3030
0000
1000
0100
0110
0010
,
0001
1000
0001
0000
0101
0000
0100
0000
0010
0000
1000
0000
1001
0000
0001
0000
,
0010
0000
0100
2000
0200
0000
0000
0000
0000
0000
0000
0000
0000
0000
0000
0000
,
0000
0000
3300
0000
1000
0001
0101
0100
,
0010
0100
0010
0000
1010
0000
1000
0000
0001
0000
0010
0000
0011
0000
0001
0000
,
4000
0200
0000
0000
,
0000
0000
3300
0000
1000
0001
0101
0100
,
0001
0010
0001
0000
0011
0000
0010
0000
0100
0000
1000
0000
1100
0000
0100
0000
,
0010
0000
0001
0200
0002
0000
0000
0000
0000
0000
0000
0000
0000
0000
0000
0000
,
0000
0000
0303
0000
0100
0001
1001
1000
,
1100
0000
0100
0000
0010
0100
1000
0100
0010
0001
1000
0001
0100
0010
1000
0001
,
1000
0100
0010
0001
2000
0000
0000
0000
0000
0000
0000
0000
0000
0000
0000
0000
,
0000
0000
0000
0000
0000
0000
0000
0000
3000
0000
0000
0000
0000
0000
0000
0000
1001
0000
M000
0M00
0000
00M0
0000
0M00
M000
0000
0000
0000
0000
0000
0000
0000
,
0000
0000
0000
0000
0000
0000
0000
0000
0000
0000
M000
0000
0000
0000
000M
0000
M000
0000
00M0
0M00
0000
000M
0000
0M00
00M0
0000
0000
0000
0000
0000
0000
0000
,
0000
0000
0000
0000
0000
0000
M000
0000
0000
0000
0000
0000
000M
0000
00M0
0000
000M
0000
0M00
00M0
0000
M000
0000
00M0
0M00
0000
0000
0000
0000
0000
0000
0000
,
0000
0000
0000
0000
0000
0000
0000
0000
0000
0000
000M
0000
0000
0000
00M0
0000
000M
0000
M000
00M0
0000
0M00
0000
00M0
M000
0000
0000
0000
0000
0000
0000
0000
,
0000
0000
1100
1100
,
1001
1001
0101
0101
,
0110
0110
1010
1010
,
1001
1001
1100
1100
,
0110
0110
0011
1001
,
0101
0110
1010
1001
,
1100
0110
0011
0101
,
0110
0000
0000
0000
0000
0000
1010
0000
0000
0000
0000
0000
1001
0000
0000
0000
0000
0000
0000
0000
0000
0001
0000
0001
,
0400
0000
0310
0000
0100
0000
0004
0000
1003
0000
0001
0000
4000
0000
3100
0000
1000
0000
0002
0003
0100
0000
0001
0000
,
4000
0000
3010
0000
1000
0000
0004
0000
0013
0000
0001
0000
1000
0000
0100
0000
1000
0000
0002
0003
0100
0000
0001
0000
,
4000
0000
3010
0000
1000
0000
0004
0000
0013
0000
0001
0000
1000
0000
0100
0000
1000
0000
0002
0003
0100
0000
0001
0000
,
4000
3010
1000
0004
0013
0001
4000
3100
0010
0002
0000
0000
,
0000
0000
0000
0003
,
4000
0000
3010
0000
1000
0000
0004
0000
0103
0000
0001
0000
4000
0000
3100
0000
1000
0000
0002
0003
0010
0000
0001
0000
,
4000
0000
3010
0000
1000
0000
0400
0000
0310
0000
0100
0000
1000
0000
0001
0000
1000
0000
0020
0030
0100
0000
0010
0000
,
4000
0000
3001
0000
1000
0000
0400
0000
0310
0000
0100
0000
4000
0000
3100
0000
1000
0000
0002
0003
0100
0000
0010
0000
,
2000
0000
0000
0000
0000
0000
3002
0000
0000
0000
0000
0000
0103
0001
0100
0001
0100
0000
0020
0000
0000
0000
0000
0000
,
0000
0000
0000
0030
,
4000
0000
3010
0000
0100
0000
0002
0003
0000
0000
0100
0000
0001
0000
1000
0000
0100
0000
0020
0030
0001
0000
1000
0000
,
0040
0000
1030
0000
0001
0000
2000
3000
0000
0000
0001
0000
0100
0000
0010
0000
1000
0000
0002
0003
1000
0000
0100
0000
,
0040
0000
0031
0000
1000
0000
0002
0003
0000
0000
1000
0000
0010
0000
1000
0000
0100
0000
0010
0000
0001
0000
1000
0000
,
0040
0000
1030
0000
0001
0000
2000
3000
0100
0000
0010
0000
0004
0000
1003
0000
0100
0000
2000
0000
0000
0000
0000
0000
,
0000
0000
0000
3000
,
0004
0000
1003
0000
0010
0000
0200
0300
0000
0000
0001
0000
0010
0000
0001
0000
0100
0000
0020
0030
1000
0000
0100
0000
,
0040
0000
0031
0000
1000
0000
0020
0030
0000
0000
1000
0000
0100
0000
0010
0000
0100
0000
2000
3000
0001
0000
0100
0000
,
0010
0000
0000
1010
0000
1000
0100
0000
0000
0110
0000
0010
,
0002
0023
0230
2300
,
0000
0000
0000
3000
,
1001
0000
MM00
M0M0
M00M
M0M0
MM00
M0M0
M00M
M0M0
MM00
0000
0000
0000
0000
0000
0000
0000
0000
0000
0000
0000
0000
0000
0000
0000
0000
0000
0000
0000
0000
0000
;

//---------------dance-single - ----------------
#NOTES:
     dance-single:
     :
     Medium:
     9:
     0.619,0.762,0.030,0.141,0.596,559.000,4.000,19.000,102.000,0.000,0.000,0.619,0.762,0.030,0.141,0.596,559.000,4.000,19.000,102.000,0.000,0.000:
0000
0000
0000
0000
,
MMMM
0000
0000
0000
,
M000
0000
00M0
0000
,
M000
0000
000M
0000
,
M000
0000
0M00
0000
,
1000
0100
1000
0000
0001
0100
0001
0000
,
1000
0010
1000
0000
0001
0010
0001
0000
,
1000
0100
1000
0000
0001
0010
0001
0000
,
1000
0100
1000
0000
0001
0100
0001
0000
,
1000
0100
0010
0000
0001
0010
0100
0000
,
1000
0001
0100
0000
0010
0100
0001
0000
,
0100
0010
1000
0000
0010
0100
0001
0000
,
1000
0100
0010
0000
0001
0010
0100
0000
,
1000
0000
0000
0000
0000
0000
0100
0000
0000
0000
0000
0000
1000
0000
0000
0000
0100
0000
0000
0000
MM00
M0M0
M00M
M00M
M0M0
MM00
M0M0
M00M
M00M
M0M0
MM00
0000
,
0000
0000
0000
0000
1000
0000
0000
0001
0000
0000
1000
0000
0001
0000
0000
0000
,
0100
0001
0100
0001
0100
0000
0001
0000
0100
0010
0100
0010
0100
0000
0000
0000
,
0001
0000
0000
0000
0000
0000
0010
0000
0000
0000
0000
0000
0001
0000
0000
0000
0010
0000
0000
0000
MM00
M0M0
M00M
M00M
M0M0
MM00
M0M0
M00M
M00M
M0M0
MM00
0000
,
0000
0000
0000
0000
0001
0000
0000
1000
0000
0000
0001
0000
1000
0000
0000
0000
,
0010
1000
0010
1000
0010
0000
0100
0000
0010
1000
0010
1000
0010
0000
0000
0000
,
1000
0000
0000
0100
0000
0000
0010
0000
0001
0000
0000
0000
1000
0000
0000
0000
,
0001
0100
0010
1000
,
0100
0000
0000
0010
0000
0000
0001
0000
1000
0000
0000
0000
0001
0000
0000
0000
,
1000
0100
1000
0100
1000
0000
0001
0000
1000
0100
1000
0100
1000
0000
0000
0000
,
0001
0000
0000
1000
0000
0000
0010
0000
0100
0000
0000
0000
0001
0000
0000
0000
,
1000
0100
0010
0001
,
1000
0100
0010
0100
1000
0001
0100
0010
,
1000
0000
0000
0000
0000
0000
0001
0001
1000
0000
0100
0000
1000
0000
0100
0000
,
1000
0001
1000
0001
0100
0001
0100
0001
,
0100
0010
0100
0000
0001
0100
0001
0100
,
0001
1000
0001
1000
0100
1000
0100
1000
,
0100
0010
0100
0000
2000
0000
0000
0000
0000
0000
0000
0000
0000
0000
0000
0000
,
0000
0000
3000
0000
0001
0010
0001
0010
,
0001
1000
0001
1000
0001
0100
0001
0100
,
0010
1000
0010
0000
1000
0001
1000
0001
,
1000
0100
1000
0100
0010
0000
0001
0010
,
0001
0100
0001
0100
0002
0000
0000
0000
0000
0000
0000
0000
0000
0000
0000
0000
,
0000
0000
0003
0000
1000
0100
0010
0001
,
1000
0000
0100
0000
0010
0000
0100
0000
1000
0000
0001
0000
0100
0000
0010
1000
,
0010
2000
0000
0000
,
0000
0000
3000
0000
0001
0100
0010
1000
,
0001
0000
0100
0000
0010
0000
0100
0000
0001
0000
1000
0000
0100
0010
0100
0000
,
1000
0001
0200
0000
0000
0000
0000
0000
,
0000
0000
0300
0000
0001
0010
0100
1000
,
0001
0000
0010
0000
0100
0000
0010
0000
0001
0000
1000
0000
0010
0100
0010
0100
,
0010
0200
0000
0000
,
0000
0000
0300
0000
0001
1000
0100
0010
,
0100
0000
1000
0000
0001
0100
0001
0100
0001
0000
1000
0000
0010
0000
1000
0000
,
0100
0010
0100
0010
0200
0000
0000
0000
0000
0000
0000
0000
0000
0000
0000
0000
,
0000
0000
0300
0000
1000
0001
0100
0010
,
1000
0010
1000
0000
0001
0000
0010
0000
0100
0000
1000
0000
0100
0000
0010
0000
,
0001
0000
1000
0010
1000
0000
0001
0000
0010
0000
0100
0000
0010
0000
0001
0000
,
1000
0010
1000
0000
0001
0000
0100
0000
0010
0000
0100
0000
0001
0000
1000
0000
,
0100
2000
0000
0000
,
0000
0000
3000
0000
0100
0010
0100
1000
,
0001
0100
0001
0000
1000
0000
0010
0000
1000
0000
0001
0000
0010
0000
0100
0000
,
1000
0000
0001
0010
0001
0000
1000
0000
0010
0000
1000
0000
0100
0000
0010
0000
,
0001
0010
0001
0000
1000
0000
0010
0000
1000
0000
0100
0000
0010
0000
0001
0000
,
1000
0100
1000
0100
2000
0000
0000
0000
0000
0000
0000
0000
0000
0000
0000
0000
,
0000
0000
3000
0000
0001
0010
0001
0100
,
0010
1000
0001
0000
1000
0000
0100
0000
0010
0000
0001
0000
1000
0000
0100
0000
,
0010
0000
0001
1000
0020
0000
0000
0000
0000
0000
0000
0000
0000
0000
0000
0000
,
0000
0000
0030
0000
1000
0001
0010
0001
,
0100
0010
1000
0000
0001
0000
0010
0000
0100
0000
0010
0000
0001
0000
1000
0000
,
0010
0200
0000
0000
,
0000
0000
0300
0000
0001
1000
0010
1000
,
0100
0010
0001
0000
1000
0000
0001
0000
0100
0000
0010
0000
1000
0000
0001
0000
,
0010
0000
0100
0010
0002
0000
0000
0000
0000
0000
0000
0000
0000
0000
0000
0000
,
0000
0000
0003
0000
1000
0001
0100
0010
,
1000
0000
0001
0000
1000
0100
1000
0001
1000
0100
1000
0001
1000
0100
0010
0001
,
0010
0100
1000
0001
2000
0000
0000
0000
0000
0000
0000
0000
0000
0000
0000
0000
,
0000
0000
0000
0000
0000
0000
0000
0000
3000
0000
0000
0000
0000
0000
0000
0000
1001
0000
M000
0M00
0000
00M0
0000
0M00
M000
0000
0000
0000
0000
0000
0000
0000
,
0000
0000
0000
0000
0000
0000
0000
0000
0000
0000
M000
0000
0000
0000
000M
0000
M000
0000
00M0
0M00
0000
000M
0000
0M00
00M0
0000
0000
0000
0000
0000
0000
0000
,
0000
0000
0000
0000
0000
0000
M000
0000
0000
0000
0000
0000
000M
0000
00M0
0000
000M
0000
0M00
00M0
0000
M000
0000
00M0
0M00
0000
0000
0000
0000
0000
0000
0000
,
0000
0000
0000
0000
0000
0000
0000
0000
0000
0000
000M
0000
0000
0000
00M0
0000
000M
0000
M000
00M0
0000
0M00
0000
00M0
M000
0000
0000
0000
0000
0000
0000
0000
,
0000
0000
1000
0100
,
0010
0001
1000
0001
,
0100
0010
1000
0010
,
1000
0001
1000
0100
,
0010
0001
1000
0001
,
0100
0010
1000
0001
,
1000
0100
0010
0001
,
1000
0000
0000
0000
0000
0000
0001
0000
0000
0000
0000
0000
1000
0000
0000
0000
0000
0000
0000
0000
0000
0001
0000
0001
,
0100
0000
0100
0010
0000
0010
1000
0000
1000
0100
0000
0100
,
0010
0000
0010
0001
0000
0001
1000
0000
1000
0010
0000
0010
,
1000
0000
1000
0100
0000
0100
0010
0000
0010
0001
0000
0001
,
1000
0000
1000
0010
0000
0010
0100
0000
0100
0002
0000
0000
,
0000
0000
0000
0003
,
1000
0000
1000
0100
0000
0100
1000
0000
1000
0001
0000
0001
,
0100
0000
0100
0010
0000
0010
1000
0000
1000
0100
0000
0100
,
0010
0000
0010
0001
0000
0001
1000
0000
1000
0010
0000
0010
,
1000
0000
0000
0000
0000
0000
0100
0000
0000
0000
0000
0000
0010
0001
0010
0000
0000
0000
0002
0000
0000
0000
0000
0000
,
0000
0000
0000
0003
,
1000
0010
1000
0001
0000
0001
1000
0000
1000
0010
0000
0010
,
0100
0001
0100
0010
0000
0010
1000
0000
1000
0100
0000
0100
,
0010
0001
1000
0001
0000
0001
1000
0000
1000
0010
0000
0010
,
1000
0001
1000
0100
0010
0001
1000
0010
1000
0002
0000
0000
,
0000
0000
0000
0003
,
1000
0100
0010
0001
0000
0001
1000
0000
1000
0001
0000
0001
,
0100
0010
0100
0001
0000
0001
1000
0000
1000
0100
0000
0100
,
0010
0000
0000
0011
0000
0001
0100
0000
0000
0110
0000
0010
,
2000
3200
0320
0032
,
0000
0000
0000
0003
,
1001
0000
MM00
M0M0
M00M
M0M0
MM00
M0M0
M00M
M0M0
MM00
0000
0000
0000
0000
0000
0000
0000
0000
0000
0000
0000
0000
0000
0000
0000
0000
0000
0000
0000
0000
0000
;

//---------------dance-single - ----------------
#NOTES:
     dance-single:
     :
     Easy:
     6:
     0.386,0.419,0.134,0.089,0.082,333.000,18.000,12.000,28.000,0.000,0.000,0.386,0.419,0.134,0.089,0.082,333.000,18.000,12.000,28.000,0.000,0.000:
0000
0000
0000
0000
,
MMMM
0000
0000
0000
,
M000
0000
00M0
0000
,
M000
0000
000M
0000
,
M000
0000
0M00
0000
,
1000
1000
0001
0001
,
1000
1000
0001
0001
,
0100
0100
0010
0010
,
1000
1000
0001
0001
,
1000
1000
0100
0100
,
0010
0010
0001
0001
,
1000
1000
0010
0010
,
0100
0100
0001
0001
,
1000
0000
0000
0001
0000
0000
1000
0000
0001
0000
0000
0000
0000
0000
0000
0000
,
0000
0000
0000
0000
0100
0000
0000
0010
0000
0000
0100
0000
0010
0000
0000
0000
,
1000
0000
1000
0000
,
0001
0000
0000
0100
0000
0000
0001
0000
0100
0000
0000
0000
0000
0000
0000
0000
,
0000
0000
0000
0000
0010
0000
0000
1000
0000
0000
0010
0000
1000
0000
0000
0000
,
0001
0000
0001
0000
,
1000
0000
0000
0100
0000
0000
1000
0000
0100
0000
0000
0000
0000
0000
0000
0000
,
1000
0000
0001
0000
,
0100
0000
0000
0010
0000
0000
0100
0000
0010
0000
0000
0000
0000
0000
0000
0000
,
1000
0000
1000
0000
,
0001
0000
0000
1000
0000
0000
0001
0000
1000
0000
0000
0000
1000
0000
0000
0000
,
0001
0001
0100
0100
,
0010
1000
0010
1000
,
0001
0000
0000
1000
0001
0000
1000
0000
,
0001
1000
0010
1000
,
0010
1000
0010
0000
1000
0000
0100
0000
,
1000
0100
0010
0001
,
0010
0001
0010
0000
0000
0000
0000
0000
,
0000
0000
0001
1000
,
0001
1000
0001
0100
,
0001
0100
0001
0000
0100
0000
0010
0000
,
0100
0010
1000
0010
,
1000
0010
1000
0000
0000
0000
0000
0000
,
0000
0000
0010
1000
,
0100
0000
0010
0000
0001
0000
1000
0001
,
1000
0000
0000
0000
,
0000
0000
0001
1000
,
0010
0000
1000
0000
0100
0000
1000
0100
,
1000
0001
0000
0000
,
0000
0000
1000
0001
,
0100
0000
0010
0000
1000
0000
0001
0100
,
0001
0000
0000
0000
,
0000
0000
1000
0010
,
1000
0000
0100
1000
0100
0000
1000
0000
,
0001
1000
0001
0000
0000
0000
0000
0000
,
0000
0000
1000
1001
,
0001
0100
0010
1010
,
1000
0100
1000
1001
,
0001
0100
0010
1010
,
1000
0001
0000
0000
,
0000
0000
1000
1100
,
0100
0010
0001
0011
,
0010
0001
1000
1001
,
0001
0100
0010
1000
,
0001
0100
0001
0000
0000
0000
0000
0000
,
0000
0000
0000
0000
1000
0010
0000
1000
,
0010
0000
1000
0000
0100
1000
0000
0100
,
1000
1100
0000
0000
,
0000
0000
0000
0000
1000
0001
0000
1000
,
0001
0000
0100
0000
0010
0100
0000
0010
,
0100
0110
0000
0000
,
0000
0000
0000
0000
0010
1000
0000
0010
,
1000
0000
0001
0000
1000
0100
0000
1000
,
0100
1100
0000
0000
,
0000
0000
0000
0000
1000
0100
0000
1000
,
0100
0000
0010
0001
0010
0100
1000
0100
,
0010
0001
1000
0000
0000
0000
0000
0000
,
0000
0000
2002
3003
,
0000
0000
2002
3003
,
0000
0000
2002
3003
,
0000
0000
2002
3003
,
0000
0000
0001
1000
,
0001
1000
0010
0100
,
0010
0100
0001
1000
,
0001
1000
0100
0010
,
0100
0010
0001
1000
,
0100
0010
0001
1000
,
0001
0100
0010
1000
,
0001
0000
0010
0000
0100
0000
0000
1000
,
0100
0100
1000
1000
,
0001
0001
0100
0100
,
0010
0010
1000
1000
,
0001
0001
1000
1001
,
0000
0000
0000
0000
,
0001
0001
1000
1000
,
0100
0100
0010
0010
,
0001
0001
1000
1000
,
0001
1000
0010
1010
,
0000
0000
0000
0000
,
1000
0000
0100
1000
0000
0000
0001
0000
0000
0100
0000
0000
,
0010
0000
1000
0010
0000
0000
1000
0000
0000
0001
0000
0000
,
0010
0000
0001
0010
0000
0000
0001
0000
0000
1000
0000
0000
,
0010
0000
0100
0010
0000
0000
1000
0000
0000
1010
0000
0000
,
0000
0000
0000
0000
,
0010
0000
1000
0010
0000
0000
1000
0000
0000
0100
0000
0000
,
0010
0000
0001
0010
0000
0000
0001
0000
0000
1000
0000
0000
,
0001
0000
0000
0100
0000
0010
0100
0000
0000
0001
0000
0100
,
0002
2003
3200
2300
,
0000
0000
0000
3000
,
1001
0000
MM00
M0M0
M00M
M0M0
MM00
M0M0
M00M
M0M0
MM00
0000
0000
0000
0000
0000
0000
0000
0000
0000
0000
0000
0000
0000
0000
0000
0000
0000
0000
0000
0000
0000
;

//---------------dance-single - ----------------
#NOTES:
     dance-single:
     :
     Beginner:
     2:
     0.136,0.190,0.037,0.000,0.000,123.000,5.000,0.000,0.000,0.000,0.000,0.136,0.190,0.037,0.000,0.000,123.000,5.000,0.000,0.000,0.000,0.000: // measure 1
0000
0000
0000
0000
,  // measure 2
0000
0000
0000
0000
,  // measure 3
0000
0000
0000
0000
,  // measure 4
0000
0000
0000
0000
,  // measure 5
0000
0000
0000
0000
,  // measure 6
1000
0000
0000
0000
,  // measure 7
0001
0000
0000
0000
,  // measure 8
1000
0000
0000
0000
,  // measure 9
0001
0000
0000
0000
,  // measure 10
0100
0000
0000
0000
,  // measure 11
0010
0000
0000
0000
,  // measure 12
0100
0000
0000
0000
,  // measure 13
0010
0000
0000
0000
,  // measure 14
1000
0000
1000
0000
,  // measure 15
0000
0001
0000
0001
,  // measure 16
1000
0000
1000
0000
,  // measure 17
0001
0000
0001
0000
,  // measure 18
0000
0100
0000
0100
,  // measure 19
0010
0000
0010
0000
,  // measure 20
1000
0000
1000
0000
,  // measure 21
0000
0000
0000
0000
,  // measure 22
0001
0000
0001
0000
,  // measure 23
1000
0000
1000
0000
,  // measure 24
0001
0000
0001
0000
,  // measure 25
0000
0000
0000
0000
,  // measure 26
1000
1000
1000
1000
,  // measure 27
1000
0000
0001
0000
,  // measure 28
0000
0000
0000
0000
,  // measure 29
0000
1000
1000
0000
,  // measure 30
0000
0000
0000
0000
,  // measure 31
0010
0010
0000
0000
,  // measure 32
0000
0000
0100
0000
,  // measure 33
0000
0000
0000
0000
,  // measure 34
0000
0001
0001
0000
,  // measure 35
0000
0000
0000
0000
,  // measure 36
1000
1000
0000
0000
,  // measure 37
0000
0000
1000
0000
,  // measure 38
0000
0000
0000
0000
,  // measure 39
0000
0001
0000
0000
,  // measure 40
0000
0000
0001
0000
,  // measure 41
0000
0000
0000
0000
,  // measure 42
0000
0100
0000
0000
,  // measure 43
0000
0000
0100
0000
,  // measure 44
0000
0000
0000
0000
,  // measure 45
0000
0010
0000
0000
,  // measure 46
0000
0000
0010
0000
,  // measure 47
0000
0000
0000
0000
,  // measure 48
0000
1000
0000
0000
,  // measure 49
0000
0000
1000
0000
,  // measure 50
1000
0000
0001
0000
,  // measure 51
0001
0000
0100
0000
,  // measure 52
0100
0000
0010
0000
,  // measure 53
0010
0000
0000
0000
,  // measure 54
0000
0000
1000
0000
,  // measure 55
1000
0000
0001
0000
,  // measure 56
0001
0000
0010
0000
,  // measure 57
0010
0000
0100
0000
,  // measure 58
0100
0000
0000
0000
,  // measure 59
0000
0000
1000
0000
,  // measure 60
1000
0000
0001
0000
,  // measure 61
0001
0000
0000
0000
,  // measure 62
0000
0000
0100
0000
,  // measure 63
0100
0000
0010
0000
,  // measure 64
0010
0000
0000
0000
,  // measure 65
0000
0000
1000
0000
,  // measure 66
1000
0000
0001
0000
,  // measure 67
0001
0000
0000
0000
,  // measure 68
0000
0000
1000
0000
,  // measure 69
1000
0000
0001
0001
,  // measure 70
0001
0001
0000
0000
,  // measure 71
0000
0000
0001
0000
,  // measure 72
0000
0000
0001
0000
,  // measure 73
0000
0000
1000
0000
,  // measure 74
0000
0000
1000
0000
,  // measure 75
0000
0000
0001
0000
,  // measure 76
0000
0000
1000
0000
,  // measure 77
0000
0000
0010
0000
,  // measure 78
0000
0000
0100
0000
,  // measure 79
0000
0000
0101
0000
,  // measure 80
0000
0000
1001
0000
,  // measure 81
0000
0000
1100
0000
,  // measure 82
0000
0000
0110
0000
,  // measure 83
0010
0000
0010
0000
,  // measure 84
0010
0000
0000
0000
,  // measure 85
0100
0000
0100
0000
,  // measure 86
0100
0000
0000
0000
,  // measure 87
0000
0000
0000
0000
,  // measure 88
1000
0000
1000
0000
,  // measure 89
1000
0000
0000
0000
,  // measure 90
0001
0000
0001
0000
,  // measure 91
0001
0000
0000
0000
,  // measure 92
0000
0000
0000
0000
,  // measure 93
1000
0000
0001
0000
,  // measure 94
1000
0000
0000
0000
,  // measure 95
0010
0000
0100
0000
,  // measure 96
0010
0000
0000
0000
,  // measure 97
0000
0000
0000
0000
,  // measure 98
0100
0000
0001
0000
,  // measure 99
0100
0000
0000
0000
,  // measure 100
0001
0000
1000
0000
,  // measure 101
0001
0000
1000
0000
,  // measure 102
0000
0000
0000
0000
,  // measure 103
1001
0000
0000
0000
;
