#VERSION:0.81;
#TITLE:Electric Walk;
#SUBTITLE:feat. Dev;
#ARTIST:Nytrix;
#TITLETRANSLIT:;
#SUBTITLETRANSLIT:;
#ARTISTTRANSLIT:;
#GENRE:;
#ORIGIN:;
#CREDIT:;
#BANNER:;
#BACKGROUND:;
#PREVIEWVID:;
#JACKET:jacket.png;
#CDIMAGE:;
#DISCIMAGE:;
#LYRICSPATH:;
#CDTITLE:;
#MUSIC:Electric Walk.ogg;
#OFFSET:-0.109690;
#SAMPLESTART:35.715878;
#SAMPLELENGTH:12.000000;
#SELECTABLE:YES;
#BPMS:0.000=128.000;
#STOPS:;
#DELAYS:;
#WARPS:;
#TIMESIGNATURES:0.000=4=4;
#TICKCOUNTS:0.000=4;
#COMBOS:0.000=1;
#SPEEDS:0.000=1.000=0.000=0;
#SCROLLS:0.000=1.000;
#FAKES:;
#LABELS:0.000=Song Start;
#BGCHANGES:;
#KEYSOUNDS:;
#ATTACKS:
;

//---------------dance-single - ----------------
#NOTEDATA:;
#CHARTNAME:;
#STEPSTYPE:dance-single;
#DESCRIPTION:;
#CHARTSTYLE:;
#DIFFICULTY:Beginner;
#METER:1;
#RADARVALUES:0.112569,0.127337,0.021297,0.000000,0.000000,108.000000,3.000000,0.000000,0.000000,0.000000,0.000000,0.000000,0.000000,0.112569,0.127337,0.021297,0.000000,0.000000,108.000000,3.000000,0.000000,0.000000,0.000000,0.000000,0.000000,0.000000;
#CREDIT:;
#NOTES:
0000
0000
0000
0000
,
0000
0000
0000
0000
,
0000
0000
0000
0000
,
0000
0000
0000
0000
,
1000
0000
1000
0000
,
0001
0000
0000
0000
,
0001
0000
0001
0000
,
1000
0000
0000
0000
,
0010
0000
0010
0000
,
0100
0000
0000
0000
,
0100
0000
0100
0000
,
0010
0000
0000
0000
,
1000
0000
1000
0000
,
0100
0000
0100
0000
,
0010
0000
0010
0000
,
0001
0000
0001
0000
,
0100
0000
0100
0000
,
0010
0000
0010
0000
,
1000
0000
1000
0000
,
1001
0000
0000
0000
,
0001
0000
0010
0000
,
0100
0000
1000
0000
,
0010
0000
0010
0000
,
0010
0000
0010
0000
,
1000
0000
0010
0000
,
0100
0000
0001
0000
,
1000
0000
1000
0000
,
1000
0000
1000
0000
,
1001
0000
0000
0000
,
0000
0000
0000
0000
,
0000
0000
0000
0000
,
0000
0000
0000
0000
,
0000
0000
0000
0000
,
0000
0000
0000
0000
,
0000
0000
0000
0000
,
0000
0000
0000
0000
,
1000
0000
0000
0000
,
0100
0000
0000
0000
,
0010
0000
0000
0000
,
0001
0000
0000
0000
,
0100
0000
0000
0000
,
0010
0000
0000
0000
,
1000
0000
0000
0000
,
0001
0000
0000
0000
,
1000
0000
1000
0000
,
0010
0000
0010
0000
,
0100
0000
0100
0000
,
0001
0000
0001
0000
,
0010
0000
0010
0000
,
0100
0000
0100
0000
,
1000
0000
1000
0000
,
1001
0000
0000
0000
,
1000
0000
0010
0000
,
0100
0000
0001
0000
,
0010
0000
0010
0000
,
0010
0000
0010
0000
,
0001
0000
0100
0000
,
0010
0000
1000
0000
,
0100
0000
0100
0000
,
0100
0000
0100
0000
,
1000
0000
0010
0000
,
0100
0000
0001
0000
,
0010
0000
0010
0000
,
0010
0000
0010
0000
,
0001
0000
1000
0000
,
0010
0000
0100
0000
,
0001
0000
0001
0000
,
0001
0000
0001
0000
,
1000
0000
0001
0000
,
1000
0000
0001
0000
,
0100
0000
0010
0000
,
0100
0000
0010
0010
;

//---------------dance-single - ----------------
#NOTEDATA:;
#CHARTNAME:;
#STEPSTYPE:dance-single;
#DESCRIPTION:;
#CHARTSTYLE:;
#DIFFICULTY:Easy;
#METER:5;
#RADARVALUES:0.259619,0.361514,0.255562,0.056792,0.000000,212.000000,36.000000,8.000000,0.000000,0.000000,0.000000,0.000000,0.000000,0.259619,0.361514,0.255562,0.056792,0.000000,212.000000,36.000000,8.000000,0.000000,0.000000,0.000000,0.000000,0.000000;
#CREDIT:;
#NOTES:
0000
0000
0000
0000
,
0000
0000
0000
0000
,
0000
0000
0000
0000
,
0000
0000
0000
0000
,
1000
0100
1000
0001
,
1000
0010
1000
0000
,
0001
0100
0001
1000
,
0001
0010
0001
0000
,
1000
0010
0100
0001
,
1000
0010
0100
0000
,
0001
0010
0100
1000
,
0001
0010
0100
0000
,
1000
1000
0001
0001
,
1000
1000
0001
0001
,
0100
0100
0010
0010
,
0100
0100
0010
0010
,
1000
0100
0010
0001
,
1000
0100
0010
0001
,
1000
0001
1000
0001
,
2002
0000
3003
1001
,
1100
0001
0100
0001
,
1010
0001
1000
0001
,
1000
1000
1000
1000
,
0001
0001
0001
0001
,
1000
1010
0001
0011
,
1000
1100
0001
0101
,
1000
1000
1000
1000
,
0001
0001
0001
2002
,
0000
0000
0000
0000
,
0000
0000
0000
0000
,
0000
0000
0000
0000
,
0000
0000
0000
3003
,
1000
0000
0000
0000
,
0001
0000
0000
0000
,
0100
0000
0000
0000
,
0010
0000
0000
0000
,
1000
0000
0000
0000
,
0100
0000
0000
0000
,
0010
0000
0000
0000
,
0001
0000
0000
0000
,
0100
0000
0000
0000
,
0010
0000
0000
0000
,
1000
0000
0000
0000
,
0001
0000
0000
0000
,
1000
1100
1000
1100
,
0001
0101
0001
0101
,
0100
0110
0100
0110
,
0010
1010
0010
1010
,
1000
0100
1000
0100
,
0100
0010
0100
0010
,
0010
0001
0010
0001
,
2002
0000
3003
1001
,
0101
1000
0001
1000
,
0011
1000
0001
1000
,
0001
0001
0001
0001
,
1000
1000
1000
1000
,
0101
1000
0001
1000
,
0011
1000
0001
1000
,
0001
0001
0001
0001
,
1000
1000
1000
1001
,
1100
0001
1000
0001
,
1010
0001
1000
0001
,
1000
1000
1000
1000
,
0001
0001
0001
0001
,
0101
1000
0010
1000
,
0101
0001
1000
0001
,
1000
0100
0010
0001
,
0100
0010
0100
0010
,
1000
1100
0001
0101
,
1000
1010
0001
0011
,
0100
1001
0010
1001
,
0100
1010
0100
2002
,
0000
0000
0000
3003
;

//---------------dance-single - ----------------
#NOTEDATA:;
#CHARTNAME:;
#STEPSTYPE:dance-single;
#DESCRIPTION:;
#CHARTSTYLE:;
#DIFFICULTY:Medium;
#METER:7;
#RADARVALUES:0.336693,0.438981,0.205869,0.113583,0.014198,287.000000,29.000000,16.000000,0.000000,0.000000,0.000000,0.000000,0.000000,0.336693,0.438981,0.205869,0.113583,0.014198,287.000000,29.000000,16.000000,0.000000,0.000000,0.000000,0.000000,0.000000;
#CREDIT:;
#NOTES:
0000
0000
0000
0000
,
0000
0000
0000
0000
,
0000
0000
0000
0000
,
0000
0000
0000
0000
,
1000
0100
0010
0000
0100
0000
1000
0001
,
1000
0001
0100
0000
,
0001
0010
0001
0000
1000
0000
0010
0100
,
0010
1000
0001
0000
,
1000
0100
0010
0000
0001
0000
1000
0010
,
0100
0001
1000
0000
,
0001
0010
0100
0000
1000
0000
0001
0100
,
0010
1000
0001
0000
,
0000
1000
0001
1000
0001
0000
1000
0000
,
0000
0001
0100
0001
0100
0000
0001
0000
,
0000
1000
0010
1000
0010
0000
1000
0000
,
0000
0001
0010
0001
0010
0000
0001
0000
,
0000
1000
1000
0000
0001
0000
0001
0000
,
0000
0100
0100
0000
0010
0000
0010
0000
,
1000
0100
0010
0000
0001
0100
0010
0000
,
2002
0000
3003
0110
,
1000
0001
1000
0000
0001
1000
0001
0000
,
0100
0010
0100
0000
0010
0100
0010
0000
,
1000
1000
1000
0000
0100
0100
0100
0000
,
0010
0010
0010
0000
0001
0001
0001
0000
,
1000
0010
0100
0000
0001
0010
0100
0000
,
1000
0100
0010
0000
0001
0100
0010
0000
,
1000
1000
1000
0000
0100
0100
0100
0000
,
0010
0010
0010
0000
0001
0001
1001
2002
,
0000
0000
0000
0000
,
0000
0000
0000
0000
,
0000
0000
0000
0000
,
0000
0000
0000
3003
,
1000
0000
0000
0000
1000
0000
0000
1000
0000
0000
0000
0000
0000
0000
0000
0000
,
0001
0000
0000
0000
0001
0000
0000
0001
0000
0000
0000
0000
0000
0000
0000
0000
,
1000
0000
0000
0000
1000
0000
0000
1000
0000
0000
0000
0000
0000
0000
0000
0000
,
0001
0000
0000
0000
0001
0000
0000
0001
0000
0000
0000
0000
0000
0000
0000
0000
,
2100
0000
0000
0000
0000
0000
0000
0001
,
3002
0000
0000
0003
,
0102
0000
0000
0000
0000
0000
0000
1000
,
2003
0000
0000
3000
,
2010
0000
0000
0000
0000
0000
0000
0001
,
3002
0000
0000
0003
,
0012
0000
0000
0000
0000
0000
0000
1000
,
2003
0000
0000
3000
,
0011
0000
0001
0100
0010
0000
0100
0000
,
1010
0010
1000
0100
,
1100
0000
0100
0010
0001
0000
0100
0000
,
0110
0010
0100
0001
,
1001
0000
0001
0010
0100
0000
1000
0000
,
1010
0010
0100
0001
,
1000
0001
1000
0001
,
2002
0000
3003
0110
,
1001
0001
0100
0000
0001
1000
0100
0000
,
1000
0001
0010
0000
0001
1000
0010
0000
,
0100
0100
0100
0000
0010
0010
0010
0000
,
1000
1000
1000
0000
0001
0001
0001
0000
,
0010
0001
0100
0000
0010
1000
0100
0000
,
1000
0010
0100
0000
0001
0010
0100
0000
,
1000
1000
1000
0000
0010
0010
0010
0000
,
0100
0001
0010
0110
,
0010
0001
0100
0000
0010
1000
0100
0000
,
1000
0001
0100
0000
0001
1000
0100
0000
,
1000
1000
1000
0000
0001
0001
0001
0000
,
0100
0100
0100
0000
0010
0010
0010
0000
,
1000
0100
0010
0000
0001
0100
0010
0000
,
1000
0010
0100
0000
0001
0010
0100
0000
,
1000
1000
1000
0000
0001
0001
0001
0000
,
0100
0010
0100
1001
,
1000
1100
0001
0101
,
1000
1010
0001
0011
,
0100
1001
0010
1001
,
0100
0000
0101
0000
1010
0000
1001
2002
,
0000
0000
0000
3003
;

//---------------dance-single - ----------------
#NOTEDATA:;
#CHARTNAME:;
#STEPSTYPE:dance-single;
#DESCRIPTION:;
#CHARTSTYLE:;
#DIFFICULTY:Hard;
#METER:8;
#RADARVALUES:0.448248,0.517336,0.220067,0.113583,0.028396,395.000000,31.000000,16.000000,0.000000,0.000000,0.000000,0.000000,0.000000,0.448248,0.517336,0.220067,0.113583,0.028396,395.000000,31.000000,16.000000,0.000000,0.000000,0.000000,0.000000,0.000000;
#CREDIT:;
#NOTES:
0000
0000
0000
0000
,
0000
0000
0000
0000
,
0000
0000
0000
0000
,
0000
0000
0000
0000
,
1000
0100
0010
0000
0100
0000
1000
0001
,
0100
0000
0001
0000
1000
0000
0000
0001
,
0010
0100
1000
0100
1000
0010
0100
0010
,
0100
0000
0001
0000
0001
0000
1000
0100
,
1000
0010
0100
0010
1000
0000
0001
0010
,
0100
0010
0000
0001
0000
0001
0100
0010
,
0100
0001
1000
0100
0010
0000
0100
1000
,
0010
0100
0000
0100
0001
0000
0001
0000
,
1000
0001
0100
0010
1000
0001
0100
0010
,
0000
1000
0010
0100
0000
0100
0010
1000
,
0000
0001
0010
0100
1000
0001
0010
0100
,
1000
1000
0100
0010
0001
1000
0100
0010
,
0001
0001
0100
0100
0010
0010
1000
0000
,
1000
1000
0100
0100
0010
0010
0001
0000
,
1000
0001
0100
0000
0001
1000
0100
0000
,
2002
0000
3003
0110
,
1001
0001
0010
0100
1000
1000
0010
0100
,
0001
0001
0010
0100
1000
1000
0010
0100
,
0001
0010
0100
1000
0001
0010
0100
1000
,
0001
0100
0010
1000
0001
0100
0010
1000
,
0001
0001
1000
0100
1000
1000
0001
0100
,
0001
0001
1000
0010
1000
1000
0001
0010
,
0001
0100
0010
1000
0001
0100
0010
1000
,
0100
0010
0001
0100
0010
0100
1001
2002
,
0000
0000
0000
0000
,
0000
0000
0000
0000
,
0000
0000
0000
0000
,
0000
0000
0000
0000
0000
0000
0000
3003
,
1000
0000
0000
0000
0001
0000
0000
0100
0000
0000
0000
0000
0000
0000
0000
0000
,
0001
0000
0000
0000
1000
0000
0000
0100
0000
0000
0000
0000
0000
0000
0000
0000
,
1000
0000
0000
0000
0001
0000
0000
0010
0000
0000
0000
0000
0000
0000
0000
0000
,
0001
0000
0000
0000
1000
0000
0000
0010
0000
0000
0000
0000
0000
0000
0000
0000
,
1001
0000
0000
0001
0100
0000
0010
0000
,
0200
0000
0000
0302
0000
0000
1003
0000
,
1001
0000
0000
1000
0010
0000
1000
0000
,
0200
0000
0000
2300
0000
0000
3001
0000
,
0011
0000
0000
0100
1000
0000
0001
0000
,
2000
0000
0000
3200
0000
0000
1300
0000
,
1010
0000
0000
0100
0001
0000
1000
0000
,
0002
0000
0000
0203
0000
0000
0301
0000
,
1001
0000
0001
0100
0010
0000
0100
0000
,
0001
0000
0010
0100
0000
0100
0010
0000
,
1001
0000
1000
0010
0100
0000
0010
0000
,
1000
0000
0100
0010
0000
0010
0100
0000
,
1000
1000
0001
0001
0100
0100
0010
0010
,
1000
1000
0100
0100
0010
0010
0001
0001
,
1000
0010
0100
0001
1000
0010
0100
0001
,
2002
0000
3003
0110
,
1001
0001
0010
0100
1000
1000
0010
0100
,
0001
0001
0010
0100
1000
1000
0010
0100
,
0001
0010
0100
1000
0001
0100
0010
1000
,
0001
0010
0100
1000
0001
0100
0010
1000
,
0001
0001
1000
0100
1000
1000
0001
0100
,
0001
0001
1000
0010
1000
1000
0001
0010
,
0001
0100
0010
1000
0001
0100
0010
1000
,
0100
0010
0100
0010
0100
0010
0110
0000
,
1001
0001
1000
0100
1000
1000
0001
0100
,
0001
0001
1000
0010
1000
1000
0001
0010
,
0001
0100
0010
1000
0001
0100
0010
1000
,
0001
0010
0100
1000
0001
0010
1001
0000
,
0001
0001
1000
0010
1000
1000
0001
0100
,
0001
0001
1000
0100
1000
1000
0001
0010
,
0001
0010
0100
1000
0001
0100
0010
1000
,
0100
0100
0010
0100
0010
0100
0110
0000
,
1001
0000
0000
0000
0101
0000
0000
0001
0100
0000
0000
0000
0110
0000
0000
0000
,
1010
0000
0000
0000
1001
0000
0000
0001
0010
0000
0000
0000
0110
0000
0000
0000
,
1100
0000
0000
0000
1010
0000
0000
1000
0001
0000
0000
0000
0101
0000
0000
0000
,
0011
0000
0000
0000
0110
0000
0000
0100
1000
0000
0000
0000
1001
0000
0220
0000
,
0000
0000
0000
0000
0000
0000
0000
0330
;

//---------------dance-single - ----------------
#NOTEDATA:;
#CHARTNAME:;
#STEPSTYPE:dance-single;
#DESCRIPTION:;
#CHARTSTYLE:;
#DIFFICULTY:Challenge;
#METER:10;
#RADARVALUES:0.627750,0.827737,0.184573,0.134880,0.589212,574.000000,26.000000,19.000000,4.000000,0.000000,0.000000,0.000000,0.000000,0.627750,0.827737,0.184573,0.134880,0.589212,574.000000,26.000000,19.000000,4.000000,0.000000,0.000000,0.000000,0.000000;
#CREDIT:;
#NOTES:
// measure 0
0000
0000
0000
0000
,  // measure 1
0000
0000
0000
0000
,  // measure 2
0000
0000
0000
0000
,  // measure 3
0000
0000
0000
0000
,  // measure 4
1000
0000
0100
1000
0100
0000
0000
0000
0010
0000
0001
0010
0001
0000
0000
0000
,  // measure 5
1000
0000
0001
1000
0001
0000
0000
0000
0100
0000
0010
0100
0010
0000
0000
0000
,  // measure 6
1000
0000
0010
1000
0010
0000
0000
0000
0100
0000
0001
0100
0001
0000
0000
0000
,  // measure 7
1000
0000
0001
1000
0001
0000
0000
0000
0010
0000
0100
0010
0100
0000
0000
0000
,  // measure 8
1000
0000
0001
0100
0001
0000
0000
0000
1000
0000
0001
0010
0001
0000
0000
0000
,  // measure 9
0001
0000
1000
0100
1000
0000
0000
0000
0001
0000
1000
0010
1000
0000
0000
0000
,  // measure 10
0001
0000
0100
0010
0100
0000
0000
0000
0010
0000
1000
0010
1000
0000
0000
0000
,  // measure 11
0100
0000
1000
0100
1000
0000
0000
0000
0010
0000
0100
0010
0100
0000
0000
0000
,  // measure 12
0001
0000
0010
0100
1000
0000
0010
0100
0001
0000
1000
0100
0010
0000
0001
0000
,  // measure 13
1000
0000
0010
0100
0010
0000
1000
0000
0001
0000
1000
0100
1000
0000
0001
0000
,  // measure 14
0100
0000
0010
0000
0100
0000
0001
0010
0100
0000
1000
0010
0100
0000
0001
0000
,  // measure 15
1000
0000
1000
0000
0001
0000
0001
0000
0100
0010
0100
0010
1000
0000
0001
0000
,  // measure 16
1000
0000
0100
0010
0001
0010
0100
0010
0001
0000
0100
0000
0010
0000
0000
0000
,  // measure 17
0100
0000
0001
0010
0100
0000
0100
1000
0010
1000
0010
0100
0001
0000
0000
0000
,  // measure 18
1000
0001
0100
0001
0100
0000
0000
0000
0001
1000
0100
1000
0100
0000
0000
0000
,  // measure 19
2002
0000
3003
0110
,  // measure 20
1001
0000
0001
0010
0100
0000
0010
0000
0001
0000
1000
0010
0100
0000
0010
0000
,  // measure 21
1000
0000
0001
0100
0001
0000
1000
0000
0001
0000
1000
0100
1000
0000
0001
0000
,  // measure 22
1000
0100
1000
0100
0010
0001
0010
0001
0100
0010
0100
0010
1000
0001
1000
0001
,  // measure 23
1000
0100
0010
0100
1000
0010
0100
0010
1000
0001
0100
0001
1000
0100
1000
0001
,  // measure 24
1000
0000
0010
0100
0010
0000
1000
0000
0001
0000
0010
0100
0010
0000
0001
0000
,  // measure 25
1000
0000
0100
0010
0100
0000
1000
0000
0001
0000
0100
0010
0100
0000
0001
0000
,  // measure 26
1000
0100
1000
0100
0010
0001
0010
0001
0100
0010
0100
0010
1000
0010
1000
0010
,  // measure 27
0100
0010
0100
0010
0100
0001
0100
0001
1000
0001
1000
0001
0100
0000
0200
0000
,  // measure 28
0000
0000
0000
0000
,  // measure 29
0000
0000
0000
0000
,  // measure 30
0000
0000
0000
0000
,  // measure 31
0000
0000
0000
0000
0000
0000
0000
0300
,  // measure 32
0001
0000
0000
0001
0010
0100
0000
2000
000M
0000
0000
0000
3000
0000
0000
0000
,  // measure 33
1000
0000
0000
1000
0010
0100
0000
0002
M000
0000
0000
0000
0003
0000
0000
0000
,  // measure 34
0001
0000
0000
0001
1000
0100
0000
2000
000M
0000
0000
0000
3000
0000
0000
0000
,  // measure 35
1000
0000
0000
1000
0001
0010
0000
0002
M000
0000
0000
0000
0003
0000
0000
0000
,  // measure 36
1001
0000
0000
1000
0100
0000
1000
0001
,  // measure 37
0002
0000
0000
0203
0000
0000
0301
0000
,  // measure 38
1001
0000
0000
1000
0010
0000
1000
0001
,  // measure 39
0002
0000
0000
0023
0000
0000
0031
0000
,  // measure 40
1001
0000
0000
0001
0100
0000
0001
1000
,  // measure 41
2000
0000
0000
3200
0000
0000
1300
0000
,  // measure 42
1001
0000
0000
0001
0010
0000
0001
1000
,  // measure 43
2000
0000
0000
3020
0000
0000
1030
0000
,  // measure 44
1001
0001
0100
0001
1000
1000
0100
1000
,  // measure 45
0001
0001
0010
0001
1000
1000
0010
1000
,  // measure 46
0001
0100
0010
1000
0001
0100
0010
1000
,  // measure 47
0001
0010
0100
1000
0001
0010
0100
1000
,  // measure 48
0001
0001
0100
0100
0010
0010
1000
1000
,  // measure 49
0100
0100
0010
0010
0001
0001
1000
1000
,  // measure 50
0001
0010
0100
1000
0001
0010
0100
1000
0001
0010
0100
1000
0001
0010
0100
2000
,  // measure 51
0000
0000
0000
0000
3000
0000
1001
0110
,  // measure 52
1001
0000
0001
1000
0100
0000
1000
0000
0001
0000
1000
0001
0100
0000
0001
0000
,  // measure 53
1000
0000
0001
1000
0010
0000
1000
0000
0001
0000
1000
0001
0010
0000
0001
0000
,  // measure 54
1000
0001
0100
0001
1000
0001
0100
0001
1000
0001
0010
0001
1000
0001
0010
0001
,  // measure 55
1000
0100
0010
0100
1000
0100
0010
0100
1000
0010
0100
0010
1000
0010
0100
0010
,  // measure 56
1000
0000
0001
0010
0100
0000
0010
0000
0001
0000
1000
0010
0100
0000
0010
0000
,  // measure 57
1000
0000
0001
0100
0010
0000
0100
0000
0001
0000
1000
0100
0010
0000
0100
0000
,  // measure 58
1000
0001
1000
0001
1000
0010
1000
0010
1000
0001
1000
0001
1000
0100
1000
0100
,  // measure 59
1000
0010
0100
0001
1000
0010
0100
0001
0010
0100
1000
0001
1000
0000
1000
0000
,  // measure 60
0001
0000
1000
0010
0100
0000
0010
0000
1000
0000
0001
0010
0100
0000
0010
0000
,  // measure 61
0001
0000
1000
0100
0010
0000
0100
0000
1000
0000
0001
0100
0010
0000
0100
0000
,  // measure 62
0001
1000
0010
0100
0001
1000
0010
0100
0001
0010
0100
1000
0001
0010
0100
1000
,  // measure 63
0001
0100
0001
0100
0010
0100
0010
0100
0010
1000
0010
1000
0020
0000
0000
0000
,  // measure 64
1030
0000
0100
0010
0001
0000
1000
0000
0001
0000
0010
0100
1000
0000
0001
0000
,  // measure 65
1000
0000
0010
0100
0001
0000
1000
0000
0001
0000
0100
0010
1000
0000
0001
0000
,  // measure 66
1000
0100
0010
0100
1000
0010
0100
0010
1000
0001
1000
0001
0010
0100
0010
0100
,  // measure 67
1000
1000
0001
0001
0100
0100
1001
0011
,  // measure 68
1001
0000
0000
0000
1100
0000
0000
1000
0010
0000
0000
0000
0110
0000
0000
0000
,  // measure 69
0101
0000
0000
0000
0011
0000
0000
0001
1000
0000
0000
0000
1010
0000
0000
0000
,  // measure 70
1100
0000
0000
0000
0011
0000
0000
0010
0100
0000
0000
0000
1001
0000
0000
0000
,  // measure 71
0101
0000
0000
0000
1010
0000
0000
0010
0100
0000
0000
0000
0110
0000
2002
0000
,  // measure 72
0000
0000
0000
0000
0000
0000
0000
3003
;
