#VERSION:0.81;
#TITLE:Deadbeat Boyfriend;
#SUBTITLE:(Super Science "Type BF" Remix);
#ARTIST:Lucky Princess;
#TITLETRANSLIT:;
#SUBTITLETRANSLIT:;
#ARTISTTRANSLIT:;
#GENRE:;
#ORIGIN:;
#CREDIT:;
#BANNER:Deadbeat Boyfriend (Super Science Type BF Remix)-bn.png;
#BACKGROUND:Deadbeat Boyfriend (Super Science Type BF Remix)-bg.png;
#PREVIEWVID:;
#JACKET:;
#CDIMAGE:;
#DISCIMAGE:;
#LYRICSPATH:;
#CDTITLE:;
#MUSIC:Deadbeat Boyfriend (Super Science Type BF Remix).mp3;
#OFFSET:-12.460;
#SAMPLESTART:44.600;
#SAMPLELENGTH:14.457;
#SELECTABLE:YES;
#DISPLAYBPM:88.000:175.000;
#BPMS:0.000=175.000,
28.000=87.500,
29.000=175.000,
30.000=349.999,
32.000=175.000,
60.000=87.500,
62.000=175.000,
194.000=87.500,
202.000=175.000,
247.000=87.500,
248.000=175.000;
#STOPS:92.000=0.360,
130.000=0.150,
130.500=0.130,
131.000=0.060,
160.000=0.150,
160.500=0.150,
161.000=0.150,
161.500=0.210,
246.000=0.360,
286.000=0.170,
286.500=0.170,
315.000=0.170,
315.500=0.170,
316.000=0.150,
316.500=0.190;
#DELAYS:;
#WARPS:;
#TIMESIGNATURES:0.000=4=4;
#TICKCOUNTS:0.000=4;
#COMBOS:0.000=1;
#SPEEDS:0.000=1.000=0.000=0;
#SCROLLS:0.000=1.000;
#FAKES:;
#LABELS:0.000=Song Start;
#BGCHANGES:;
#KEYSOUNDS:;
#ATTACKS:
;

//---------------dance-single - ----------------
#NOTEDATA:;
#CHARTNAME:;
#STEPSTYPE:dance-single;
#DESCRIPTION:;
#CHARTSTYLE:;
#DIFFICULTY:Hard;
#METER:9;
#RADARVALUES:0.650,0.686,0.221,0.071,0.150,596.000,31.000,10.000,0.000,0.000,0.000,0.000,0.000,0.650,0.686,0.221,0.071,0.150,596.000,31.000,10.000,0.000,0.000,0.000,0.000,0.000;
#CREDIT:;
#NOTES:
// measure 0
1000
0000
0100
0000
0010
0000
0001
0000
0010
0000
0100
1000
0100
0000
1000
0000
,  // measure 1
0001
0000
0010
0001
0010
0000
0001
0000
1000
0000
0010
1000
0010
0000
1000
0000
,  // measure 2
0100
0000
0001
0100
1000
0000
1000
0100
,  // measure 3
0001
0000
1000
0100
0001
0100
1000
0000
,  // measure 4
0010
0000
0010
0000
0100
0000
0100
0000
0001
0000
0010
0100
0010
0000
0100
0000
,  // measure 5
1000
0000
0100
0010
0100
0000
0010
0000
0001
0000
0001
0100
0001
0000
1000
0000
,  // measure 6
0100
0010
0001
0010
0100
1000
0001
1000
,  // measure 7
0200
0000
0000
0000
0000
0300
0000
0000
,  // measure 8
1000
0100
0001
0100
,  // measure 9
1000
0010
0001
0010
,  // measure 10
1000
1000
0001
0001
,  // measure 11
1000
0001
1000
0001
,  // measure 12
1000
0100
0010
0001
0010
0100
1000
0000
,  // measure 13
0001
0100
1000
0000
1000
0100
0001
0000
,  // measure 14
0001
0010
0100
1000
0100
0010
0001
0000
,  // measure 15
2002
3003
1100
1001
,  // measure 16
0001
0100
1000
0000
0011
0000
1001
0000
,  // measure 17
1000
0100
0001
0000
0010
0100
0010
0000
,  // measure 18
1000
0001
1000
0000
0100
0010
0100
0000
,  // measure 19
0001
0000
1000
0000
0001
0000
0000
0000
1000
0000
0000
0100
0000
0000
0001
0000
,  // measure 20
0100
0000
0000
0010
0000
0000
1000
0000
0010
0000
0000
0001
0000
0000
1000
0000
,  // measure 21
0100
0000
0000
1000
0000
0000
0001
0000
0100
0000
0001
0000
0010
0000
0100
0000
,  // measure 22
1000
0001
1000
0000
2002
0000
0000
0000
,  // measure 23
3003
0000
1000
0100
0001
0100
1000
0100
,  // measure 24
0001
0000
0001
0010
1000
0010
0001
0010
,  // measure 25
1000
0000
1000
0100
0100
0000
0001
0010
,  // measure 26
0010
0000
1000
0100
0001
0000
0001
0100
,  // measure 27
1000
0000
1000
0100
1000
0100
0010
0001
,  // measure 28
0010
0000
0001
0010
0100
0010
0100
1000
,  // measure 29
0001
0000
0001
0010
0010
0000
1000
0100
,  // measure 30
0100
0000
1000
0010
0010
0000
0001
0100
,  // measure 31
0100
0000
1000
0100
0001
0100
1000
0000
,  // measure 32
0010
0000
1000
0000
1100
0101
1001
0000
,  // measure 33
0100
0000
1000
0000
0100
0000
0010
0000
0001
0000
1000
0100
1000
0000
0001
0000
,  // measure 34
0100
0000
0001
0010
0001
0000
1000
0000
0010
0000
1000
0100
0010
0000
0001
0000
,  // measure 35
1000
0100
1000
0001
0100
0000
0100
1000
,  // measure 36
0001
0100
0001
0010
0100
1000
0001
0000
,  // measure 37
1000
0000
0100
0000
0001
0000
1000
0000
0001
0000
0010
0001
0010
0000
1000
0000
,  // measure 38
0001
0000
1000
0010
1000
0000
0100
0000
0010
0000
0001
1000
0100
0000
1000
0000
,  // measure 39
0100
1000
0001
0100
0001
0010
0100
1000
,  // measure 40
1100
0110
0011
1001
1000
0010
1000
0001
,  // measure 41
1000
0000
0001
1000
0001
0000
0010
0000
0100
0000
0010
1000
0010
0000
1000
0000
,  // measure 42
0001
0000
0100
0001
0100
0000
0001
0000
1000
0000
0100
0000
0010
0000
0001
0000
,  // measure 43
0010
0000
0100
1000
0100
0010
0001
1000
,  // measure 44
0001
1000
0001
0000
1000
0010
1000
0010
,  // measure 45
0100
0000
1000
0010
1000
0000
0001
0000
0010
0000
0001
0010
0001
0000
0010
0000
,  // measure 46
0100
0000
0010
1000
0010
0000
1000
0000
0100
0000
0010
0000
0001
0000
1000
0000
,  // measure 47
0100
1000
0001
1000
0002
0000
1000
0000
,  // measure 48
1000
0000
0000
0000
0003
0000
0000
0000
0000
0100
1000
0100
1000
0000
0001
0010
,  // measure 49
0001
0000
1000
0000
0100
0000
0001
0000
1000
0000
0100
0010
0100
0000
1000
0100
,  // measure 50
1000
0001
0100
1001
0001
0000
0001
0000
,  // measure 51
1000
0000
1000
0000
0001
1000
0001
0000
,  // measure 52
1000
0001
1000
0000
0010
0000
0010
0000
,  // measure 53
0100
0000
0100
0000
0100
0010
0100
0000
,  // measure 54
0010
0100
0010
0000
1000
0000
0100
0000
,  // measure 55
0001
0100
1000
0010
,  // measure 56
0001
0010
1000
1000
,  // measure 57
0100
0100
0001
0001
,  // measure 58
0010
0000
0010
0000
1000
1000
0100
0000
,  // measure 59
0100
0100
0001
0000
0001
0001
0010
0000
,  // measure 60
0010
0010
1000
0000
1000
0100
0001
0010
,  // measure 61
1000
0100
0001
0000
1001
1000
0001
0110
,  // measure 62
0100
1000
0100
0000
0001
0100
0001
0000
,  // measure 63
0010
0001
0010
0000
1000
0010
1000
0000
,  // measure 64
0100
0100
1000
0100
0010
0000
0001
0000
,  // measure 65
1000
0100
0000
0101
0000
1000
0100
0000
,  // measure 66
0001
0100
1000
0000
1000
0100
0001
0000
,  // measure 67
1000
0010
0001
0011
0000
1000
0010
1000
,  // measure 68
0000
0001
0100
0001
0010
0000
0100
0000
,  // measure 69
2200
3300
0202
0303
,  // measure 70
1100
0101
0011
1010
,  // measure 71
1001
0000
0000
0000
0001
0000
0010
0000
0100
0000
0010
0000
0100
0000
0000
1001
0000
0000
1000
0000
0000
0100
0000
0000
,  // measure 72
1000
0000
0010
0000
1000
0000
0001
1000
0100
0000
0010
0000
0001
0000
1000
0001
,  // measure 73
0100
0000
0100
0000
0010
0000
0001
0010
0100
0000
1000
0000
0001
0000
0100
0000
,  // measure 74
0001
0010
0100
1000
0001
0100
0001
1000
,  // measure 75
0010
1000
0001
0100
0001
0000
1000
0010
,  // measure 76
1000
0000
0010
0000
0100
0000
0001
0010
0001
0000
1000
0000
0100
0000
0010
0001
,  // measure 77
1000
0000
0100
0000
1000
0000
0001
0100
0001
0000
1000
0000
0010
0000
1000
0000
,  // measure 78
0100
0010
0001
1000
0100
1000
0011
0110
,  // measure 79
1100
0000
0110
0000
0001
0000
0010
0000
1000
0000
0010
0000
0001
0000
1000
0100
,  // measure 80
1000
0000
0001
0000
0100
0000
0001
0010
0001
0000
1000
0000
0100
0000
1000
0001
,  // measure 81
0100
0001
0010
0100
1000
0001
0100
0001
,  // measure 82
1000
0100
0001
1000
0001
0100
0010
0100
,  // measure 83
1000
0000
0001
0000
0100
0000
0001
0000
0010
0000
0100
0000
1000
0000
1000
0100
,  // measure 84
0010
0000
0001
0000
1000
0000
0100
0010
0001
0000
1000
0000
0100
0000
1000
0001
,  // measure 85
0100
0001
1000
0010
0100
0001
1000
0100
,  // measure 86
0001
1000
0100
1000
0001
0100
0001
0010
,  // measure 87
0100
1000
1001
0000
0000
0000
0000
0000
;

//---------------dance-single - ----------------
#NOTEDATA:;
#CHARTNAME:;
#STEPSTYPE:dance-single;
#DESCRIPTION:;
#CHARTSTYLE:;
#DIFFICULTY:Medium;
#METER:6;
#RADARVALUES:0.436,0.467,0.193,0.036,0.000,395.000,27.000,5.000,0.000,0.000,0.000,0.000,0.000,0.436,0.467,0.193,0.036,0.000,395.000,27.000,5.000,0.000,0.000,0.000,0.000,0.000;
#CREDIT:;
#NOTES:
1000
0100
0001
0100
,
1000
0010
0001
0010
,
0001
0100
1000
0100
,
0001
0010
1000
0010
,
1000
0100
1000
0000
0100
0001
0100
0000
,
0001
0010
0001
0000
1000
0010
1000
0000
,
0001
1000
0100
0000
1000
0100
0001
0000
,
0020
0000
0030
0000
,
1000
1000
0100
0100
,
0001
0001
0100
0100
,
1000
0100
0001
0000
0001
0000
0000
0000
,
0001
0100
1000
0000
1000
0000
0000
0000
,
0010
0010
0001
0001
,
0010
0010
1000
1000
,
0010
1000
0001
0000
0010
0001
1000
0000
,
0002
0000
0000
0003
1000
0000
1000
0000
,
0100
0100
0001
0001
,
0100
0000
0100
0000
1000
0100
0001
0000
,
0001
0100
1000
0000
0100
1000
0001
0000
,
0100
0001
1000
0000
0001
0000
0100
0000
,
1000
0000
1000
0100
,
0001
0000
0010
0010
,
0001
0001
2000
0000
,
3000
0010
0001
0010
,
0001
1000
0100
1000
,
0100
0000
0010
0001
0010
0000
0001
0010
,
0001
0000
1000
0100
0000
1100
0000
0100
,
1000
0000
0100
0001
0100
0000
1000
0010
,
1000
0010
1000
0010
,
1000
0100
0001
0100
,
0001
1100
0000
0101
,
0000
0000
1000
0100
0001
0000
0100
0000
,
1000
0000
0001
0000
1000
0100
0010
0000
,
0001
0001
1000
1000
,
0100
0010
0001
0000
0010
0100
1000
0000
,
0001
0001
1000
1000
,
0100
1000
0100
0000
0010
0001
0010
0000
,
0001
1000
0001
0000
0100
0000
0001
0000
,
1000
0001
1000
0000
0100
0000
0010
0000
,
1000
0100
0001
0010
,
1010
0010
0010
0010
0001
0000
0001
0000
,
1000
0100
0010
0000
0001
0010
0100
0000
,
1000
0001
1000
0000
0100
0000
0001
0000
,
0100
1000
0010
0001
,
0010
0000
1000
0000
0100
0001
0100
0000
,
1000
0010
1000
0000
0001
1000
0001
0000
,
1000
0100
0001
0100
,
1000
0000
0001
0000
1000
0100
0010
0001
,
0020
0030
0001
0100
,
1000
0010
1000
0100
,
0001
0000
1000
1001
0001
0000
0001
0000
,
1000
1000
0001
1000
,
0001
1000
0100
0010
,
0100
0100
0020
0000
,
0000
0030
1000
0100
,
1000
1100
0001
0100
,
0001
0101
0010
0001
,
0010
0011
1000
0010
,
1000
1010
1000
0001
,
1000
1001
0010
0100
,
0010
0000
0110
0000
1000
0100
0000
0101
,
0000
1100
0000
1001
0000
0001
1000
1001
,
0001
0001
1000
1000
,
0100
0010
0100
0010
,
1000
0100
0001
0100
1000
0000
0010
0000
,
1000
0001
0000
0001
0000
0001
1000
0000
,
0101
0000
0001
0000
0001
0000
0010
0001
,
0000
1010
0000
1010
0000
0100
1000
0100
,
1000
0001
0100
0001
,
0101
0000
1100
0000
,
0011
1010
1100
0101
,
1001
0000
1000
0000
0001
0001
1000
0000
,
1000
0000
0100
0010
0001
0000
0010
0100
,
1000
0000
1000
0001
1000
0000
0100
0000
,
0001
0000
0100
0000
1000
0000
0010
1000
,
0010
1000
0100
0000
0000
0000
0001
0010
,
0001
0000
1000
0010
1000
0000
0100
0010
,
0100
0000
1000
0100
0001
0000
0001
0100
,
1000
0000
0001
0000
1000
0000
1100
0100
,
0100
0100
0001
0000
0001
0000
1000
0000
,
1000
0000
0100
1000
0100
0000
0010
0001
,
0010
1000
0100
0001
,
0100
1000
0010
0001
,
0010
0000
1000
0001
1000
0001
1000
0000
,
0000
0000
0100
0010
0100
0010
0100
0000
,
0000
0000
0001
1000
0001
1000
0001
0000
,
0000
0000
0010
0100
0010
0100
0010
0000
,
0000
1001
0000
0000
;

//---------------dance-single - ----------------
#NOTEDATA:;
#CHARTNAME:;
#STEPSTYPE:dance-single;
#DESCRIPTION:;
#CHARTSTYLE:;
#DIFFICULTY:Easy;
#METER:4;
#RADARVALUES:0.340,0.312,0.029,0.093,0.000,316.000,4.000,13.000,0.000,0.000,0.000,0.000,0.000,0.340,0.312,0.029,0.093,0.000,316.000,4.000,13.000,0.000,0.000,0.000,0.000,0.000;
#CREDIT:;
#NOTES:
1000
1000
1000
0000
,
0001
0001
0001
0000
,
0010
0010
0010
0000
,
1000
1000
1000
0000
,
0001
0001
0001
0000
,
1000
1000
1000
0000
,
0100
0100
0100
0000
,
0002
0000
0003
0000
,
1000
0100
0001
0000
,
0001
0100
1000
0000
,
1000
0010
0001
0000
,
0001
0010
1000
0000
,
1000
1000
0001
0001
,
1000
0001
1000
0001
,
0010
0010
0100
0100
,
0020
0030
0100
0100
,
0010
0010
0100
0100
,
0001
0100
1000
0010
,
1000
0100
0001
1000
,
0001
1000
2000
0000
,
3002
0000
0203
0000
,
0320
0000
0230
0000
,
0302
0000
2003
0000
,
3000
0001
0001
0100
,
0100
1000
1000
0100
,
0100
0001
0010
1000
,
0100
0000
0001
0000
0001
0001
0000
0000
,
1000
0100
0001
0100
,
1000
0010
0001
0010
,
1000
0001
0001
0100
,
1000
0000
1000
1000
0000
0000
0010
0000
,
0100
1000
0001
0100
,
1000
0000
0010
0010
0000
0000
0000
0000
,
0100
1000
0100
0001
,
1000
0001
0010
0001
,
1000
0100
0001
1000
,
0010
0100
0001
0000
,
1000
1000
0100
0001
,
0100
1000
0010
0100
,
1000
0001
0001
1000
,
0001
1000
0100
0100
,
0010
0010
0100
0001
,
0100
1000
0010
0010
,
0100
0100
0010
1000
,
0001
0010
1000
0100
,
0001
0100
1000
0010
,
0001
1000
0100
0001
,
1000
0100
0001
0100
,
1000
0001
2000
0000
,
3200
0000
0320
0000
,
0032
0000
0000
0003
1000
0000
1000
0000
,
0100
0100
0001
0001
,
0100
0100
1000
0010
,
0001
0010
1000
0000
,
0010
0000
0100
0100
,
0010
0010
0100
0010
,
0001
1000
0100
0001
,
1000
0100
0001
1000
,
0010
0000
0000
1000
0000
0100
0000
0001
,
0000
0100
0000
1000
0000
0010
0000
0001
,
0000
0010
0000
1000
0000
0100
0000
0010
,
0000
0001
0000
1001
0000
0000
0000
0000
,
0001
0001
0100
0100
,
0001
0100
0001
0100
,
1000
0010
0001
1000
,
0001
0000
0010
0010
0000
0000
0000
0000
,
1000
0100
0001
0100
,
1000
0010
0100
1000
,
0001
0100
0001
0010
,
0100
0100
0000
0000
1000
0000
0100
0000
,
1000
0001
1000
0001
,
0010
0010
0000
0000
1000
0000
0001
0000
,
1000
0100
0001
1000
,
0100
0001
0010
0100
,
1000
0001
0100
1000
,
0001
0000
0000
0010
0010
0000
1000
0000
,
0100
0001
1000
0100
,
0001
0000
0000
0100
0100
0000
0001
0000
,
0100
0000
1000
0000
0010
0000
1000
0100
,
0010
0001
0100
0000
0001
0000
0100
0000
,
1000
0000
0010
0000
0001
0000
0000
1000
,
1000
0001
0100
0001
,
0100
0000
0010
0000
1000
0000
0000
0001
,
0001
1000
0100
0001
,
0100
1000
0100
0010
,
0100
1000
0100
0010
,
0001
1100
0000
0101
,
0000
1001
0000
0000
;

//---------------dance-single - ----------------
#NOTEDATA:;
#CHARTNAME:;
#STEPSTYPE:dance-single;
#DESCRIPTION:;
#CHARTSTYLE:;
#DIFFICULTY:Beginner;
#METER:3;
#RADARVALUES:0.233,0.249,0.021,0.200,0.000,197.000,3.000,28.000,0.000,0.000,0.000,0.000,0.000,0.233,0.249,0.021,0.200,0.000,197.000,3.000,28.000,0.000,0.000,0.000,0.000,0.000;
#CREDIT:;
#NOTES:
0000
0000
0000
0000
,
0000
0000
0000
0000
,
0000
0000
0000
0000
,
0000
0000
0000
0000
,
1000
1000
1000
0000
,
0001
0001
0001
0000
,
1000
0000
0001
0000
,
1001
0000
0000
0000
,
0010
0010
0010
0000
,
0100
0100
0100
0000
,
0010
0000
0010
0000
,
0100
0000
0100
0000
,
1000
0000
1000
0000
,
0001
0000
0001
0000
,
2000
0000
0000
3000
,
0002
0003
0100
0100
,
0010
0000
0010
0100
,
0100
0000
1000
1000
,
0001
0000
0001
1000
,
1000
0000
2000
3000
,
0200
0300
0002
0003
,
0020
0030
1000
0100
,
0001
0100
2000
0000
,
3000
0001
0001
0001
,
0000
1000
1000
1000
,
0000
0001
1000
0001
,
0000
2000
0000
0000
,
3000
0010
0100
0010
,
0000
0100
0010
0100
,
0000
0010
0010
0010
,
0000
0100
0100
0100
,
0000
0020
0030
0200
,
0300
0002
0000
0003
,
1000
1000
0100
0000
,
0001
0001
0100
0000
,
1000
1000
0010
0000
,
0001
0001
0010
0000
,
1000
0000
0001
0000
,
2000
0000
0000
3000
,
0001
0000
1000
0000
,
0002
0000
1003
0000
,
1000
0000
0001
0000
,
0001
0000
0010
0000
,
0010
0000
0100
0000
,
0100
0000
1000
0000
,
0100
0000
0001
0000
,
0100
0000
1000
0000
,
0010
0000
0002
0000
,
0003
0000
2000
0000
,
3200
0000
0320
0000
,
0032
0000
1003
1000
,
0100
0100
0001
0001
,
0100
0100
1000
0000
,
0001
0000
2002
0000
,
0000
3003
1000
0000
,
0001
0000
1000
0000
,
0001
0000
1000
1000
,
0001
0000
0001
0001
,
1000
0000
0010
0000
,
0100
0000
0010
0000
,
0100
0000
0010
0010
,
0010
0000
0200
0300
,
0100
0100
0100
0000
,
0010
0010
0010
0000
,
0100
0010
0100
0000
,
0010
0100
0010
0000
,
1000
1000
1000
0000
,
0001
0001
0001
0000
,
1000
0001
1000
0000
,
0001
1000
0001
0000
,
2000
3000
0002
0003
,
0020
0030
0100
0001
,
0000
0001
0000
2000
,
0000
0000
3000
0010
,
0000
0010
0000
0200
,
0000
0000
0300
1000
,
0000
1000
0000
0002
,
0000
0000
0003
0100
,
0000
0100
0000
0020
,
0000
0030
0000
0001
,
0000
0100
0000
1000
,
0000
0100
0000
0001
,
0000
0100
0000
1000
,
0000
0010
0010
0010
,
0000
0001
0001
0001
,
0000
0100
0100
0100
,
0000
1000
1000
1000
,
0000
1001
0000
0000
;
