#VERSION:0.83;
#TITLE:Blow;
#SUBTITLE:;
#ARTIST:Future Funk Squad feat. Mojo;
#TITLETRANSLIT:;
#SUBTITLETRANSLIT:;
#ARTISTTRANSLIT:;
#GENRE:;
#ORIGIN:;
#CREDIT:;
#BANNER:[Combine Week] - Blow.png;
#BACKGROUND:[Combine Week] - Blow-bg.png;
#PREVIEWVID:;
#JACKET:[Combine Week] - Blow-jacket.png;
#CDIMAGE:;
#DISCIMAGE:;
#LYRICSPATH:;
#CDTITLE:cdtitle.png;
#MUSIC:[Combine Week] - Blow.ogg;
#OFFSET:-0.014535;
#SAMPLESTART:33.242794;
#SAMPLELENGTH:14.769234;
#SELECTABLE:YES;
#BPMS:0.000=130.000,
104.000=65.000,
111.500=91.000,
115.000=130.000;
#STOPS:133.000=0.231,
133.500=0.231;
#DELAYS:;
#WARPS:;
#TIMESIGNATURES:0.000=4=4;
#TICKCOUNTS:0.000=4;
#COMBOS:0.000=1;
#SPEEDS:0.000=1.000=0.000=0;
#SCROLLS:0.000=1.000;
#FAKES:;
#LABELS:0.000=Song Start;
#BGCHANGES:0.000=[Combine Week] - Blow.MPG=1.000=0=0=1=====,
99999=-nosongbg-=1.000=0=0=0 // don't automatically add -songbackground-
;
#KEYSOUNDS:;
#ATTACKS:
;

//---------------dance-single - ----------------
#NOTEDATA:;
#CHARTNAME:;
#STEPSTYPE:dance-single;
#DESCRIPTION:;
#CHARTSTYLE:;
#DIFFICULTY:Challenge;
#METER:10;
#RADARVALUES:0.725126,0.703803,0.321473,0.245334,0.727543,600.000000,562.000000,38.000000,29.000000,80.000000,0.000000,0.000000,0.000000,0.000000,0.725126,0.703803,0.321473,0.245334,0.727543,600.000000,562.000000,38.000000,29.000000,80.000000,0.000000,0.000000,0.000000,0.000000;
#CREDIT:;
#NOTES:
0000
0000
0000
0000
,
0000
0000
0000
0000
,
1000
0000
0100
0010
0100
0000
1000
0000
0010
0100
0010
0000
1000
0000
0000
0000
,
0001
0000
0010
0100
0010
0000
0001
0000
0100
0010
0100
0000
0001
0000
0000
0000
,
1000
0000
0001
0010
0001
0000
1000
0000
0001
0100
0001
0000
1000
0100
1000
0000
,
0001
0000
1000
0010
1000
0001
1000
0100
0000
0100
1000
0000
1001
0000
MMMM
0000
,
1000
0000
0010
1000
0100
0000
0100
0000
0010
0001
0100
0000
1000
0000
0100
0000
,
0001
0000
0010
0001
0100
0000
0100
0000
0010
1000
0100
0000
0001
0000
0100
0000
,
1000
0000
1000
0100
0010
0000
0001
0000
0001
0000
0001
0100
0010
0000
1000
0100
,
0010
0000
0001
0010
0001
1000
0001
0100
0000
0100
0001
0000
1001
0000
MMMM
0000
,
1000
0000
0010
1000
0100
0000
0010
0001
0100
0001
0100
0000
1000
0000
0100
0001
,
0010
0000
1000
0000
0010
0000
0001
0100
0010
1000
0100
0000
0001
0000
0100
0000
,
0010
0000
0001
0100
0010
0000
1000
0100
0010
0000
1000
0010
0100
0000
1000
0000
,
0001
0000
1000
0010
1000
0001
0010
0001
0000
0001
0100
0000
1001
0000
MMMM
0000
,
0001
0000
0010
0000
1000
0000
0010
0001
0000
0001
0100
0000
1000
0000
0100
0000
,
0010
0000
1000
0000
0100
0000
0001
0100
0000
0100
1000
0000
0010
0000
0100
0000
,
0001
0000
0100
0000
1000
0000
0100
0001
0000
0001
0010
0000
0100
0000
1000
0010
,
0100
0000
0010
0100
0001
0010
0100
1000
0010
0100
0001
0000
1001
0000
MMMM
0000
,
1000
0000
1100
0000
2MM2
0000
3003
0000
0101
0000
0010
1000
0100
0000
MM22
0000
,
0033
0000
0011
0000
0010
0001
0100
0000
1000
0000
0100
0001
0010
0000
M22M
0000
,
0330
0000
0100
1000
0010
0000
0001
0000
1000
0000
0100
0000
0001
0000
0010
0000
,
1000
0000
0010
0001
1000
0001
0100
0010
0000
0010
1000
0000
1001
0000
MMMM
0000
,
0001
0000
0101
0000
2MM2
0000
3003
0000
1100
0000
0010
0001
0100
0000
2M2M
0000
,
3030
0000
1010
0000
0010
1000
0100
0000
0001
0000
0100
1000
0010
0000
M22M
0000
,
0330
0000
0100
0000
1000
0000
0100
0001
0000
0001
0010
0000
1000
0000
0010
0001
,
0100
0000
0010
1000
0001
1000
0100
0010
0000
0010
0001
0000
1001
0000
MMMM
0000
,
0001
1000
0000
0010
1000
0000
2000
0000
0000
0000
0000
0000
0000
0000
0000
0000
3001
0000
0001
0010
0000
0010
0002
0000
0000
0000
0000
0000
0000
0000
0000
0000
,
0003
1000
0000
0100
1000
0000
2000
0000
0000
0000
0000
0000
0000
0000
0000
0000
3001
0000
0001
0100
0000
0100
0002
0000
0000
0000
0000
0000
2000
0000
0000
0000
,
0000
0000
0000
0000
0000
0000
0000
0000
0000
0000
3003
0000
0001
0000
0010
0001
,
0000
0001
0100
0000
1000
0000
0100
0010
1000
0000
0001
0000
1000
0000
0100
0010
,
0000
0100
0010
0001
0100
0000
0010
0100
0000
0010
1000
0100
0010
0000
0001
0010
,
0001
1000
0010
0100
0000
0100
0001
0000
1001
0000
MMMM
0000
1000
0000
0010
0000
,
1000
0100
0000
0001
0000
0100
1000
0000
0010
0000
0001
0000
1000
0000
0100
0000
,
0001
0000
0010
0000
0011
0000
1100
0000
1000
0000
0100
0000
0001
0000
0100
1000
,
0000
1000
0010
0000
0100
0000
0001
0010
0001
0000
1000
0010
1000
0001
0010
0100
,
0000
0100
1000
0000
1001
0000
MMMM
0000
0001
0000
0010
0001
0100
0000
1000
0100
,
0000
0100
0010
0000
0001
0000
0010
0000
1000
0000
0010
1000
0100
0000
0001
0100
,
0000
0100
0010
0000
1000
0000
0010
0000
0001
0000
1000
0010
0001
0000
0010
0000
,
1000
0100
0001
0000
0100
0000
1000
0010
0100
0000
0010
1000
0100
0010
0100
1000
,
0000
1000
0001
0000
1001
0000
MMMM
0000
0001
0000
0100
0001
0010
0000
0001
0100
,
0000
0100
1000
0000
0001
0000
0010
0000
1000
0000
0100
1000
0010
0000
1000
0100
,
0000
0100
0001
0000
1000
0000
0010
0000
0001
1000
0001
1000
0000
0001
0010
0001
,
1000
0000
0000
0010
0000
0000
1000
0000
0000
0001
0000
0000
1000
0000
0000
0000
0001
0000
0000
0000
1000
0000
0000
0000
0001
0000
0000
0000
0000
0000
0010
0000
0000
0001
0000
0000
0100
0000
0000
0010
0000
0000
0100
0000
0000
0001
0000
0000
,
0000
0001
1000
0000
1001
0000
MMMM
0000
1000
0000
1010
0000
2MM2
0000
3003
0000
,
0011
0000
0100
1000
0010
0000
M2M2
0000
0303
0000
0101
0000
0100
0001
0010
0000
,
1000
0000
0010
0001
0100
0000
M22M
0000
0330
0000
0010
1000
0100
0000
0001
0000
,
1000
0000
0010
0000
0001
0000
0100
0000
1000
0000
0100
0001
1000
0001
0010
0100
,
0000
0100
1000
0000
1001
0000
MMMM
0000
0001
0000
0011
0000
2MM2
0000
3003
0000
,
1010
0000
0100
0001
0010
0000
22MM
0000
3300
0000
1100
0000
0100
1000
0010
0000
,
0001
0000
0010
1000
0100
0000
M22M
0000
0330
0000
0010
0000
1000
0000
0010
0001
,
0000
0001
0100
0000
1000
0000
0100
0001
0010
0000
0100
1000
0001
1000
0010
0100
,
0000
0100
0001
0000
1001
0000
MMMM
0000
1000
0100
0000
1000
0100
0000
0010
0000
,
1000
0000
0010
0000
0100
0000
1000
0000
0001
0000
0100
0010
0000
0010
1000
0000
,
0001
0100
0001
0000
1000
0000
1000
0000
0001
0010
0000
0001
0010
0000
0100
0000
,
0001
0000
0100
0000
0010
0000
0001
0000
1000
0000
0010
0100
0000
0100
0001
0000
,
0010
0100
0010
0000
0001
1000
0000
1000
0001
0100
0000
0001
0100
0000
0010
0000
,
0001
0000
0010
0000
0100
0000
0001
0000
1000
0000
0100
0010
0000
0010
0001
0000
,
1000
0100
1000
0000
0001
0000
0001
0000
1000
0010
0000
1000
0010
0000
0100
0000
,
1000
0000
0100
0000
0010
0000
1000
0000
0001
0000
0010
0100
0000
0100
1000
0000
,
0001
0100
0001
0000
1000
0000
1000
0000
0010
0000
0000
0000
1000
0000
0001
0000
,
M000
000M
1000
0001
M000
000M
1000
0001
,
M000
000M
1000
0001
M000
000M
0000
0000
;

//---------------dance-single - ----------------
#NOTEDATA:;
#CHARTNAME:;
#STEPSTYPE:dance-single;
#DESCRIPTION:;
#CHARTSTYLE:;
#DIFFICULTY:Hard;
#METER:9;
#RADARVALUES:0.564390,0.573469,0.126897,0.169196,0.397611,467.000000,452.000000,15.000000,20.000000,52.000000,0.000000,0.000000,0.000000,0.000000,0.564390,0.573469,0.126897,0.169196,0.397611,467.000000,452.000000,15.000000,20.000000,52.000000,0.000000,0.000000,0.000000,0.000000;
#CREDIT:;
#NOTES:
0000
0000
0000
0000
,
0000
0000
0000
0000
,
1000
0000
0100
0000
0010
0000
0001
0000
1000
0100
1000
0000
1000
0000
0000
0000
,
0001
0000
0100
0000
0010
0000
1000
0000
0001
0100
0001
0000
0001
0000
0000
0000
,
1000
0000
0100
0000
0010
0000
0100
0000
1000
0001
1000
0000
0001
1000
0001
0000
,
0100
0000
1000
0000
0100
0000
0001
0100
0000
0100
0001
0000
1001
0000
MMMM
0000
,
0001
0000
0010
0000
0100
0000
1000
0000
0001
0100
0001
0000
1000
0000
0000
0000
,
1000
0000
0010
0000
0100
0000
0001
0000
1000
0100
1000
0000
0001
0000
0000
0000
,
0001
0000
1000
0010
1000
0000
0001
0000
1000
0000
0001
0010
0001
0000
1000
0000
,
0100
0000
0001
0000
0100
0000
1000
0100
0000
0100
1000
0000
1001
0000
MMMM
0000
,
1000
0000
0010
0000
0001
0000
0010
0000
1000
0001
1000
0000
0001
0000
0100
0000
,
0001
0000
0010
0000
1000
0000
0010
0000
0001
1000
0001
0000
1000
0000
0000
0000
,
0001
0000
0100
0000
1000
0000
0100
0000
0001
0000
1000
0001
1000
0000
0000
0000
,
1000
0000
0100
0000
0001
0000
0100
0010
0000
0010
0001
0000
1001
0000
MMMM
0000
,
1000
0000
0010
0000
0100
0000
0010
1000
0000
0001
1000
0000
0001
0000
0000
0000
,
0001
0000
0010
0000
0100
0000
0010
0001
0000
1000
0001
0000
1000
0000
0000
0000
,
1000
0000
0100
0000
0001
0000
0100
1000
0000
0100
1000
0000
0010
0000
0100
0000
,
0001
0000
0100
0000
1000
0000
0100
0010
0000
0010
1000
0000
1001
0000
MMMM
0000
,
1000
0000
0100
0000
0002
0000
0003
0000
0001
0000
0100
0010
0100
0000
2000
0000
,
3000
0000
1000
0000
0010
0100
0010
0000
0001
0000
0010
0100
0010
0000
2000
0000
,
3000
0000
1000
0010
1000
0000
0001
0000
1000
0000
0100
0000
0001
0000
0100
0000
,
1000
0000
0010
0000
0100
0000
0001
1000
0000
1000
0001
0000
1001
0000
MMMM
0000
,
0001
0000
0100
0000
2000
0000
3000
0000
1000
0000
0100
0010
0100
0000
0002
0000
,
0003
0000
0001
0000
0010
0100
0010
0000
1000
0000
0010
0100
0010
0000
0002
0000
,
0003
0000
0001
0000
0100
0000
0010
1000
0000
0010
1000
0000
0001
0000
1000
0000
,
0100
0000
0010
0000
0100
0000
1000
0001
0000
0001
1000
0000
1001
0000
MMMM
0000
,
2000
0000
3020
0000
,
0230
0000
0000
0000
0302
0000
0000
2000
,
0000
0000
0000
0000
0000
0000
0000
0000
0000
0000
3003
0000
0001
0000
0100
0010
,
0000
0100
0001
0000
0010
0000
0100
0000
1000
0000
0000
0000
0001
0000
1000
0010
,
0000
1000
0010
0000
1000
0000
0001
0010
0000
0001
0010
0000
0001
0000
0100
0000
,
0010
0000
1000
0001
0000
0001
1000
0000
1001
0000
MMMM
0000
0001
0000
0100
0000
,
0010
1000
0000
0001
0000
1000
0100
0000
0010
0000
0000
0000
0001
0000
1000
0000
,
0001
0000
0000
0000
1001
0000
0110
0000
0001
0000
1000
0000
0100
0000
0010
0001
,
0000
0010
0001
0000
1000
0000
0010
0000
1000
0000
0100
0000
0010
0000
0001
1000
,
0000
1000
0001
0000
1001
0000
MMMM
0000
0001
0000
0100
0000
1000
0000
0100
0001
,
0000
0100
0001
0000
1000
0000
0000
0000
1000
0000
0100
0000
0001
0000
0100
1000
,
0000
0100
1000
0000
0001
0000
0000
0000
1000
0000
0010
0000
0001
0000
0010
0000
,
1000
0001
1000
0000
0001
0000
1000
0000
0100
0000
0001
0000
0100
0000
0010
0001
,
0000
0001
1000
0000
1001
0000
0000
0000
0001
0000
0100
0000
1000
0000
0100
0010
,
0000
0100
0001
0000
1000
0000
0000
0000
1000
0000
0100
0000
0001
0000
0100
0010
,
0000
0100
1000
0000
0001
0000
0000
0000
2002
0000
0000
0000
0000
0000
0000
0000
,
0000
0000
0000
0000
,
3003
0000
1001
MMMM
1000
0010
0002
0003
,
0001
0000
0010
0100
0010
0000
2000
0000
3000
0000
1000
0000
0100
0010
0100
0000
,
0001
0000
0100
0010
0100
0000
2000
0000
3000
0000
1000
0100
1000
0000
0001
0000
,
1000
0000
0010
0000
0001
0000
0010
0000
1000
0000
0100
0000
0010
0000
0001
1000
,
0000
1000
0001
0000
1001
0000
MMMM
0000
0001
0000
0010
0000
2000
0000
3000
0000
,
1000
0000
0010
0100
0010
0000
0002
0000
0003
0000
0001
0000
0100
0010
0100
0000
,
1000
0000
0100
0010
0100
0000
0002
0000
0003
0000
0001
0000
0010
0000
0100
1000
,
0000
0100
1000
0000
0001
0000
1000
0000
0010
0000
0100
0000
0010
0000
1000
0001
,
0000
0001
1000
0000
1001
0000
MMMM
0000
1000
0100
0000
1000
0100
0000
0010
0000
,
0100
0000
1000
0000
0001
0000
0000
0000
0001
0000
0100
0010
0000
0010
1000
0000
,
0100
0000
0010
0000
0001
0000
0000
0000
0001
0100
0000
0001
0100
0000
0010
0000
,
0100
0000
0001
0000
1000
0000
0000
0000
1000
0000
0100
0010
0000
0010
0001
0000
,
0100
0000
0010
0000
1000
0001
0000
0000
0001
0010
0000
0001
0010
0000
0100
0000
,
0010
0000
0001
0000
0100
0000
0000
0000
0010
0000
1000
0001
0000
0001
0010
0000
,
0100
0000
1000
0000
0001
0000
0000
0000
1000
0010
0000
1000
0010
0000
0100
0000
,
0010
0000
1000
0000
0100
0000
0000
0000
0010
0000
0001
1000
0000
1000
0010
0000
,
0100
0001
2000
0000
3001
0000
1000
0001
,
M000
000M
1000
0001
M000
000M
1000
0001
,
M000
000M
1000
0001
M000
000M
0000
0000
;

//---------------dance-single - ----------------
#NOTEDATA:;
#CHARTNAME:;
#STEPSTYPE:dance-single;
#DESCRIPTION:;
#CHARTSTYLE:;
#DIFFICULTY:Medium;
#METER:6;
#RADARVALUES:0.397611,0.391002,0.008460,0.160736,0.000000,329.000000,328.000000,1.000000,19.000000,19.000000,0.000000,0.000000,0.000000,0.000000,0.397611,0.391002,0.008460,0.160736,0.000000,329.000000,328.000000,1.000000,19.000000,19.000000,0.000000,0.000000,0.000000,0.000000;
#CREDIT:;
#NOTES:
0000
0000
0000
0000
,
0000
0000
0000
0000
,
1000
0000
1000
0000
1000
0100
0010
0000
,
0001
0000
0001
0000
0001
0100
0010
0000
,
1000
0001
1000
0000
0001
1000
0001
0000
,
1000
0000
1000
0100
0001
0100
100M
0000
,
0010
0000
0010
0000
1000
0001
1000
0000
,
0100
0000
0100
0000
1000
0001
1000
0000
,
0001
0100
0001
0000
1000
0100
1000
0000
,
0001
0000
0001
0100
1000
0100
M001
0000
,
1000
0100
1000
0000
1000
0010
1000
0000
,
0001
0100
0001
0000
0001
0010
0001
0000
,
1000
0010
0100
0000
0001
0010
0100
0000
,
1000
0000
1000
0010
0001
0010
100M
0000
,
0001
0010
0100
0000
0100
0010
0001
0000
,
1000
0010
0100
0000
0100
0010
1000
0000
,
0100
0010
0001
0000
0100
0010
1000
0000
,
0001
0000
0001
0010
1000
0010
M001
0000
,
0000
1000
2000
0000
3001
0100
0001
0002
,
0000
0013
0010
0001
1000
0010
1000
2000
,
0000
3100
0010
0100
1000
0001
1000
0001
,
1000
0000
0001
0100
1000
0100
M001
0000
,
0000
0001
0002
0000
1003
0100
1000
2000
,
0000
3010
0010
1000
0001
0010
0001
0002
,
0000
1003
0100
1000
0001
0100
0001
1000
,
0100
0000
1000
0100
0001
0100
100M
0000
,
2000
0000
3020
0000
,
0230
0000
0000
0000
0302
0000
0000
2000
,
0000
0000
0000
0000
0000
3003
0001
0100
,
0010
0000
0010
0100
0001
0000
1000
0100
,
0010
0000
0100
1000
0010
0000
1000
0000
,
1000
0010
0001
0010
100M
0000
0100
0010
,
0001
0000
0010
0100
1000
0000
0001
0001
,
0001
0000
1000
1000
1000
0010
0100
0000
,
0010
0100
0001
0000
1000
0000
1000
0100
,
0001
0100
100M
0000
0010
1000
0010
0000
,
0010
1000
0001
0000
0010
0100
0010
0000
,
0010
0001
1000
0000
0010
0100
0001
0000
,
0010
0100
1000
0000
0001
0000
0001
0100
,
1000
0100
M001
0000
0010
0001
0100
0000
,
0100
0001
0010
0000
0100
1000
0010
0000
,
0010
1000
0100
0000
2002
0000
0000
0000
,
0000
0000
0000
0000
,
0000
3003
MMMM
0000
0000
1000
2000
0000
,
3001
0010
0001
0002
0000
0103
0100
0001
,
1000
0100
1000
2000
0000
3010
0100
0010
,
1000
0001
1000
0001
1000
0000
0001
0010
,
1000
0010
M001
0000
0000
0001
0002
0000
,
1003
0010
1000
2000
0000
3100
0100
1000
,
0001
0100
0001
0002
0000
1003
0010
1000
,
0001
0010
0001
1000
0010
0000
1000
0010
,
0001
0010
100M
0000
1000
0100
0010
0000
,
0100
0000
0100
0000
0010
0001
0100
0010
,
1000
0000
1000
0000
0001
0100
0010
0000
,
0100
0000
0100
0000
0010
1000
0100
0010
,
0001
0000
1000
0000
0010
0100
0001
0000
,
1000
0000
1000
0000
0100
1000
0010
0100
,
0001
0000
0001
0000
0010
0100
1000
0000
,
0001
0000
0001
0000
0100
0001
0010
0100
,
1000
0000
0001
0000
0100
0000
0000
0010
,
0000
00M0
0000
0010
0000
00M0
0000
0010
,
0000
00M0
0000
0010
0000
00M0
0000
0000
;

//---------------dance-single - ----------------
#NOTEDATA:;
#CHARTNAME:;
#STEPSTYPE:dance-single;
#DESCRIPTION:;
#CHARTSTYLE:;
#DIFFICULTY:Easy;
#METER:4;
#RADARVALUES:0.263463,0.283827,0.135357,0.270714,0.000000,218.000000,202.000000,16.000000,32.000000,0.000000,0.000000,0.000000,0.000000,0.000000,0.263463,0.283827,0.135357,0.270714,0.000000,218.000000,202.000000,16.000000,32.000000,0.000000,0.000000,0.000000,0.000000,0.000000;
#CREDIT:;
#NOTES:
0000
0000
0000
0000
,
0000
0000
0000
0000
,
1000
1000
1000
0000
,
0001
0001
0001
0000
,
1000
0000
0001
0000
,
1000
0100
0001
0100
,
1000
1000
0010
0000
,
0010
0010
1000
0000
,
0001
0000
1000
0000
,
0001
0100
1000
0100
,
0001
0010
0100
0100
,
0010
0001
0100
0100
,
0010
1000
0001
0001
,
1000
0100
0001
0100
,
1000
0100
0010
0010
,
0001
0100
0010
0010
,
1000
0001
0010
0010
,
0001
0100
1000
0100
,
0202
0303
0001
2002
,
3003
1000
0100
0220
,
0330
0100
1000
0010
,
0001
0010
1000
1001
,
2200
3300
1000
2002
,
3003
0001
0100
0220
,
0330
0100
0001
1000
,
0100
0001
0100
1000
,
0002
0000
0203
0000
,
0320
0000
0000
0000
2030
0000
0000
0002
,
0000
0000
0000
0000
0000
3003
1000
0000
,
0100
0010
0001
1000
,
1000
0001
0001
1000
,
0100
0001
0100
1000
,
0010
0100
0100
0001
,
1000
0000
0002
0003
1000
0000
0100
0000
,
0010
0010
0001
0100
,
1000
0100
0001
1000
,
0100
0100
1000
0001
,
0100
0100
0010
1000
,
0100
0010
0001
0010
,
1000
0010
0001
1000
,
0010
0010
1000
0001
,
0010
0010
2002
0000
,
0000
0000
0000
0000
,
3003
1001
2020
3030
,
1000
2002
3003
0001
,
0010
0220
0330
0010
,
0001
0100
1000
0100
,
0001
1001
0022
0033
,
0001
2002
3003
1000
,
0010
0220
0330
0010
,
1000
0001
0010
1000
,
0010
0001
1000
0010
,
1000
1000
0001
0010
,
0001
0001
1000
0100
,
1000
1000
0001
0100
,
0001
0010
0001
0001
,
0100
0010
0100
0100
,
0001
0010
0100
0100
,
1000
0010
0100
0100
,
0010
1000
0001
0000
,
0001
0000
0001
0000
,
0001
0000
0000
0000
;

//---------------dance-single - ----------------
#NOTEDATA:;
#CHARTNAME:;
#STEPSTYPE:dance-single;
#DESCRIPTION:;
#CHARTSTYLE:;
#DIFFICULTY:Beginner;
#METER:1;
#RADARVALUES:0.147442,0.151008,0.000000,0.076138,0.000000,122.000000,122.000000,0.000000,9.000000,0.000000,0.000000,0.000000,0.000000,0.000000,0.147442,0.151008,0.000000,0.076138,0.000000,122.000000,122.000000,0.000000,9.000000,0.000000,0.000000,0.000000,0.000000,0.000000;
#CREDIT:;
#NOTES:
0000
0000
0000
0000
,
0000
0000
0000
0000
,
2000
0000
3000
0000
,
0002
0000
0003
0000
,
0020
0000
0030
0000
,
0200
0000
0300
0000
,
1000
0000
1000
0000
,
0001
0000
0001
0000
,
0100
0000
0100
0000
,
0010
0010
0010
0000
,
1000
0000
0001
0000
,
1000
0000
0001
0000
,
0010
0000
0100
0000
,
0010
0010
0010
0000
,
0001
0000
1000
0000
,
0001
0000
1000
0000
,
0010
0000
0100
0000
,
0010
0010
0010
0000
,
1000
0000
1000
0000
,
0001
0001
0001
0000
,
1000
0000
0001
0000
,
0010
0010
0010
0000
,
0001
0000
0001
0000
,
1000
1000
1000
0000
,
0001
0000
1000
0000
,
0010
0010
0010
0000
,
2000
3000
0200
0300
,
0020
0030
0002
0003
,
0000
0000
0000
1000
,
0000
0010
0000
0100
,
0000
0001
0000
1000
,
1000
1000
0000
0001
,
0000
0010
0000
0001
,
0000
0001
1000
0000
,
0010
0000
1000
1000
,
1000
0000
0001
0000
,
1000
0000
0001
0000
,
1000
0000
0100
0000
,
0010
0000
0100
0100
,
0100
0000
1000
0000
,
0001
0000
1000
0000
,
0001
0000
0200
0000
,
0000
0000
0000
0000
,
0300
0000
0001
0000
,
0001
0000
1000
1000
,
1000
0000
0001
0000
,
1000
0000
0010
0010
,
0010
0000
1000
0000
,
1000
0000
0001
0001
,
0001
0000
1000
0000
,
0001
0000
0010
0010
,
0010
0000
0001
0000
,
0001
0000
0100
0000
,
0100
0000
0010
0000
,
0010
0000
1000
0000
,
1000
0000
0100
0000
,
0100
0000
0010
0000
,
0010
0000
0001
0000
,
0001
0000
1000
0000
,
1000
0000
0010
0000
;
