#TITLE:Anime Bae;
#SUBTITLE:;
#ARTIST:Sushi Killer & Kevin Villecco;
#TITLETRANSLIT:;
#SUBTITLETRANSLIT:;
#ARTISTTRANSLIT:;
#GENRE:Chiptune Future Bass;
#CREDIT:;
#BANNER:ab-bn.png;
#BACKGROUND:ab-bg.png;
#LYRICSPATH:;
#CDTITLE:cdtitle.png;
#MUSIC:anime bae.mp3;
#OFFSET:-0.050000;
#SAMPLESTART:39.753998;
#SAMPLELENGTH:12.000000;
#SELECTABLE:YES;
#BPMS:0.000000=72.500000
,16.000000=145.000000
,72.000000=72.500000
,76.000000=145.000000
,108.000000=72.500000
,112.000000=145.000000
,136.000000=72.500000
,140.000000=145.000000
,172.000000=72.500000
;
#STOPS:
;
#BGCHANGES:;
#KEYSOUNDS:;
#ATTACKS:;

//---------------dance-single - ----------------
#NOTES:
     dance-single:
     :
     Easy:
     3:
     0.207024,0.273070,0.225027,0.189022,0.013502,161.000000,136.000000,25.000000,21.000000,0.000000,0.000000,0.207024,0.273070,0.225027,0.189022,0.013502,161.000000,136.000000,25.000000,21.000000,0.000000,0.000000:
// measure 0
0000
0000
0000
0000
,  // measure 1
0000
0000
0000
0000
,  // measure 2
0200
0000
0000
0000
0000
0300
2000
0000
0000
0000
0000
3000
0200
0000
0000
0300
,  // measure 3
0020
0000
0000
0000
0000
0000
0000
0000
0000
0030
0000
0000
0000
0000
0000
0000
0100
0000
0000
0000
0000
0000
0000
0000
0100
0000
0000
0000
0000
0000
0000
0000
0000
0000
0000
0000
0100
0000
0000
0000
0000
0000
0000
0000
0000
0000
0000
0000
,  // measure 4
1100
0000
0010
0110
,  // measure 5
0000
0000
0010
0000
,  // measure 6
0011
0000
1000
1100
,  // measure 7
0000
0000
0010
0000
,  // measure 8
0101
0000
0010
1010
,  // measure 9
0000
0000
0010
0000
,  // measure 10
0110
0000
0001
1010
,  // measure 11
0000
0000
0010
0000
,  // measure 12
0011
1000
0000
0100
,  // measure 13
0000
0010
0000
0001
,  // measure 14
0000
0010
0000
0100
,  // measure 15
0000
0001
0000
1000
,  // measure 16
1001
0100
0000
0010
,  // measure 17
0000
1000
0000
0001
,  // measure 18
0011
0000
0010
0000
0100
0000
0200
0000
0000
0000
0302
0000
0000
0000
0000
0003
,  // measure 19
1010
0100
0010
0010
,  // measure 20
0000
0000
0100
0000
,  // measure 21
1010
0100
0001
0010
,  // measure 22
0000
0000
0010
0000
,  // measure 23
1010
1000
0010
0100
,  // measure 24
0000
0000
0010
0000
,  // measure 25
1010
0100
0010
0010
,  // measure 26
0000
0000
0001
0000
,  // measure 27
2200
0000
0000
0000
0000
3300
0001
0001
,  // measure 28
0011
0100
0010
1000
,  // measure 29
0000
0000
0010
0000
,  // measure 30
0101
0010
1000
0100
,  // measure 31
0000
0000
0010
0000
,  // measure 32
0011
0010
0100
1000
,  // measure 33
0000
0000
0000
0000
0001
0000
0010
0100
,  // measure 34
0020
0000
0000
0030
2000
0000
3200
0000
0000
0000
0300
0000
0001
0000
0000
0000
,  // measure 35
0101
0010
1000
0200
,  // measure 36
0000
0000
0000
0300
0001
0000
0000
1000
,  // measure 37
2100
0000
0000
3000
0010
0100
0000
0020
,  // measure 38
0000
0000
0000
0030
0100
0000
0000
0000
,  // measure 39
0011
0000
0010
0000
0100
0000
0100
2000
,  // measure 40
0000
0000
0000
3000
0010
0000
0001
0000
,  // measure 41
0002
0000
0000
0000
0000
0000
0000
0000
0003
0000
0000
0000
0100
0000
0000
0010
0000
0000
0000
0000
0000
1000
0000
0000
,  // measure 42
0000
0100
0000
0010
0000
0001
0000
0001
,  // measure 43
0002
0000
0000
0000
0000
0000
0000
0000
0000
0000
0000
0000
0000
0000
0000
0003
,  // measure 44
0011
0000
0000
0010
0000
0000
0000
0000
,  // measure 45
0100
0000
0000
0001
0000
0000
0100
0100
,  // measure 46
1000
0100
0010
0001
0000
0000
0100
0000
,  // measure 47
0010
0000
0000
0000
0000
0000
0000
0000
0100
0000
0000
0000
0000
0000
0000
0000
0000
0000
0010
0000
0000
0000
0000
0000
0000
0000
0000
1000
0000
0000
0000
0000
0000
0000
0000
0000
0100
0000
0000
0000
0000
0000
0010
0000
0000
0000
0000
0000
,  // measure 48
0100
0000
0000
0101
0000
0000
1000
0000
,  // measure 49
2020
0000
0000
0000
0000
0000
3030
0000
2000
0000
0000
0000
0000
0000
0000
3000
,  // measure 50
0000
0000
0020
0000
0000
0000
0000
0000
0000
0030
0000
0000
0000
0000
0000
0000
;

//---------------dance-single - ----------------
#NOTES:
     dance-single:
     :
     Medium:
     5:
     0.311180,0.364093,0.180021,0.216025,0.085510,242.000000,222.000000,20.000000,24.000000,0.000000,0.000000,0.311180,0.364093,0.180021,0.216025,0.085510,242.000000,222.000000,20.000000,24.000000,0.000000,0.000000:
// measure 0
0000
0000
0000
0000
,  // measure 1
0000
0000
0000
0000
,  // measure 2
0200
0000
0000
0000
0000
0300
0020
0000
0000
0000
0000
0030
0002
0000
0000
0003
,  // measure 3
0010
0000
0000
0000
0000
0000
0000
0000
0010
0000
0000
0000
0000
0000
0000
0000
0000
0000
0000
0000
0000
0000
0000
0000
0000
0000
0000
0000
0000
0000
0000
0000
0000
0000
0000
0000
0000
0000
0000
0000
0000
0000
0000
0000
0000
0000
0000
0000
0000
0000
0000
0000
0000
0000
0000
0000
0000
0000
0000
0000
0000
0000
0000
0000
0100
0000
0000
0000
0000
0000
0000
0000
0000
0000
0000
0000
0000
0000
0000
0000
0000
0000
0000
0000
0010
0000
0000
0000
0000
0000
0010
0000
0000
0000
0000
0000
0000
0000
0000
0000
0000
0000
0000
0000
0000
0000
0000
0000
0000
0000
0000
0000
0000
0000
0000
0000
0000
0000
0000
0000
0000
0000
0000
0000
0000
0000
0000
0000
0000
0000
0000
0000
0000
0000
0000
0000
0000
0000
0000
0000
0000
0000
0000
0000
0010
0000
0000
0000
0000
0000
0000
0000
0000
0000
0000
0000
0000
0000
0000
0000
0000
0000
0000
0000
0000
0000
0000
0000
0000
0000
0000
0000
0000
0000
0000
0000
0000
0000
0000
0000
0000
0000
0000
0000
0000
0000
0000
0000
0000
0000
0000
0000
,  // measure 4
1010
0000
0010
0000
0100
0000
1100
0010
,  // measure 5
0000
0010
0000
0000
0010
0000
0000
0000
,  // measure 6
0011
0000
0100
0000
1000
0100
1000
0010
,  // measure 7
0000
0010
0000
0000
0010
0000
0000
0000
,  // measure 8
0101
0000
0010
0000
0100
0000
1010
0100
,  // measure 9
0000
0010
0000
0000
0010
0000
0000
0000
,  // measure 10
0110
0000
0010
0000
0001
0010
0100
0010
,  // measure 11
0000
0100
0000
0000
0010
0000
0000
0000
,  // measure 12
0011
0000
1000
0000
0010
0000
0100
0001
,  // measure 13
0000
0001
0010
0000
0010
0000
0001
0000
,  // measure 14
0100
0000
0010
0000
0100
0001
0100
0010
,  // measure 15
0000
0010
0001
0000
0100
0000
1000
0000
,  // measure 16
1001
0000
0100
0000
0010
0000
0010
0100
,  // measure 17
0000
0100
1000
0000
0010
0000
0001
0000
,  // measure 18
0011
0010
0100
0200
0000
0302
0023
2030
,  // measure 19
3010
0000
0100
0000
0010
0000
0010
0100
,  // measure 20
0000
0010
0000
0000
0100
0000
0000
0000
,  // measure 21
1010
0000
0100
0000
0001
0000
0010
0100
,  // measure 22
0000
0100
0000
0000
0010
0200
0000
0300
,  // measure 23
0101
0000
0001
0000
0010
0000
0100
0010
,  // measure 24
0000
0001
0010
0100
0010
0000
0000
0000
,  // measure 25
1010
0000
0100
0000
0010
0001
0010
0100
,  // measure 26
0000
0100
0000
0000
0001
0020
0000
0030
,  // measure 27
2000
0000
0000
0000
0000
0000
0000
0000
0000
0000
0000
0000
0010
0000
0000
0000
0000
0000
0000
0000
0010
0000
0000
0000
0000
0000
0000
0010
0000
0000
3000
0000
0000
0000
0000
0000
0001
0000
0000
0000
0000
0000
0001
0000
0000
0000
0000
0000
,  // measure 28
0011
0000
0100
0000
0010
0000
1000
0100
,  // measure 29
0000
0000
0010
0000
0000
0000
0000
0000
0010
0000
0200
0000
0000
0000
0000
0300
,  // measure 30
0110
0000
0010
0000
1000
0000
0100
0001
,  // measure 31
0000
0010
0100
2000
0000
0000
3000
0000
,  // measure 32
1010
0000
0010
0000
0100
0010
1000
0010
,  // measure 33
0000
0000
0100
0000
0000
0000
0000
0000
0001
0000
0010
0000
0010
0000
0100
0010
,  // measure 34
0200
0000
0000
0000
0000
0000
0000
0000
0000
0300
0000
0000
2000
0000
0000
0000
0000
0000
3000
0000
0010
0000
0000
0000
0000
0000
0000
0010
0000
0000
0000
0000
0000
0000
0000
0000
0001
0000
0000
0000
0010
0000
0000
0000
0000
0100
0000
0000
,  // measure 35
0110
0000
0010
0000
1000
0000
0100
0001
,  // measure 36
0000
0010
0000
0000
0001
0000
0000
1000
,  // measure 37
2100
0000
0001
3000
0010
0100
0000
0010
,  // measure 38
0000
0100
0000
0000
0100
0000
2000
3000
,  // measure 39
1010
0000
0010
0000
0100
0000
0100
2000
,  // measure 40
0000
0000
0010
3000
0010
0000
0001
0000
,  // measure 41
0002
0000
0000
0000
0000
0000
0100
0000
0003
0000
0000
0000
0100
0000
0000
0010
0000
0000
0000
0000
0000
1000
0000
0000
,  // measure 42
0100
0010
0100
0010
0100
0010
0001
0010
,  // measure 43
0002
0000
0000
0000
0000
0000
0000
0000
0000
0000
0020
0000
0000
0000
0000
0033
,  // measure 44
0011
0000
0100
0000
0010
0001
0010
0000
0000
0000
0000
0010
0000
0100
0010
0000
,  // measure 45
0100
0000
0000
0010
0000
0000
0001
0000
0000
0010
0000
0000
0100
0000
0010
0000
,  // measure 46
1000
0000
0100
0000
0010
0000
0001
0000
0000
0000
0000
0000
0100
0000
0001
0010
,  // measure 47
0100
0000
0000
0000
0000
0000
0000
0000
0100
0000
0000
0000
0000
0000
0000
0000
0000
0000
0010
0000
0000
0000
0000
0000
0000
0000
0000
1000
0000
0000
0000
0000
0000
0000
0000
0000
0100
0000
0000
0000
0000
0000
0010
0000
0000
0000
0000
0000
,  // measure 48
0100
0010
0100
0001
0000
0000
1000
0000
,  // measure 49
2020
0000
0000
0000
0000
0000
3030
0000
0200
0000
0000
0000
0000
0000
0000
0300
,  // measure 50
0000
0000
0002
0000
0000
0000
0000
0000
0000
0003
0000
0000
0000
0000
0000
0000
;

//---------------dance-single - ----------------
#NOTES:
     dance-single:
     :
     Beginner:
     1:
     0.137588,0.182046,0.090011,0.405048,0.000000,107.000000,97.000000,10.000000,45.000000,0.000000,0.000000,0.137588,0.182046,0.090011,0.405048,0.000000,107.000000,97.000000,10.000000,45.000000,0.000000,0.000000:
// measure 0
0000
0000
0000
0000
,  // measure 1
0000
0000
0000
0000
,  // measure 2
0020
0000
0000
0000
0000
0030
2000
0000
0000
0000
0000
3000
0200
0000
0000
0300
,  // measure 3
0020
0030
0010
0010
,  // measure 4
0020
0000
0030
0200
,  // measure 5
0000
0000
0300
0000
0020
0000
0000
0030
,  // measure 6
0002
0000
0003
2000
,  // measure 7
0000
0000
3000
0000
0020
0000
0000
0030
,  // measure 8
0002
0000
0003
0020
,  // measure 9
0000
0000
0030
0000
0200
0000
0000
0300
,  // measure 10
0020
0000
0030
2000
,  // measure 11
0000
0000
3000
0000
0020
0000
0000
0030
,  // measure 12
2000
0000
3000
0200
,  // measure 13
0000
0000
0300
0000
0002
0000
0100
0003
,  // measure 14
0020
0000
0030
0200
,  // measure 15
0000
0000
0300
0000
0002
0000
1000
0003
,  // measure 16
0200
0000
0300
0020
,  // measure 17
0000
0000
0030
0000
0200
0000
0001
0300
,  // measure 18
0001
0000
0000
0000
,  // measure 19
0011
0000
0010
0010
,  // measure 20
0000
0000
0100
0000
,  // measure 21
1010
0000
0001
0010
,  // measure 22
0000
0000
0010
0000
,  // measure 23
1010
0000
0010
0100
,  // measure 24
0000
0000
0010
0000
,  // measure 25
1010
0000
0010
0100
,  // measure 26
0000
0000
0001
0000
,  // measure 27
2200
0000
0000
3300
,  // measure 28
0011
0000
0010
1000
,  // measure 29
0000
0000
0010
0000
,  // measure 30
0101
0000
1000
0100
,  // measure 31
0000
0000
0010
0000
,  // measure 32
0011
0000
0100
1000
,  // measure 33
0000
0000
0001
0000
,  // measure 34
0020
0000
0030
0200
0000
0300
0000
0000
,  // measure 35
0002
0000
0003
0200
,  // measure 36
0000
0000
0000
0300
0001
0000
0000
1000
,  // measure 37
2100
0000
0000
3000
0010
0100
0000
0020
,  // measure 38
0000
0000
0000
0030
0100
0000
0000
0000
,  // measure 39
0002
0000
0000
0000
0103
0000
0100
2000
,  // measure 40
0000
0000
0000
3000
0010
0000
0001
0000
,  // measure 41
0002
0000
0000
0000
0000
0000
0000
0000
0003
0000
0000
0000
0100
0000
0000
0010
0000
0000
0000
0000
0000
2000
0000
0000
,  // measure 42
0000
0000
0000
0000
0000
0000
0000
0000
0000
0000
0000
0000
0000
0000
0000
3000
,  // measure 43
0020
0000
0000
0000
0000
0000
0000
0000
0000
0000
0000
0000
0000
0000
0000
0030
,  // measure 44
2000
0000
0000
0010
0000
0000
0000
0000
,  // measure 45
3200
0000
0000
0000
0000
0300
0002
0000
0000
0000
0000
0000
0000
0000
0000
0003
,  // measure 46
1000
0000
0000
0010
0000
0000
0100
0000
,  // measure 47
0010
0000
0000
0001
0000
0000
0000
0000
,  // measure 48
0100
0000
0000
0001
0000
0000
1000
0000
,  // measure 49
2020
0000
0000
0000
0000
0000
3030
0000
0020
0000
0000
0000
0000
0000
0000
0030
,  // measure 50
0000
0000
0002
0000
0000
0000
0000
0000
0000
0003
0000
0000
0000
0000
0000
0000
;

//---------------dance-single - ----------------
#NOTES:
     dance-single:
     :
     Hard:
     9:
     0.384474,0.500628,0.171020,0.162019,0.229527,299.000000,280.000000,19.000000,18.000000,2.000000,0.000000,0.384474,0.500628,0.171020,0.162019,0.229527,299.000000,280.000000,19.000000,18.000000,2.000000,0.000000:
0000
0000
0000
0000
,
0000
0000
0000
0000
,
0010
0000
0000
1000
0000
0000
0100
0000
,
0100
0000
0000
0000
0000
0000
0000
0000
0010
0000
0000
0000
0000
0000
0000
0000
0000
0000
0000
0000
0000
0000
0000
0000
0000
0000
0000
0000
0000
0000
0000
0000
0000
0000
0000
0000
0000
0000
0000
0000
0000
0000
0000
0000
0000
0000
0000
0000
0000
0000
0000
0000
0000
0000
0000
0000
0000
0000
0000
0000
0000
0000
0000
0000
0100
0000
0000
0000
0000
0000
0000
0000
0000
0000
0000
0000
0000
0000
0000
0000
0000
0000
0000
0000
0010
0000
0000
0000
0000
0000
0010
0000
0000
0000
0000
0000
0000
0000
0000
0000
0000
0000
0000
0000
0000
0000
0000
0000
0000
0000
0000
0000
0000
0000
0000
0000
0000
0000
0000
0000
0000
0000
0000
0000
0000
0000
0000
0000
0000
0000
0000
0000
0000
0000
0000
0000
0000
0000
0000
0000
0000
0000
0000
0000
0100
0000
0000
0000
0000
0000
0000
0000
0000
0000
0000
0000
0000
0000
0000
0000
0000
0000
0000
0000
0000
0000
0000
0000
0000
0000
0000
0000
0000
0000
0000
0000
0000
0000
0000
0000
0000
0000
0000
0000
0000
0000
0000
0000
0000
0000
0000
0000
,
1010
0000
0100
0000
0010
0100
1100
0010
,
0000
0010
0000
0000
0010
0100
0010
0100
,
0011
0000
0100
0000
1000
0100
1000
0010
,
0000
0010
0000
0000
0010
0010
0010
0100
,
0011
0000
0010
0000
0100
0010
1010
0100
,
0000
0010
0000
0000
0010
0001
0010
0100
,
0110
0000
0010
0000
0001
0010
0100
0010
,
0000
0100
0000
0000
0010
0100
1000
0100
,
0011
0000
1000
0000
0010
1000
0100
0001
,
0000
0001
0010
0000
0010
0000
0001
0000
,
0100
0000
0010
0000
0100
0001
0100
0010
,
0000
0010
0001
0000
0100
0010
1000
0100
,
1001
0000
0100
0000
0010
0001
0010
0100
,
0000
0100
1000
0000
0010
0000
0001
0000
,
0004
4003
3040
0430
0000
0304
0043
4030
,
3010
0000
0000
0000
0100
0000
0000
0010
0010
0000
0001
0000
0010
0000
0100
0000
,
0000
0010
0000
0000
0100
0000
0100
0000
,
1010
0000
0100
0000
0001
0100
0010
0001
,
0000
0010
0100
0000
0010
0200
0000
0300
,
1100
1000
0010
0100
,
0010
0001
0010
0100
0010
0000
0100
0000
,
1010
0000
0100
0000
0010
0001
0010
0100
,
0000
0000
0100
0000
0010
0000
0000
0000
0001
0000
0010
0200
0000
0000
0000
0300
,
2000
0000
0000
0000
0000
0000
0000
0000
0000
0000
0000
0000
0000
0000
0000
0000
0000
0000
0000
0000
0000
0000
0000
0000
0000
0000
0000
0000
0000
0000
0000
0000
0000
0000
0000
0000
0000
0000
0000
0000
0010
0000
0000
0000
0000
0000
0000
0000
0010
0000
0000
0000
0000
0000
0000
0000
0000
0000
0000
0000
0001
0000
0000
0000
0000
0000
0000
0000
0000
0000
0000
0000
0010
0000
0000
0000
0000
0000
0000
0000
0000
0000
0000
0000
0200
0000
0000
0000
0000
0000
0000
0000
0000
0000
0000
0000
0000
0000
0000
0000
0000
0000
0000
0000
0000
0000
0000
0000
0000
0000
0000
0000
0000
0000
0000
0000
0000
0000
0000
0000
0000
0000
0000
0000
0000
0000
0000
0000
0000
0000
0000
0000
0000
0000
0000
0000
0000
0000
3300
0000
0000
0000
0000
0000
00M0
0000
0000
0000
0000
0000
0000
0000
0000
0000
0000
0000
0000
0000
0000
0000
0000
0000
0000
0000
0000
0000
0000
0000
0M00
0000
0000
0000
0000
0000
0000
0000
0000
0000
0000
0000
0000
0000
0000
0000
0000
0000
0000
0000
0000
0000
0000
0000
,
1001
0000
0001
0000
0010
0100
1000
0100
,
0000
0000
0010
0000
0010
0000
0000
0000
0010
0000
0200
0000
0000
0000
0000
0300
,
0101
0000
0010
0000
1000
0000
0100
0001
,
0000
0010
0100
0002
1000
0000
0003
0000
,
0011
0000
0010
0000
0100
0010
1000
0010
,
0000
0000
0100
0000
0010
0000
0000
0000
0001
0000
0010
0000
0010
0000
0100
0010
,
0200
0000
0000
0000
0000
0000
0000
0000
0000
0300
0000
0000
2000
0000
0000
0000
0000
0000
3010
0000
0010
0000
0000
0000
0000
0000
0000
0010
0000
0000
0000
0000
0000
0001
0000
0000
0001
0000
0000
0000
0010
0000
0000
0000
0000
0100
0000
0000
,
0101
0000
0000
0000
0010
0000
0000
0000
1000
0000
0100
0010
0100
0000
0001
0000
,
0000
0000
0000
0000
0000
0000
0010
0000
0000
0000
0000
0000
0100
0000
0000
0000
0010
0000
0000
0000
0010
0000
0000
0000
0001
0000
0000
0000
0010
0000
0000
0000
0010
0000
0000
0000
0100
0000
0000
0100
0000
0000
1000
0000
0000
0000
0000
0000
,
2100
0000
0001
3000
0010
0100
0000
0010
,
0000
0100
0000
0010
0100
1000
0100
0010
,
0011
0000
0000
0000
0010
0000
0000
0000
0100
0010
0000
0000
0100
0000
2000
0000
,
0000
0000
0010
3000
0010
0000
0001
0000
,
0002
0000
0000
0000
0000
0000
0000
0000
0000
0000
0000
0000
0000
0000
0000
0000
0000
0000
0000
0000
0000
0000
0000
0000
0000
0000
0000
0000
0000
0000
0000
0000
0000
0000
0000
0000
0000
0000
0000
0000
0000
0000
0000
0000
0000
0000
0000
0000
0100
0000
0000
0000
0000
0000
0000
0000
0000
0000
0000
0000
0000
0000
0000
0000
0003
0000
0000
0000
0000
0000
0000
0000
0000
0000
0000
0000
0000
0000
0000
0000
0000
0000
0000
0000
0000
0000
0000
0000
0000
0000
0000
0000
0000
0000
0000
0000
0100
0000
0000
0000
0000
0000
0000
0000
0000
0000
0000
0000
0000
0000
0000
0000
0000
0000
0000
0000
0000
0000
0000
0000
0010
0000
0000
0000
0000
0000
0000
0000
0000
0000
0000
0000
0000
0000
0000
0000
0000
0000
0000
0000
0000
0000
0000
0000
0000
0000
0000
0000
0000
0000
0000
0000
0000
0000
0000
0000
0000
0000
0000
0000
0000
0000
0000
0000
0000
0000
0000
0000
1000
0000
0000
0000
0000
0000
0000
0000
0000
0000
0000
0000
0000
0000
0000
0000
0000
0000
0100
0000
0000
0000
0000
0000
,
0000
0000
0000
0000
0000
0000
0010
0000
0000
0000
0100
0000
0000
0000
0000
0000
0000
0000
0010
0000
0000
0000
0100
0000
0000
0000
0010
0000
0000
0000
0000
0000
0000
0000
0010
0000
0000
0000
0000
0000
0000
0000
0001
0000
0000
0000
0000
0000
0000
0000
0001
0000
0000
0000
0000
0000
0000
0010
0000
0000
0000
0000
0000
0000
,
0002
0000
0000
0000
0000
0000
0000
0000
0000
0000
0200
0000
0000
0000
0000
0303
,
1100
0000
0010
0000
0100
0010
1000
0010
0000
0100
0000
0010
0000
1000
0010
0000
,
0100
0000
0000
0010
0000
0000
0001
0000
0000
0010
0000
0000
0100
0000
0010
0000
,
1000
0000
0100
0000
1000
0000
0100
0000
0010
0000
0100
0000
0010
0000
0001
0000
0010
0000
0001
0000
0000
0000
0000
0000
0000
0000
0000
0000
0000
0000
0000
0000
0000
0000
0000
0000
0100
0000
0000
0000
0000
0000
0001
0000
0000
0010
0000
0000
,
0100
0000
0000
0000
0000
0000
0000
0000
0100
0000
0000
0000
0000
0000
0000
0000
0000
0000
0010
0000
0000
0000
0000
0000
0000
0000
0000
1000
0000
0000
0000
0000
0000
0000
0000
0000
0100
0000
0000
0000
0000
0000
0010
0000
0000
0000
0000
0000
,
0100
0010
0100
1000
0100
0010
0020
0000
0000
0000
0000
0030
1000
0000
0000
0000
,
2020
0000
0000
0030
0000
0000
3000
0000
0200
0000
0000
0000
0000
0000
0000
0300
,
0000
0000
0002
0000
0000
0000
0000
0000
0000
0003
0000
0000
0000
0000
0000
0000
;
