#TITLE:DJ Whore;
#SUBTITLE:;
#ARTIST:S3RL feat Tamika;
#TITLETRANSLIT:;
#SUBTITLETRANSLIT:;
#ARTISTTRANSLIT:;
#GENRE:;
#CREDIT:;
#BANNER:[You Won't See This in DDR IV] - DJ Whore.png;
#BACKGROUND:[You Won't See This in DDR IV] - DJ Whore-bg.png;
#LYRICSPATH:;
#CDTITLE:;
#MUSIC:DJ Whore.mp3;
#OFFSET:-2.952000;
#SAMPLESTART:14.588141;
#SAMPLELENGTH:10.285714;
#SELECTABLE:YES;
#BPMS:0.000000=175.000000
;
#STOPS:28.000000=1.029000,
120.000000=1.371000,
149.000000=1.029000,
242.000000=0.171000,
242.500000=0.171000,
243.000000=0.171000,
243.500000=0.171000,
289.500000=0.686000
;
#BGCHANGES:;
#KEYSOUNDS:;
#ATTACKS:;

//---------------dance-single - ----------------
#NOTES:
     dance-single:
     :
     Hard:
     9:
     0.571392,0.613267,0.274176,0.129024,0.415296,446.000000,34.000000,16.000000,0.000000,0.000000,0.000000,0.571392,0.613267,0.274176,0.129024,0.415296,446.000000,34.000000,16.000000,0.000000,0.000000,0.000000:
// measure 0
0000
0000
0000
0000
,  // measure 1
0000
0000
0000
0000
,  // measure 2
0000
0000
2002
3003
,  // measure 3
0000
0000
0000
0000
,  // measure 4
0001
0001
1000
0010
,  // measure 5
0100
0100
0010
0100
,  // measure 6
0001
0100
1000
0100
,  // measure 7
0000
0000
0000
0201
0000
0000
0000
0000
0000
0310
0000
1000
,  // measure 8
0100
0000
1000
0000
0000
0001
0000
0000
1000
0010
0000
0100
,  // measure 9
0000
0000
0000
0001
0000
0000
0001
0000
1000
0100
0000
0010
,  // measure 10
0001
0000
0001
0100
0000
0100
0000
0010
1000
0001
0000
0000
,  // measure 11
0011
2100
0000
3000
,  // measure 12
0100
0010
0001
1000
0000
1000
0000
0000
0001
0010
0000
0001
,  // measure 13
0000
0000
0000
1000
0000
0010
0100
0000
0000
0010
0000
0000
,  // measure 14
0100
0000
0000
1001
0000
1000
1001
0000
0000
0120
0000
0000
,  // measure 15
0030
0000
1000
0010
0000
0010
1000
0000
1000
0001
0000
0001
,  // measure 16
0100
0000
0001
1000
0000
1000
0001
0000
0001
0010
0000
0010
,  // measure 17
0001
0000
0000
1000
0000
0001
0010
0000
0001
1000
0000
1000
,  // measure 18
0010
0000
0010
0100
0000
0100
0001
0000
0001
1000
0000
1000
,  // measure 19
0100
0000
0000
1000
0000
0001
1000
0000
1000
0001
0000
0001
,  // measure 20
0010
0000
0001
1000
0000
1000
0001
0000
0001
0100
0000
0100
,  // measure 21
0010
0000
0000
0100
0000
0100
0001
0000
0001
0010
0000
0010
,  // measure 22
0001
0000
0001
1001
0000
0000
0110
0000
0000
1001
0000
0000
,  // measure 23
0110
0000
0000
1000
0000
0001
0100
0000
0001
0010
0000
0001
,  // measure 24
1000
0000
0001
0001
0000
1000
0001
0000
0010
0001
0000
0100
,  // measure 25
0001
0000
0000
1000
0100
0010
0001
1000
0010
0100
0000
0001
,  // measure 26
1000
0000
0001
0010
0000
0010
0100
0000
0100
1000
0000
1000
,  // measure 27
0001
0000
0000
1000
0000
0001
0010
0000
0010
0100
0000
0100
,  // measure 28
1000
0000
1000
0001
0000
0001
1000
0000
1000
0001
0000
1000
,  // measure 29
0100
0020
0000
0000
,  // measure 30
0030
0000
0000
0001
0000
0000
0100
0000
0010
1000
0000
0000
,  // measure 31
0001
0000
0000
1000
0000
0000
1000
0000
0001
0100
0000
0000
,  // measure 32
0001
0000
0000
0010
0000
0000
0100
0000
1000
0100
0000
0000
,  // measure 33
0010
0000
0000
0001
0000
0000
0001
0000
1000
0010
0000
0000
,  // measure 34
0100
0000
0000
0001
0000
1000
0010
0000
0000
0100
0000
0001
,  // measure 35
0010
0000
0000
0100
0000
1000
0010
0000
0000
0100
0000
0001
,  // measure 36
0010
0000
0000
0100
0000
1000
0010
0000
0000
0100
0000
0001
,  // measure 37
0010
0000
2002
3003
,  // measure 38
1000
0000
1000
0000
1000
0000
0001
1000
0100
0000
0000
0010
,  // measure 39
0001
0000
1000
0000
0000
0000
0101
0000
0000
0101
0000
0001
,  // measure 40
1000
0000
1000
0010
0000
0010
0100
0000
0100
0000
0100
0010
,  // measure 41
1000
0101
2010
0000
,  // measure 42
3000
0000
0000
0010
0100
0001
1000
0000
1000
0000
0000
0001
,  // measure 43
1000
0000
0010
0000
0000
0000
1010
0000
1000
1000
0000
0000
,  // measure 44
1001
0000
0000
0101
0000
0000
0100
0000
0100
0200
0000
0300
,  // measure 45
0020
0030
1000
0100
,  // measure 46
0010
0000
0110
0100
1000
0000
1000
0001
,  // measure 47
0000
0000
1001
0000
1000
0000
0010
0100
,  // measure 48
0001
0000
0010
0000
0100
0000
1000
0001
,  // measure 49
0000
1001
0001
0100
,  // measure 50
0010
0000
0100
0001
0100
0000
0010
1000
,  // measure 51
0000
0000
0100
0010
0001
0000
1000
0001
,  // measure 52
0100
0000
0000
0000
0001
0000
0000
0000
0010
0000
0000
0001
0000
0000
1000
0000
,  // measure 53
0010
0000
0100
0001
1000
0000
0100
0000
,  // measure 54
0010
0000
0001
1000
0001
0000
0001
0100
,  // measure 55
0000
0000
0001
0010
0100
0000
0010
0001
,  // measure 56
1000
0000
0010
0000
0100
0000
0001
0100
,  // measure 57
0000
0000
0000
0000
0010
1000
0010
1000
,  // measure 58
0010
0100
0010
0100
0001
0100
0001
0100
,  // measure 59
0001
0000
1000
0000
0001
0000
1000
0000
0001
0000
1000
0010
1000
0000
0001
0100
,  // measure 60
0001
0000
1000
0001
1000
0000
0001
0010
0001
0000
0100
0000
0020
0000
0030
0000
,  // measure 61
1001
0000
1000
0001
0010
0000
0100
1000
,  // measure 62
0010
0000
0100
0010
0000
0100
0001
0010
,  // measure 63
0100
0000
0010
0001
0010
0000
0001
0000
,  // measure 64
1000
0001
0100
0001
0000
0000
1000
0100
,  // measure 65
0001
0000
0100
0000
1000
0000
0010
0100
,  // measure 66
0001
0000
1000
0001
0000
0001
0100
0001
,  // measure 67
0010
0000
0100
1000
0010
0000
0100
0000
,  // measure 68
0001
0000
0000
0010
0000
0000
0001
0000
1000
0000
1000
0000
1000
0000
0000
0000
,  // measure 69
0101
0000
0011
0000
1001
0000
1000
0010
,  // measure 70
0100
0000
0001
0010
0000
0010
0100
1000
,  // measure 71
0001
0000
1000
0001
0100
0000
0011
0000
,  // measure 72
1100
0000
1000
0001
1010
0000
0101
0000
,  // measure 73
0011
0000
0010
0001
1000
0000
0001
0100
,  // measure 74
0000
0010
1000
0100
0020
0000
0031
0000
,  // measure 75
0002
0000
0000
0000
1003
0000
0000
0000
0001
0000
0000
0100
0000
0000
1000
0000
,  // measure 76
0100
0000
0020
1000
,  // measure 77
1030
0000
0101
0001
0010
0000
0100
1000
,  // measure 78
0000
0000
1100
0000
1000
0000
0010
0100
,  // measure 79
0001
0000
0010
0000
0001
0000
1000
0100
,  // measure 80
0000
1001
1000
0001
,  // measure 81
0010
0000
0100
1000
0010
0000
0001
0010
,  // measure 82
0000
0100
0010
1000
0001
0000
1000
0001
,  // measure 83
0100
0010
1000
0001
0020
0000
0000
0000
,  // measure 84
0000
0000
0030
0000
;

//---------------dance-single - ----------------
#NOTES:
     dance-single:
     :
     Medium:
     6:
     0.406656,0.442915,0.282240,0.056448,0.028224,311.000000,35.000000,7.000000,0.000000,0.000000,0.000000,0.406656,0.442915,0.282240,0.056448,0.028224,311.000000,35.000000,7.000000,0.000000,0.000000,0.000000:
// measure 0
0000
0000
0000
0000
,  // measure 1
0000
0000
0000
0000
,  // measure 2
0000
0000
1001
0000
,  // measure 3
0000
0000
0000
0000
,  // measure 4
1000
1000
0001
1000
,  // measure 5
0001
0001
1000
0010
,  // measure 6
0100
0010
1000
0001
,  // measure 7
0000
2000
3000
1001
,  // measure 8
0001
0001
1000
0100
,  // measure 9
1000
0010
0010
0100
,  // measure 10
0010
0000
0000
0100
0000
0010
0000
1000
0001
1000
0000
0000
,  // measure 11
0110
2001
3000
0000
,  // measure 12
0001
0001
1000
0010
,  // measure 13
1000
0000
0000
0010
0000
0100
0001
0000
0000
1000
0000
0000
,  // measure 14
0001
0000
0000
1000
0000
0001
0100
0000
0000
0110
0000
0000
,  // measure 15
0000
0001
0100
0010
,  // measure 16
1010
1000
0100
0010
,  // measure 17
0011
0001
1000
0001
,  // measure 18
0101
0001
1000
0001
,  // measure 19
0011
0001
1000
0100
,  // measure 20
0010
0100
1000
1000
,  // measure 21
0001
1000
0010
0100
,  // measure 22
0001
1001
1001
1001
,  // measure 23
1001
0001
1000
0010
,  // measure 24
0010
0100
0010
1000
,  // measure 25
0001
1000
0100
0001
,  // measure 26
0100
1000
0010
0100
,  // measure 27
0001
1000
0100
1000
,  // measure 28
0001
0100
0010
0100
,  // measure 29
0001
0020
0000
0000
,  // measure 30
0030
0100
1000
0001
,  // measure 31
0001
1000
0010
0100
,  // measure 32
0100
0010
1000
0100
,  // measure 33
0100
1000
0001
0010
,  // measure 34
0010
0001
0100
0001
,  // measure 35
1000
0001
1000
0001
,  // measure 36
1000
1000
0001
1000
,  // measure 37
0100
1000
1020
0000
,  // measure 38
0130
0001
0010
0010
,  // measure 39
0001
0010
0100
0100
,  // measure 40
1000
0100
1000
0010
,  // measure 41
0100
1001
0101
0000
,  // measure 42
0000
0001
0001
0100
,  // measure 43
0010
1000
0010
0010
,  // measure 44
0100
0000
0000
0010
0000
0000
1000
0000
0001
1000
0000
0000
,  // measure 45
0010
0000
1000
0100
,  // measure 46
1000
0000
0000
0010
1000
0000
1000
0001
,  // measure 47
0000
0000
0001
0010
,  // measure 48
0010
0000
0001
0000
0100
0000
0001
1000
,  // measure 49
0000
0000
0001
1000
,  // measure 50
0010
0000
0000
0100
0010
0000
0010
0100
,  // measure 51
0000
0000
0000
0000
0010
0000
1000
0010
,  // measure 52
1000
0010
0100
0001
,  // measure 53
1000
0000
0001
0100
,  // measure 54
0010
0000
0000
0100
0010
0000
0010
1000
,  // measure 55
0000
0000
0000
0000
1000
0000
0100
1000
,  // measure 56
0100
0000
1000
0000
0010
0000
0100
0001
,  // measure 57
0000
0000
1000
0001
,  // measure 58
0100
0000
0000
0010
1000
0000
0100
0001
,  // measure 59
0000
0000
0000
0000
0001
0000
0010
0100
,  // measure 60
1000
0000
0010
0000
2002
0000
0000
3003
,  // measure 61
0011
0000
0101
0000
1001
0000
0000
1000
,  // measure 62
0001
0000
0001
1000
0000
0000
0000
0000
,  // measure 63
1010
0000
1000
0010
0100
0000
0010
0000
,  // measure 64
0100
0000
0001
1000
0000
0000
0000
0000
,  // measure 65
1100
0000
0110
0000
0011
0000
0000
0001
,  // measure 66
0010
0000
0010
0100
0000
0000
0000
0000
,  // measure 67
0010
0000
0001
1000
0010
0000
0100
0000
,  // measure 68
0001
0000
1000
0000
0010
0100
0010
0000
,  // measure 69
0101
0000
1010
0000
1100
0000
0000
1000
,  // measure 70
0001
0000
1000
0100
0000
0000
0000
0000
,  // measure 71
1100
0000
0010
0001
1000
0000
0001
0000
,  // measure 72
1000
0000
0100
0010
0110
0000
0011
0000
,  // measure 73
1001
0000
0000
1000
0001
0000
0001
1000
,  // measure 74
0000
0000
0000
0000
0001
0000
0100
0010
,  // measure 75
1000
0000
0000
0000
0001
0000
0000
0000
0100
0000
0000
0010
0000
0000
1000
0000
,  // measure 76
0001
0000
1100
1010
,  // measure 77
1001
0000
0000
1000
0001
0000
0001
0100
,  // measure 78
0000
0000
0000
0000
0110
0000
0010
1000
,  // measure 79
0001
0000
0010
0000
0100
0000
0010
0001
,  // measure 80
0000
0000
1000
0001
,  // measure 81
0100
0000
0010
1000
0001
0000
0100
0010
,  // measure 82
0000
0000
0000
0000
0100
0000
0010
1000
,  // measure 83
0100
0010
0001
1000
0020
0000
0000
0000
,  // measure 84
0000
0000
0030
0000
;

//---------------dance-single - ----------------
#NOTES:
     dance-single:
     :
     Easy:
     4:
     0.321408,0.408845,0.145152,0.040320,0.000000,256.000000,18.000000,5.000000,0.000000,0.000000,0.000000,0.321408,0.408845,0.145152,0.040320,0.000000,256.000000,18.000000,5.000000,0.000000,0.000000,0.000000:
// measure 0
0000
0000
0000
0000
,  // measure 1
0000
0000
0000
0000
,  // measure 2
0000
0000
1001
0000
,  // measure 3
0000
0000
0000
0000
,  // measure 4
0001
0000
1000
0000
,  // measure 5
0010
0000
0100
0000
,  // measure 6
0001
0100
0010
1000
,  // measure 7
0000
0010
0000
1001
,  // measure 8
0001
0000
1000
0100
,  // measure 9
0000
1000
1000
0100
,  // measure 10
1000
0010
0100
0001
,  // measure 11
0010
1001
0000
0000
,  // measure 12
0001
0001
1000
0010
,  // measure 13
0000
0110
0110
0001
,  // measure 14
1000
0101
1100
1001
,  // measure 15
0000
0001
0100
0010
,  // measure 16
1000
0001
0001
1000
,  // measure 17
1000
0001
0010
0001
,  // measure 18
1000
0100
1000
0010
,  // measure 19
0010
0100
0001
0100
,  // measure 20
0010
0100
0001
0001
,  // measure 21
1000
0100
1000
0010
,  // measure 22
0100
1001
1001
1001
,  // measure 23
1001
0001
0001
1000
,  // measure 24
0100
1000
1000
0100
,  // measure 25
0010
0001
0010
0100
,  // measure 26
1000
0010
0010
0100
,  // measure 27
0001
1000
0100
0010
,  // measure 28
0001
0100
0010
1000
,  // measure 29
0001
0020
0000
0000
,  // measure 30
0030
0100
0000
1000
,  // measure 31
0000
0001
0001
0001
,  // measure 32
0000
1000
0000
0010
,  // measure 33
0000
0100
0100
0100
,  // measure 34
0000
0010
0000
1000
,  // measure 35
0000
0010
0000
1000
,  // measure 36
0000
0010
0000
1000
,  // measure 37
0000
0000
1001
0000
,  // measure 38
0001
0000
1000
0000
,  // measure 39
0100
0000
1000
1000
,  // measure 40
0010
0010
0100
0001
,  // measure 41
0010
0110
1001
0000
,  // measure 42
0000
1000
1000
0001
,  // measure 43
0100
0000
0010
0010
,  // measure 44
0100
0001
1000
1000
,  // measure 45
2000
3000
0001
1000
,  // measure 46
0010
0000
1000
0001
,  // measure 47
0100
0000
0100
0001
,  // measure 48
0100
0010
1000
0100
,  // measure 49
0000
0000
1000
0000
,  // measure 50
0010
0000
1000
1000
,  // measure 51
0001
0000
0100
0000
,  // measure 52
0001
0000
0010
0100
,  // measure 53
1000
0000
0100
1000
,  // measure 54
0100
0000
1000
0010
,  // measure 55
0100
0000
0001
0100
,  // measure 56
0001
0010
0001
1000
,  // measure 57
0001
0000
1000
0100
,  // measure 58
0100
0000
0010
0001
,  // measure 59
0100
0000
0010
0100
,  // measure 60
0001
0000
1000
0000
0020
0000
0000
0030
,  // measure 61
1000
0001
0100
0000
,  // measure 62
0010
1000
0100
0000
,  // measure 63
1000
0001
0100
0001
,  // measure 64
0010
0100
0100
0000
,  // measure 65
0010
0001
1000
0000
,  // measure 66
1000
0001
0100
0000
,  // measure 67
0001
1000
0100
1000
,  // measure 68
0010
0000
0100
0000
0001
1000
0001
0000
,  // measure 69
1000
0100
0010
0000
,  // measure 70
0100
1000
0001
0000
,  // measure 71
1000
0100
1000
0010
,  // measure 72
0100
0001
1000
0010
,  // measure 73
0100
0000
0010
0100
,  // measure 74
0001
0000
1000
0100
,  // measure 75
1000
0010
0200
0000
,  // measure 76
0000
0300
0001
0100
,  // measure 77
0010
0110
0100
0010
,  // measure 78
1000
1001
0001
1000
,  // measure 79
0100
1000
0010
0100
,  // measure 80
0000
1001
0001
1000
,  // measure 81
0100
1000
0010
0100
,  // measure 82
0001
0010
0001
0010
,  // measure 83
0100
1000
0020
0000
,  // measure 84
0000
0000
0030
0000
;

//---------------dance-single - ----------------
#NOTES:
     dance-single:
     :
     Beginner:
     2:
     0.160128,0.235670,0.048384,0.000000,0.000000,133.000000,6.000000,0.000000,0.000000,0.000000,0.000000,0.160128,0.235670,0.048384,0.000000,0.000000,133.000000,6.000000,0.000000,0.000000,0.000000,0.000000:
// measure 0
0000
0000
0000
0000
,  // measure 1
0000
0000
0000
0000
,  // measure 2
0000
0000
0000
0000
,  // measure 3
0000
0000
0000
0000
,  // measure 4
1000
0000
1000
0000
,  // measure 5
1000
0000
1000
0000
,  // measure 6
0001
0000
0001
0000
,  // measure 7
0000
0010
0000
1001
,  // measure 8
0000
0000
0000
0001
,  // measure 9
0000
1000
1000
1000
,  // measure 10
0000
0010
0000
0100
,  // measure 11
0000
0110
0000
0000
,  // measure 12
0100
0100
0000
0010
,  // measure 13
0000
1000
1000
1000
,  // measure 14
0000
0001
0001
0001
,  // measure 15
0000
1000
0000
0000
,  // measure 16
0000
0010
0000
0000
,  // measure 17
0000
0100
0000
0000
,  // measure 18
0000
0001
0000
0001
,  // measure 19
0000
1000
0000
0000
,  // measure 20
0000
0010
0000
0000
,  // measure 21
0000
1000
0000
0000
,  // measure 22
0000
0001
0000
1000
,  // measure 23
0000
0100
0000
0000
,  // measure 24
0000
1000
0000
0000
,  // measure 25
0000
0010
0000
0000
,  // measure 26
0000
0100
0000
0000
,  // measure 27
0000
0001
0000
0000
,  // measure 28
0000
1000
0000
0001
,  // measure 29
0000
0010
0000
0000
,  // measure 30
0000
0100
0000
0000
,  // measure 31
0000
1000
0000
0000
,  // measure 32
0000
0010
0000
0000
,  // measure 33
0000
0100
0000
0000
,  // measure 34
0000
0001
0000
0000
,  // measure 35
0000
1000
0000
0000
,  // measure 36
0000
0010
0000
0000
,  // measure 37
0000
0000
1001
0000
,  // measure 38
0001
0000
1000
0000
,  // measure 39
0010
0000
0100
0100
,  // measure 40
0100
0000
0010
0000
,  // measure 41
0100
0110
1001
0000
,  // measure 42
0000
0001
0001
0000
,  // measure 43
1000
0000
0010
0000
,  // measure 44
0100
0000
0010
0010
,  // measure 45
0010
0000
0100
0000
,  // measure 46
0000
0000
0001
0000
,  // measure 47
0000
0000
1000
0000
,  // measure 48
0000
0000
1000
0000
,  // measure 49
0000
0000
0100
0000
,  // measure 50
0000
0000
1000
0000
,  // measure 51
0000
0000
0010
0000
,  // measure 52
0000
0000
0100
0000
,  // measure 53
0000
0000
0010
0000
,  // measure 54
0000
0000
1000
0000
,  // measure 55
0000
0000
0001
0000
,  // measure 56
1000
0000
0001
0000
,  // measure 57
0000
0000
0100
0000
,  // measure 58
0000
0000
0010
0000
,  // measure 59
0000
0000
1000
0000
,  // measure 60
0001
0000
0000
0000
,  // measure 61
0010
0000
0100
0000
,  // measure 62
0010
0010
0010
0000
,  // measure 63
1000
0000
0001
0000
,  // measure 64
1000
1000
0000
0000
,  // measure 65
0001
0000
0100
0000
,  // measure 66
0001
0001
0001
0000
,  // measure 67
1000
0000
0010
0000
,  // measure 68
0100
0000
0000
0000
,  // measure 69
0010
0010
0010
0000
,  // measure 70
1000
0000
0000
0000
,  // measure 71
0001
0001
0001
0000
,  // measure 72
1000
0000
0010
0010
,  // measure 73
0010
0000
0100
0000
,  // measure 74
0000
0000
0010
0000
,  // measure 75
1000
0000
0001
0000
,  // measure 76
0000
0000
1000
1000
,  // measure 77
1000
0000
0001
0000
,  // measure 78
0000
0000
0100
0100
,  // measure 79
0100
0000
0010
0000
,  // measure 80
0000
0000
0100
0000
,  // measure 81
0001
0000
1000
1000
,  // measure 82
1000
0000
0010
0000
,  // measure 83
0100
0000
1001
0000
;
