#VERSION:0.83;
#TITLE:asdfmovie song;
#SUBTITLE:;
#ARTIST:Lil Deuce Deuce;
#TITLETRANSLIT:;
#SUBTITLETRANSLIT:;
#ARTISTTRANSLIT:;
#GENRE:;
#ORIGIN:;
#CREDIT:;
#BANNER:[You Won't See This In DDR IV] - asdfmovie song.png;
#BACKGROUND:[You Won't See This In DDR IV] - asdfmovie song-bg.png;
#PREVIEWVID:;
#JACKET:[You Won't See This In DDR IV] - asdfmovie song-jacket.png;
#CDIMAGE:;
#DISCIMAGE:;
#LYRICSPATH:;
#CDTITLE:cdtitle.png;
#MUSIC:[You Won't See This In DDR IV] - asdfmovie song.ogg;
#OFFSET:1.130000;
#SAMPLESTART:2.616638;
#SAMPLELENGTH:14.982442;
#SELECTABLE:YES;
#BPMS:0.000=128.150;
#STOPS:;
#DELAYS:;
#WARPS:5.500=12.000,
117.000=16.000,
191.000=16.000,
208.000=16.000,
284.000=15.938,
300.938=16.063,
399.000=16.000;
#TIMESIGNATURES:0.000=4=4;
#TICKCOUNTS:0.000=4;
#COMBOS:0.000=1;
#SPEEDS:0.000=1.000=0.000=0,
69.500=0.500=0.500=0,
70.000=1.000=0.500=0,
77.500=0.500=0.500=0,
78.000=1.000=0.500=0,
165.000=1.500=1.000=0,
166.000=0.750=1.000=0,
167.000=1.500=1.000=0,
168.000=1.000=1.000=0,
237.000=2.000=2.000=0,
239.000=1.000=2.000=0,
244.000=4.000=3.000=0,
247.000=1.000=2.000=0,
381.000=1.500=1.000=0,
382.000=0.750=1.000=0,
383.000=1.500=1.000=0,
384.000=1.000=1.000=0;
#SCROLLS:0.000=1.000,
17.500=0.000,
19.750=2.000,
20.000=1.000,
27.000=0.000,
27.750=2.000,
28.000=1.000,
34.000=0.000,
34.750=2.000,
35.000=0.000,
35.250=2.000,
35.500=0.000,
35.750=2.000,
36.000=1.000,
42.000=0.000,
43.750=2.000,
44.000=1.000,
59.167=2.000,
59.333=0.000,
59.500=2.000,
59.667=0.000,
59.833=2.000,
60.000=1.000,
82.000=0.000,
82.125=2.000,
82.250=0.000,
82.375=2.000,
82.500=0.000,
82.625=2.000,
82.750=0.000,
82.875=2.000,
83.000=0.000,
83.125=2.000,
83.250=0.000,
83.375=2.000,
83.500=0.000,
83.625=2.000,
83.750=0.000,
83.875=2.000,
84.000=1.000,
85.000=0.000,
85.750=2.000,
86.000=1.000,
88.000=0.000,
88.750=2.000,
89.000=1.000,
89.500=0.000,
90.250=2.000,
90.500=1.000,
91.000=0.000,
91.750=2.000,
92.000=1.000,
98.000=0.500,
99.000=0.000,
99.250=2.000,
99.500=0.000,
99.750=2.000,
100.000=1.000,
106.000=0.000,
107.750=2.000,
108.000=1.000,
115.500=0.000,
117.000=1.000,
133.000=10.000,
133.500=1.000,
183.000=0.000,
183.750=2.000,
184.000=0.000,
184.250=2.000,
184.500=0.000,
184.750=2.000,
185.000=1.000,
224.000=0.000,
225.000=1.000,
249.000=0.000,
249.125=2.000,
249.250=0.000,
249.375=2.000,
249.500=0.000,
249.625=2.000,
249.750=0.000,
249.875=2.000,
250.000=0.000,
250.125=2.000,
250.250=0.000,
250.375=2.000,
250.500=0.000,
250.625=2.000,
250.750=0.000,
250.875=2.000,
251.000=0.000,
251.125=2.000,
251.250=0.000,
251.375=2.000,
251.500=0.000,
251.750=2.000,
252.000=0.000,
252.250=2.000,
252.500=1.000,
253.000=0.000,
253.125=2.000,
253.250=0.000,
253.375=2.000,
253.500=0.000,
253.625=2.000,
253.750=0.000,
253.875=2.000,
254.000=0.000,
254.125=2.000,
254.250=0.000,
254.375=2.000,
254.500=0.000,
254.625=2.000,
254.750=0.000,
254.875=2.000,
255.000=0.000,
255.125=2.000,
255.250=0.000,
255.375=2.000,
255.500=0.000,
255.750=2.000,
256.000=0.000,
256.250=2.000,
256.500=1.000,
257.000=0.000,
257.125=2.000,
257.250=0.000,
257.375=2.000,
257.500=0.000,
257.625=2.000,
257.750=0.000,
257.875=2.000,
258.000=0.000,
258.125=2.000,
258.250=0.000,
258.375=2.000,
258.500=0.000,
258.625=2.000,
258.750=0.000,
258.875=2.000,
259.000=0.000,
259.125=2.000,
259.250=0.000,
259.375=2.000,
259.500=0.000,
259.750=2.000,
260.000=0.000,
260.250=2.000,
260.500=1.000,
261.000=0.000,
261.125=2.000,
261.250=0.000,
261.500=2.000,
261.750=0.000,
261.875=2.000,
262.000=0.000,
262.125=2.000,
262.250=0.000,
262.375=2.000,
262.500=0.000,
262.750=2.000,
263.000=0.000,
263.125=2.000,
263.250=0.000,
263.375=2.000,
263.500=0.000,
263.625=2.000,
263.750=0.000,
263.875=2.000,
264.000=0.000,
264.250=2.000,
264.500=0.000,
264.750=2.000,
265.000=0.000,
265.125=2.000,
265.250=0.000,
265.375=2.000,
265.500=0.000,
265.625=2.000,
265.750=0.000,
265.875=2.000,
266.000=0.000,
266.125=2.000,
266.250=0.000,
266.375=2.000,
266.500=0.000,
266.625=2.000,
266.750=0.000,
266.875=2.000,
267.000=0.000,
267.125=2.000,
267.250=0.000,
267.375=2.000,
267.500=0.000,
267.750=2.000,
268.000=0.000,
268.250=2.000,
268.500=1.000,
269.000=0.000,
269.125=2.000,
269.250=0.000,
269.375=2.000,
269.500=0.000,
269.625=2.000,
269.750=0.000,
269.875=2.000,
270.000=0.000,
270.125=2.000,
270.250=0.000,
270.375=2.000,
270.500=0.000,
270.625=2.000,
270.750=0.000,
270.875=2.000,
271.000=0.000,
271.125=2.000,
271.250=0.000,
271.375=2.000,
271.500=0.000,
271.750=2.000,
272.000=0.000,
272.250=2.000,
272.500=1.000,
273.000=0.000,
273.125=2.000,
273.250=0.000,
273.375=2.000,
273.500=0.000,
273.625=2.000,
273.750=0.000,
273.875=2.000,
274.000=0.000,
274.125=2.000,
274.250=0.000,
274.375=2.000,
274.500=0.000,
274.625=2.000,
274.750=0.000,
274.875=2.000,
275.000=0.000,
275.125=2.000,
275.250=0.000,
275.375=2.000,
275.500=0.000,
275.750=2.000,
276.000=0.000,
276.250=2.000,
276.500=1.000,
277.000=0.000,
277.125=2.000,
277.250=0.000,
277.500=2.000,
277.750=0.000,
277.875=2.000,
278.000=0.000,
278.125=2.000,
278.250=0.000,
278.375=2.000,
278.500=0.000,
278.750=2.000,
279.000=0.000,
279.125=2.000,
279.250=0.000,
279.375=2.000,
279.500=0.000,
279.625=2.000,
279.750=0.000,
279.875=2.000,
280.000=1.000,
281.000=0.000,
281.875=8.000,
282.000=0.000,
282.875=8.000,
283.000=0.000,
283.875=8.000,
284.000=1.000,
299.938=0.500,
300.938=1.000,
392.000=0.000,
392.750=4.000,
393.000=1.000,
415.000=0.000;
#FAKES:;
#LABELS:0.000=Song Start;
#BGCHANGES:2.375=[You Won't See This In DDR IV] - asdfmovie song.avi=1.000=0=0=0=StretchNoLoop====,
99999=-nosongbg-=1.000=0=0=0 // don't automatically add -songbackground-
;
#KEYSOUNDS:;
#ATTACKS:
;

//---------------dance-single - ----------------
#NOTEDATA:;
#CHARTNAME:;
#STEPSTYPE:dance-single;
#DESCRIPTION:;
#CHARTSTYLE:;
#DIFFICULTY:Challenge;
#METER:10;
#RADARVALUES:0.743356,1.195669,0.377166,0.363197,0.813701,745.000000,691.000000,54.000000,52.000000,20.000000,3.000000,0.000000,0.000000,72.000000,0.743356,1.195669,0.377166,0.363197,0.813701,745.000000,691.000000,54.000000,52.000000,20.000000,3.000000,0.000000,0.000000,72.000000;
#CREDIT:;
#OFFSET:1.130000;
#BPMS:0.000000=128.149994
;
#STOPS:;
#DELAYS:;
#WARPS:5.500000=12.000000
,117.000000=16.000000
,191.000000=16.000000
,208.000000=16.000000
,284.000000=15.937500
,300.937500=16.062500
,399.000000=16.000000
;
#TIMESIGNATURES:0.000000=4=4
;
#TICKCOUNTS:0.000000=4
;
#COMBOS:0.000000=1
;
#SPEEDS:0.000000=1.000000=0.000000=0
,69.500000=0.500000=0.500000=0
,70.000000=1.000000=0.500000=0
,77.500000=0.500000=0.500000=0
,78.000000=1.000000=0.500000=0
,115.500000=2.000000=2.500000=0
,133.000000=1.000000=0.000000=0
,165.000000=1.500000=1.000000=0
,166.000000=0.750000=1.000000=0
,167.000000=1.500000=1.000000=0
,168.000000=1.000000=1.000000=0
,237.000000=2.000000=2.000000=0
,239.000000=1.000000=2.000000=0
,244.000000=3.000000=3.000000=0
,247.000000=1.000000=2.000000=0
,381.000000=1.500000=1.000000=0
,382.000000=0.750000=1.000000=0
,383.000000=1.500000=1.000000=0
,384.000000=1.000000=1.000000=0
;
#SCROLLS:0.000000=1.000000
,17.500000=0.000000
,19.750000=2.000000
,20.000000=1.000000
,27.000000=0.000000
,27.750000=2.000000
,28.000000=1.000000
,34.000000=0.000000
,34.750000=2.000000
,35.000000=0.000000
,35.250000=2.000000
,35.500000=0.000000
,35.750000=2.000000
,36.000000=1.000000
,42.000000=0.000000
,43.750000=2.000000
,44.000000=1.000000
,59.000000=0.000000
,59.166668=2.000000
,59.333332=0.000000
,59.500000=2.000000
,59.666668=0.000000
,59.833332=2.000000
,60.000000=1.000000
,82.000000=0.000000
,82.125000=2.000000
,82.250000=0.000000
,82.375000=2.000000
,82.500000=0.000000
,82.625000=2.000000
,82.750000=0.000000
,82.875000=2.000000
,83.000000=0.000000
,83.125000=2.000000
,83.250000=0.000000
,83.375000=2.000000
,83.500000=0.000000
,83.625000=2.000000
,83.750000=0.000000
,83.875000=2.000000
,84.000000=1.000000
,85.000000=0.000000
,85.750000=2.000000
,86.000000=1.000000
,88.000000=0.000000
,88.750000=2.000000
,89.000000=1.000000
,89.500000=0.000000
,90.250000=2.000000
,90.500000=1.000000
,91.000000=0.000000
,91.750000=2.000000
,92.000000=1.000000
,98.000000=0.500000
,99.000000=0.000000
,99.250000=2.000000
,99.500000=0.000000
,99.750000=2.000000
,100.000000=1.000000
,106.000000=0.000000
,107.750000=2.000000
,108.000000=1.000000
,115.500000=0.000000
,117.500000=1.000000
,133.000000=10.000000
,133.500000=1.000000
,183.000000=0.000000
,183.750000=2.000000
,184.000000=0.000000
,184.250000=2.000000
,184.500000=0.000000
,184.750000=2.000000
,185.000000=1.000000
,224.000000=0.000000
,225.000000=1.000000
,249.000000=0.000000
,249.125000=2.000000
,249.250000=0.000000
,249.375000=2.000000
,249.500000=0.000000
,249.625000=2.000000
,249.750000=0.000000
,249.875000=2.000000
,250.000000=0.000000
,250.125000=2.000000
,250.250000=0.000000
,250.375000=2.000000
,250.500000=0.000000
,250.625000=2.000000
,250.750000=0.000000
,250.875000=2.000000
,251.000000=0.000000
,251.125000=2.000000
,251.250000=0.000000
,251.375000=2.000000
,251.500000=0.000000
,251.750000=2.000000
,252.000000=0.000000
,252.250000=2.000000
,252.500000=1.000000
,253.000000=0.000000
,253.125000=2.000000
,253.250000=0.000000
,253.375000=2.000000
,253.500000=0.000000
,253.625000=2.000000
,253.750000=0.000000
,253.875000=2.000000
,254.000000=0.000000
,254.125000=2.000000
,254.250000=0.000000
,254.375000=2.000000
,254.500000=0.000000
,254.625000=2.000000
,254.750000=0.000000
,254.875000=2.000000
,255.000000=0.000000
,255.125000=2.000000
,255.250000=0.000000
,255.375000=2.000000
,255.500000=0.000000
,255.750000=2.000000
,256.000000=0.000000
,256.250000=2.000000
,256.500000=1.000000
,257.000000=0.000000
,257.125000=2.000000
,257.250000=0.000000
,257.375000=2.000000
,257.500000=0.000000
,257.625000=2.000000
,257.750000=0.000000
,257.875000=2.000000
,258.000000=0.000000
,258.125000=2.000000
,258.250000=0.000000
,258.375000=2.000000
,258.500000=0.000000
,258.625000=2.000000
,258.750000=0.000000
,258.875000=2.000000
,259.000000=0.000000
,259.125000=2.000000
,259.250000=0.000000
,259.375000=2.000000
,259.500000=0.000000
,259.750000=2.000000
,260.000000=0.000000
,260.250000=2.000000
,260.500000=1.000000
,261.000000=0.000000
,261.125000=2.000000
,261.250000=0.000000
,261.500000=2.000000
,261.750000=0.000000
,261.875000=2.000000
,262.000000=0.000000
,262.125000=2.000000
,262.250000=0.000000
,262.375000=2.000000
,262.500000=0.000000
,262.750000=2.000000
,263.000000=0.000000
,263.125000=2.000000
,263.250000=0.000000
,263.375000=2.000000
,263.500000=0.000000
,263.625000=2.000000
,263.750000=0.000000
,263.875000=2.000000
,264.000000=0.000000
,264.250000=2.000000
,264.500000=0.000000
,264.750000=2.000000
,265.000000=0.000000
,265.125000=2.000000
,265.250000=0.000000
,265.375000=2.000000
,265.500000=0.000000
,265.625000=2.000000
,265.750000=0.000000
,265.875000=2.000000
,266.000000=0.000000
,266.125000=2.000000
,266.250000=0.000000
,266.375000=2.000000
,266.500000=0.000000
,266.625000=2.000000
,266.750000=0.000000
,266.875000=2.000000
,267.000000=0.000000
,267.125000=2.000000
,267.250000=0.000000
,267.375000=2.000000
,267.500000=0.000000
,267.750000=2.000000
,268.000000=0.000000
,268.250000=2.000000
,268.500000=1.000000
,269.000000=0.000000
,269.125000=2.000000
,269.250000=0.000000
,269.375000=2.000000
,269.500000=0.000000
,269.625000=2.000000
,269.750000=0.000000
,269.875000=2.000000
,270.000000=0.000000
,270.125000=2.000000
,270.250000=0.000000
,270.375000=2.000000
,270.500000=0.000000
,270.625000=2.000000
,270.750000=0.000000
,270.875000=2.000000
,271.000000=0.000000
,271.125000=2.000000
,271.250000=0.000000
,271.375000=2.000000
,271.500000=0.000000
,271.750000=2.000000
,272.000000=0.000000
,272.250000=2.000000
,272.500000=1.000000
,273.000000=0.000000
,273.125000=2.000000
,273.250000=0.000000
,273.375000=2.000000
,273.500000=0.000000
,273.625000=2.000000
,273.750000=0.000000
,273.875000=2.000000
,274.000000=0.000000
,274.125000=2.000000
,274.250000=0.000000
,274.375000=2.000000
,274.500000=0.000000
,274.625000=2.000000
,274.750000=0.000000
,274.875000=2.000000
,275.000000=0.000000
,275.125000=2.000000
,275.250000=0.000000
,275.375000=2.000000
,275.500000=0.000000
,275.750000=2.000000
,276.000000=0.000000
,276.250000=2.000000
,276.500000=1.000000
,277.000000=0.000000
,277.125000=2.000000
,277.250000=0.000000
,277.500000=2.000000
,277.750000=0.000000
,277.875000=2.000000
,278.000000=0.000000
,278.125000=2.000000
,278.250000=0.000000
,278.375000=2.000000
,278.500000=0.000000
,278.750000=2.000000
,279.000000=0.000000
,279.125000=2.000000
,279.250000=0.000000
,279.375000=2.000000
,279.500000=0.000000
,279.625000=2.000000
,279.750000=0.000000
,279.875000=2.000000
,280.000000=1.000000
,281.000000=0.000000
,281.875000=4.000000
,282.000000=0.000000
,282.875000=4.000000
,283.000000=0.000000
,283.875000=4.000000
,284.000000=0.000000
,284.875000=4.000000
,285.000000=0.000000
,285.875000=4.000000
,286.000000=0.000000
,286.875000=4.000000
,287.000000=0.000000
,287.875000=4.000000
,288.000000=0.000000
,288.875000=4.000000
,289.000000=0.000000
,289.875000=4.000000
,290.000000=0.000000
,290.875000=4.000000
,291.000000=0.000000
,291.875000=4.000000
,292.000000=0.000000
,292.875000=4.000000
,293.000000=0.000000
,293.875000=4.000000
,294.000000=0.000000
,294.875000=4.000000
,295.000000=0.000000
,295.875000=4.000000
,296.000000=0.000000
,296.875000=4.000000
,297.000000=0.000000
,297.875000=4.000000
,299.666656=0.500000
,300.937500=1.000000
,392.000000=0.000000
,392.750000=2.000000
,393.000000=1.000000
,415.000000=0.000000
;
#FAKES:;
#LABELS:0.000000=Song Start
;
#ATTACKS:TIME=9.540000:LEN=5.000000:MODS=*1.75 20% Centered:TIME=9.770000:LEN=5.000000:MODS=*1.75 40% Centered:TIME=10.010000:LEN=5.000000:MODS=*1.75 60% Centered:TIME=10.120000:LEN=5.000000:MODS=0% Centered:TIME=12.930000:LEN=5.000000:MODS=*2 200% Mini:TIME=13.870000:LEN=5.000000:MODS=*100 0% Mini:TIME=20.889999:LEN=5.000000:MODS=*50 -200% Mini:TIME=20.889999:LEN=5.000000:MODS=*50 Beat:TIME=21.049999:LEN=5.000000:MODS=*50 -100% Mini:TIME=21.200001:LEN=5.000000:MODS=*50 -50% Mini:TIME=21.360001:LEN=5.000000:MODS=*50 0% Mini:TIME=21.360001:LEN=5.000000:MODS=*50 0% Beat:TIME=25.809999:LEN=5.000000:MODS=*2 Mini:TIME=26.040001:LEN=5.000000:MODS=*20 -100% Mini:TIME=26.510000:LEN=5.000000:MODS=*0.75 0% Mini:TIME=29.549999:LEN=5.000000:MODS=*2 Mini:TIME=29.790001:LEN=5.000000:MODS=*20 -100% Mini:TIME=30.260000:LEN=5.000000:MODS=*0.75 0% Mini:TIME=9.540000:LEN=5.000000:MODS=*1.75 20% Centered:TIME=9.770000:LEN=5.000000:MODS=*1.75 40% Centered:TIME=10.010000:LEN=5.000000:MODS=*1.75 60% Centered:TIME=10.120000:LEN=5.000000:MODS=0% Centered:TIME=12.930000:LEN=5.000000:MODS=*2 200% Mini:TIME=13.870000:LEN=5.000000:MODS=*100 0% Mini:TIME=20.889999:LEN=5.000000:MODS=*50 -200% Mini:TIME=20.889999:LEN=5.000000:MODS=*50 Beat:TIME=21.049999:LEN=5.000000:MODS=*50 -100% Mini:TIME=21.200001:LEN=5.000000:MODS=*50 -50% Mini:TIME=21.360001:LEN=5.000000:MODS=*50 0% Mini:TIME=21.360001:LEN=5.000000:MODS=*50 0% Beat:TIME=25.809999:LEN=5.000000:MODS=*2 Mini:TIME=26.040001:LEN=5.000000:MODS=*20 -100% Mini:TIME=26.510000:LEN=5.000000:MODS=*0.75 0% Mini:TIME=29.549999:LEN=5.000000:MODS=*2 Mini:TIME=29.790001:LEN=5.000000:MODS=*20 -100% Mini:TIME=30.260000:LEN=5.000000:MODS=*0.75 0% Mini:TIME=9.540000:LEN=5.000000:MODS=*1.75 20% Centered:TIME=9.770000:LEN=5.000000:MODS=*1.75 40% Centered:TIME=10.010000:LEN=5.000000:MODS=*1.75 60% Centered:TIME=10.120000:LEN=5.000000:MODS=0% Centered:TIME=12.930000:LEN=5.000000:MODS=*2 200% Mini:TIME=13.870000:LEN=5.000000:MODS=*100 0% Mini:TIME=20.889999:LEN=5.000000:MODS=*50 -200% Mini:TIME=20.889999:LEN=5.000000:MODS=*50 Beat:TIME=21.049999:LEN=5.000000:MODS=*50 -100% Mini:TIME=21.200001:LEN=5.000000:MODS=*50 -50% Mini:TIME=21.360001:LEN=5.000000:MODS=*50 0% Mini:TIME=21.360001:LEN=5.000000:MODS=*50 0% Beat:TIME=25.809999:LEN=5.000000:MODS=*2 Mini:TIME=26.040001:LEN=5.000000:MODS=*20 -100% Mini:TIME=26.510000:LEN=5.000000:MODS=*0.75 0% Mini:TIME=29.549999:LEN=5.000000:MODS=*2 Mini:TIME=29.790001:LEN=5.000000:MODS=*20 -100% Mini:TIME=30.260000:LEN=5.000000:MODS=*0.75 0% Mini:TIME=9.540000:LEN=5.000000:MODS=*1.75 20% Centered:TIME=9.770000:LEN=5.000000:MODS=*1.75 40% Centered:TIME=10.010000:LEN=5.000000:MODS=*1.75 60% Centered:TIME=10.120000:LEN=5.000000:MODS=0% Centered:TIME=12.930000:LEN=5.000000:MODS=*2 200% Mini:TIME=13.870000:LEN=5.000000:MODS=*100 0% Mini:TIME=20.889999:LEN=5.000000:MODS=*50 -200% Mini:TIME=20.889999:LEN=5.000000:MODS=*50 Beat:TIME=21.049999:LEN=5.000000:MODS=*50 -100% Mini:TIME=21.200001:LEN=5.000000:MODS=*50 -50% Mini:TIME=21.360001:LEN=5.000000:MODS=*50 0% Mini:TIME=21.360001:LEN=5.000000:MODS=*50 0% Beat:TIME=25.809999:LEN=5.000000:MODS=*2 Mini:TIME=26.040001:LEN=5.000000:MODS=*20 -100% Mini:TIME=26.510000:LEN=5.000000:MODS=*0.75 0% Mini:TIME=29.549999:LEN=5.000000:MODS=*2 Mini:TIME=29.790001:LEN=5.000000:MODS=*20 -100% Mini:TIME=30.260000:LEN=5.000000:MODS=*0.75 0% Mini:TIME=42.896950:LEN=5.000000:MODS=Stealth:TIME=43.833359:LEN=5.000000:MODS=*100 0% Stealth:TIME=42.896950:LEN=5.000000:MODS=*0.5 50% Reverse:TIME=43.833359:LEN=5.000000:MODS=*100 0% Reverse:TIME=63.029610:LEN=5.000000:MODS=*20 0% Drunk:TIME=63.029610:LEN=5.000000:MODS=*10 50% Invert:TIME=63.497810:LEN=5.000000:MODS=*10 -50% Invert:TIME=63.966011:LEN=5.000000:MODS=*10 50% Invert:TIME=64.434212:LEN=5.000000:MODS=*10 0% Invert:TIME=71.808380:LEN=5.000000:MODS=*1.75 20% Centered:TIME=72.042480:LEN=5.000000:MODS=*1.75 40% Centered:TIME=72.276581:LEN=5.000000:MODS=*1.75% 60% Centered:TIME=72.393631:LEN=5.000000:MODS=0% Centered:TIME=75.202843:LEN=5.000000:MODS=*10 Stealth:TIME=75.671043:LEN=5.000000:MODS=*2 0% Stealth:TIME=102.358521:LEN=5.000000:MODS=*50 500% Beat:TIME=103.763123:LEN=5.000000:MODS=*50 0% Beat:TIME=86.556725:LEN=1.000000:MODS=30% Brake:TIME=81.757660:LEN=1.000000:MODS=Boost:TIME=85.035072:LEN=1.400000:MODS=Boost:TIME=87.376076:LEN=5.000000:MODS=*5 0% Brake:TIME=119.213768:LEN=14.980000:MODS=50% Drunk:TIME=48.047165:LEN=14.980000:MODS=50% Drunk:TIME=134.196213:LEN=5.000000:MODS=*20 0% Drunk:TIME=134.196213:LEN=5.000000:MODS=*10 50% Invert:TIME=134.664413:LEN=5.000000:MODS=*10 -50% Invert:TIME=135.132614:LEN=5.000000:MODS=*10 50% Invert:TIME=135.600815:LEN=5.000000:MODS=*10 0% Invert;
#NOTES:
0000
0000
0000
0000
,
0000
0000
0000
0000
,
0000
0000
0000
0000
,
0000
0000
0000
0000
,
0000
0000
0000
0000
,
0001
0100
0001
0100
0010
0000
0000
0000
1000
0000
0010
1000
0100
0000
0000
0100
,
2000
0000
0000
0000
3010
0000
0100
0000
0001
1000
0001
1000
0100
0000
0000
0000
,
1000
0000
0000
0100
0000
0000
1000
0000
0000
0100
0000
0000
0010
0000
0000
0002
0000
0000
0000
0000
0000
0000
0000
0000
1003
0000
0000
0000
0000
0000
0010
0000
1000
0000
0001
0000
1000
0000
0000
0000
0000
0000
0100
0000
0000
0000
0000
0000
,
0020
0000
0031
0100
0020
0000
0100
0130
,
0110
0000
0010
1000
0100
0000
0000
0000
0100
0000
0010
0001
0100
0000
0000
0100
,
0020
0000
1030
0001
0020
0000
0000
0000
,
0031
0010
0100
1000
0002
0000
0000
0000
0103
0000
1000
0100
0001
0000
0000
0001
,
0020
0000
0000
0000
0130
0000
0010
0001
1000
0010
1000
0000
0010
0000
0010
0000
,
1000
0001
1000
0001
0010
0000
0000
0000
0100
0000
0010
0001
0100
0000
0000
0100
,
0020
0000
0000
0000
0000
0000
0000
0000
0000
0000
0000
0000
1030
0000
0000
0000
0000
0000
0010
0000
0000
0100
0000
0000
0001
0000
0000
0010
0000
0000
0000
0000
0000
0001
0000
0000
0100
0000
0000
0000
0100
0000
0000
0000
0100
0000
0000
0000
,
0010
0000
0000
1000
0000
0000
0010
0000
0000
1000
0000
0000
0001
0000
0000
0020
0000
0000
0000
0000
0000
0000
0000
0000
0130
0000
0000
0000
0000
0000
0010
0000
0001
0000
1000
0000
0001
0000
0000
0000
0000
0000
0100
0000
0000
0010
0000
0000
,
2000
0000
0010
0000
3010
0000
1000
0100
0010
0001
0000
0010
0001
0000
1000
0000
,
0001
1000
0100
1000
0010
0000
0110
0000
1001
0000
0000
0000
1000
0000
1000
0000
,
2000
0000
0000
3010
0000
0000
1010
0000
0000
0110
0000
0000
0101
0000
0001
0000
,
1000
0001
0100
0001
0010
0000
0110
0000
1001
0000
0000
0000
0001
0000
0001
0000
,
0002
0000
0000
0013
0000
0000
0011
0000
0001
0010
0001
0010
0100
1000
0100
1000
,
0001
0100
0000
0100
0010
0000
0000
0000
0100
0000
0010
1000
0100
0000
1000
0000
,
1100
0000
1001
0010
0000
0010
1001
0000
,
0001
0000
0000
0100
0000
0000
0001
0000
0000
0100
0000
0000
0010
0000
0000
2000
0000
0000
0000
0000
0000
0000
0000
0000
3001
0000
0000
0000
0000
0000
0010
0000
0001
0000
1000
0000
0001
0000
0000
0000
0000
0000
0200
0000
0000
0000
0000
0000
,
0010
0000
0310
1010
0000
0000
0001
0001
,
1000
0000
0100
0010
0001
0000
1000
0000
0001
0000
0100
0010
1000
0000
0001
0000
,
1001
1000
0001
0100
0020
0000
0000
0000
,
1030
0010
0100
0001
2000
0000
0000
0000
3100
0000
0001
0100
1000
0000
0000
1000
,
0020
0000
0130
0010
1010
0110
0101
1001
,
0000
0000
0000
0000
1002
1000
1003
0001
,
0010
0000
0001
0000
0100
0000
0020
0000
1000
0000
1030
0000
0010
0000
1000
0001
,
0010
0001
1000
0000
0001
0000
0200
0000
0300
0000
0000
0000
0000
0000
0000
0000
,
0000
0000
0000
0000
,
0000
0000
0000
0000
0000
0000
MMMM
MMMM
MMMM
MMMM
0000
0000
0000
0000
0000
0001
0000
0000
0010
0000
0000
0001
0000
0000
,
0100
0000
0020
0000
1000
0000
1030
0000
0010
0000
1000
0001
0010
0001
1000
0000
,
0001
0200
0010
0310
1000
0010
0001
0010
,
1000
0000
0100
0010
0200
0000
0010
0000
0310
0000
0001
0010
0100
1000
0001
0000
,
1001
1001
2000
0010
3010
0100
1000
0100
,
0001
0020
0100
0130
0010
0001
0100
1000
,
0100
0002
1000
1003
0001
0010
1000
0010
,
0001
0000
0200
0000
0010
0000
0310
0000
1000
0000
0100
0010
0001
0100
0010
0000
,
1010
1010
2000
0000
3200
0000
0320
0000
,
0032
0000
0000
0000
1003
0100
1000
0100
0010
0000
0001
0000
0100
0000
0010
1000
,
0100
0000
0000
0100
0002
0000
0000
0000
0103
0000
0010
0000
0001
1000
0001
1000
,
0010
0000
0000
0000
0000
0000
0100
0000
0000
0000
0000
0000
0001
0000
0000
0100
0000
0000
0001
0000
0000
0100
0000
0000
0010
0000
0000
2000
0000
0000
0001
0000
0000
0000
0000
0000
3001
0000
0000
0000
0000
0000
0010
0000
0001
0000
1000
0000
,
0001
0100
0020
0000
0031
0010
2000
0000
,
0100
0000
0100
3000
1100
0000
0010
0001
0100
0000
0001
0000
0100
0000
0010
1000
,
0100
0000
0000
0100
0020
0000
0000
0000
0031
0000
0100
0000
0020
0000
0000
0000
,
0000
0000
0000
0000
1030
0010
0100
0001
2000
0000
0000
0000
3100
0000
0001
0100
,
1000
0000
0000
1000
0020
0000
0000
0000
0130
0000
0010
1000
0001
0010
0001
0000
,
0010
0010
0000
0000
0000
0000
0000
0000
,
0000
0000
0000
0000
,
0000
0000
0000
0000
,
0000
0000
0000
0000
,
0000
0000
0000
0000
,
0000
0000
0000
0000
,
0000
0000
0000
0000
0010
1000
0100
0010
0002
0000
0010
0000
0013
0000
1000
0010
,
0001
0000
0000
0001
0200
0000
0000
0000
0310
0000
0100
0001
1000
0100
0010
0000
,
0001
0000
0000
0000
0000
0000
0001
0000
0000
0000
0000
0000
1000
0000
0000
0010
0000
0000
1000
0000
0000
0000
0000
0000
0010
0000
0000
1000
0000
0000
0010
0000
0000
0100
0000
0000
0001
0000
0000
0000
0010
0000
0000
0000
0001
0000
0000
0000
,
0100
0000
0000
0000
0010
0100
0010
0100
0010
0100
0010
0100
0010
0100
0010
0100
,
0010
0100
0010
0100
0010
0000
0000
0000
0110
0000
0110
0000
1001
0000
0000
0000
,
1000
0001
1000
0001
1000
0001
1000
0001
1000
0001
1000
0001
1000
0001
1000
0001
,
1000
0001
1000
0001
1000
0100
1000
0100
0001
0100
0001
0100
0010
0100
1000
0000
,
1100
0000
1000
0000
0001
0100
0001
0100
1000
0100
1000
0100
0010
0100
0001
0000
,
0101
0000
0001
0000
1000
0100
1000
0001
0010
0001
0100
0010
1000
0001
1000
0000
,
1001
0000
0001
0000
0100
0010
0000
0100
0010
1000
0100
0000
1000
0100
0010
0001
,
0100
0000
0101
0000
1000
0010
1000
0010
0001
0010
0001
0010
0100
0010
1000
0000
,
1010
0000
1000
0000
0001
0010
0001
0010
1000
0010
1000
0010
0100
0010
0001
0000
,
0011
0000
0001
0000
1000
0010
1000
0001
0100
0001
0010
0001
0100
0010
1000
0000
,
1001
0000
0001
0000
1000
0100
0000
1000
0100
0010
0001
0000
1000
0010
0100
0002
,
2000
0010
0010
0010
,
0010
0010
0010
0010
,
0010
0010
0010
0010
,
0010
0010
0010
0010
,
0010
0010
3013
0000
,
0000
0000
0000
0000
0000
0000
0000
0000
0000
0000
0000
0000
0000
0000
0000
0001
0000
0000
0000
0000
0000
0000
0000
0000
0000
0000
0000
0011
0000
0000
0000
0000
0000
0000
0000
0000
0000
0000
0000
1001
0000
0000
0000
0000
0000
0000
0000
0000
0000
0000
0000
0101
0000
0000
0000
0000
0000
0000
0000
0000
0000
0000
0000
0010
,
0000
0000
0000
2000
0000
0000
0000
0000
0000
0000
0000
0000
0000
0000
0000
3010
0000
0000
0000
0000
0000
0000
0000
0000
0000
0000
0000
1010
0000
0000
0000
0000
0000
0000
0000
0000
0000
0000
0000
1001
0000
0000
0000
0000
0000
0000
0000
0000
0000
0000
0000
1100
0000
0000
0000
0000
0000
0000
0000
0000
0000
0000
0000
0010
,
0000
0000
0000
0002
0000
0000
0000
0000
0000
0000
0000
0000
0000
0000
0000
0003
0000
0000
0000
0000
0000
0000
0000
0000
0000
0000
0000
0000
0000
0000
0000
0000
0000
0000
0000
0000
0000
0000
0000
0000
0000
0000
0000
0000
0000
0000
0000
0000
0000
0000
0000
0000
0000
0000
0000
0000
0000
0000
0000
0000
0000
0000
0000
0000
,
0000
0000
0000
0000
,
0000
0000
0000
0000
0001
0000
0000
0011
0000
0000
1001
0000
0000
0101
0000
0000
,
0010
2000
0000
0000
3010
0000
0000
1010
0000
0000
1001
0000
0000
1100
0000
0000
,
0010
0002
0000
0000
0103
0000
0000
0101
0000
0000
1010
0000
0000
1001
0000
0000
,
1000
0200
0000
0000
1300
0000
0000
0011
0000
0000
0101
0000
0000
1010
0000
0000
,
1001
0000
1001
0000
0001
0000
1000
0010
0100
0000
0001
0000
0100
0010
1000
0000
,
0001
0010
0000
0100
1000
0000
0001
0100
0010
0000
1000
0000
0010
0100
0001
0000
,
1000
0100
0000
0010
0001
0000
1000
0100
0010
0000
0100
0000
0001
0100
0010
0000
,
0100
1000
0000
0001
0100
0000
0001
0100
0010
0000
0100
0000
0010
1000
0010
1000
,
0001
0001
2000
0100
3100
1000
0010
1000
,
0100
0000
0020
0000
0001
0000
0031
0000
0010
0000
0001
1000
0010
1000
0001
0000
,
1000
0200
0010
0310
0001
0010
1000
0010
,
0001
0000
0100
0010
0200
0000
0010
0000
0310
0000
1000
0010
0100
0001
1000
0000
,
1001
0000
1001
0000
0001
0010
0000
0001
0010
0100
1000
0000
0010
0100
0001
0000
,
0101
0000
0000
0000
1000
0010
0000
1000
0010
0100
0001
0000
0010
0100
1000
0000
,
1100
0000
0000
0000
0010
0001
0000
0010
0001
1000
0010
0000
0100
0001
1000
0000
,
1001
0000
0000
0000
0001
1000
0000
0001
1000
0000
0001
0010
0100
1000
0001
0000
,
0101
1001
2000
0000
3200
0000
0320
0000
,
0032
0000
0000
0000
1003
0010
1000
0010
0100
0000
0000
0000
0010
0000
0100
0001
,
1000
0000
0000
1000
0200
0000
0000
0000
0310
0000
0100
0000
1000
0001
1000
0001
,
0100
0000
0000
0000
0000
0000
0000
0000
0000
0000
0000
0000
0010
0000
0000
1000
0000
0000
0010
0000
0000
1000
0000
0000
0001
0000
0000
0020
0000
0000
0000
0000
0000
0000
0000
0000
0130
0000
0000
0000
0000
0000
0010
0000
0001
0000
1000
0000
,
0001
0100
0020
0000
1030
0001
0000
0000
,
0000
0000
0000
0000
,
0000
0000
0000
0000
,
0000
0000
0000
0000
,
0000
0000
0000
MMMM
;

//---------------dance-single - ----------------
#NOTEDATA:;
#CHARTNAME:;
#STEPSTYPE:dance-single;
#DESCRIPTION:;
#CHARTSTYLE:;
#DIFFICULTY:Hard;
#METER:8;
#RADARVALUES:0.494906,0.688415,0.055876,0.363197,0.216521,496.000000,488.000000,8.000000,52.000000,20.000000,3.000000,7.000000,0.000000,54.000000,0.494906,0.688415,0.055876,0.363197,0.216521,496.000000,488.000000,8.000000,52.000000,20.000000,3.000000,7.000000,0.000000,54.000000;
#CREDIT:;
#OFFSET:1.130000;
#BPMS:0.000000=128.149994
;
#STOPS:;
#DELAYS:;
#WARPS:5.500000=12.000000
,117.000000=16.000000
,191.000000=16.000000
,208.000000=16.000000
,284.000000=15.937500
,300.937500=16.062500
,399.000000=16.000000
;
#TIMESIGNATURES:0.000000=4=4
;
#TICKCOUNTS:0.000000=4
;
#COMBOS:0.000000=1
;
#SPEEDS:0.000000=1.000000=0.000000=0
,69.500000=0.500000=0.500000=0
,70.000000=1.000000=0.500000=0
,77.500000=0.500000=0.500000=0
,78.000000=1.000000=0.500000=0
,115.500000=2.000000=2.500000=0
,133.000000=1.000000=0.000000=0
,165.000000=1.500000=1.000000=0
,166.000000=0.750000=1.000000=0
,167.000000=1.500000=1.000000=0
,168.000000=1.000000=1.000000=0
,237.000000=2.000000=2.000000=0
,239.000000=1.000000=2.000000=0
,244.000000=3.000000=3.000000=0
,247.000000=1.000000=2.000000=0
,381.000000=1.500000=1.000000=0
,382.000000=0.750000=1.000000=0
,383.000000=1.500000=1.000000=0
,384.000000=1.000000=1.000000=0
;
#SCROLLS:0.000000=1.000000
,17.500000=0.000000
,19.750000=2.000000
,20.000000=1.000000
,27.000000=0.000000
,27.750000=2.000000
,28.000000=1.000000
,34.000000=0.000000
,34.750000=2.000000
,35.000000=0.000000
,35.250000=2.000000
,35.500000=0.000000
,35.750000=2.000000
,36.000000=1.000000
,42.000000=0.000000
,43.750000=2.000000
,44.000000=1.000000
,59.000000=0.000000
,59.166668=2.000000
,59.333332=0.000000
,59.500000=2.000000
,59.666668=0.000000
,59.833332=2.000000
,60.000000=1.000000
,82.000000=0.000000
,82.125000=2.000000
,82.250000=0.000000
,82.375000=2.000000
,82.500000=0.000000
,82.625000=2.000000
,82.750000=0.000000
,82.875000=2.000000
,83.000000=0.000000
,83.125000=2.000000
,83.250000=0.000000
,83.375000=2.000000
,83.500000=0.000000
,83.625000=2.000000
,83.750000=0.000000
,83.875000=2.000000
,84.000000=1.000000
,85.000000=0.000000
,85.750000=2.000000
,86.000000=1.000000
,88.000000=0.000000
,88.750000=2.000000
,89.000000=1.000000
,89.500000=0.000000
,90.250000=2.000000
,90.500000=1.000000
,91.000000=0.000000
,91.750000=2.000000
,92.000000=1.000000
,98.000000=0.500000
,99.000000=0.000000
,99.250000=2.000000
,99.500000=0.000000
,99.750000=2.000000
,100.000000=1.000000
,106.000000=0.000000
,107.750000=2.000000
,108.000000=1.000000
,115.500000=0.000000
,117.500000=1.000000
,133.000000=10.000000
,133.500000=1.000000
,183.000000=0.000000
,183.750000=2.000000
,184.000000=0.000000
,184.250000=2.000000
,184.500000=0.000000
,184.750000=2.000000
,185.000000=1.000000
,224.000000=0.000000
,225.000000=1.000000
,249.000000=0.000000
,249.125000=2.000000
,249.250000=0.000000
,249.375000=2.000000
,249.500000=0.000000
,249.625000=2.000000
,249.750000=0.000000
,249.875000=2.000000
,250.000000=0.000000
,250.125000=2.000000
,250.250000=0.000000
,250.375000=2.000000
,250.500000=0.000000
,250.625000=2.000000
,250.750000=0.000000
,250.875000=2.000000
,251.000000=0.000000
,251.125000=2.000000
,251.250000=0.000000
,251.375000=2.000000
,251.500000=0.000000
,251.750000=2.000000
,252.000000=0.000000
,252.250000=2.000000
,252.500000=1.000000
,253.000000=0.000000
,253.125000=2.000000
,253.250000=0.000000
,253.375000=2.000000
,253.500000=0.000000
,253.625000=2.000000
,253.750000=0.000000
,253.875000=2.000000
,254.000000=0.000000
,254.125000=2.000000
,254.250000=0.000000
,254.375000=2.000000
,254.500000=0.000000
,254.625000=2.000000
,254.750000=0.000000
,254.875000=2.000000
,255.000000=0.000000
,255.125000=2.000000
,255.250000=0.000000
,255.375000=2.000000
,255.500000=0.000000
,255.750000=2.000000
,256.000000=0.000000
,256.250000=2.000000
,256.500000=1.000000
,257.000000=0.000000
,257.125000=2.000000
,257.250000=0.000000
,257.375000=2.000000
,257.500000=0.000000
,257.625000=2.000000
,257.750000=0.000000
,257.875000=2.000000
,258.000000=0.000000
,258.125000=2.000000
,258.250000=0.000000
,258.375000=2.000000
,258.500000=0.000000
,258.625000=2.000000
,258.750000=0.000000
,258.875000=2.000000
,259.000000=0.000000
,259.125000=2.000000
,259.250000=0.000000
,259.375000=2.000000
,259.500000=0.000000
,259.750000=2.000000
,260.000000=0.000000
,260.250000=2.000000
,260.500000=1.000000
,261.000000=0.000000
,261.125000=2.000000
,261.250000=0.000000
,261.500000=2.000000
,261.750000=0.000000
,261.875000=2.000000
,262.000000=0.000000
,262.125000=2.000000
,262.250000=0.000000
,262.375000=2.000000
,262.500000=0.000000
,262.750000=2.000000
,263.000000=0.000000
,263.125000=2.000000
,263.250000=0.000000
,263.375000=2.000000
,263.500000=0.000000
,263.625000=2.000000
,263.750000=0.000000
,263.875000=2.000000
,264.000000=0.000000
,264.250000=2.000000
,264.500000=0.000000
,264.750000=2.000000
,265.000000=0.000000
,265.125000=2.000000
,265.250000=0.000000
,265.375000=2.000000
,265.500000=0.000000
,265.625000=2.000000
,265.750000=0.000000
,265.875000=2.000000
,266.000000=0.000000
,266.125000=2.000000
,266.250000=0.000000
,266.375000=2.000000
,266.500000=0.000000
,266.625000=2.000000
,266.750000=0.000000
,266.875000=2.000000
,267.000000=0.000000
,267.125000=2.000000
,267.250000=0.000000
,267.375000=2.000000
,267.500000=0.000000
,267.750000=2.000000
,268.000000=0.000000
,268.250000=2.000000
,268.500000=1.000000
,269.000000=0.000000
,269.125000=2.000000
,269.250000=0.000000
,269.375000=2.000000
,269.500000=0.000000
,269.625000=2.000000
,269.750000=0.000000
,269.875000=2.000000
,270.000000=0.000000
,270.125000=2.000000
,270.250000=0.000000
,270.375000=2.000000
,270.500000=0.000000
,270.625000=2.000000
,270.750000=0.000000
,270.875000=2.000000
,271.000000=0.000000
,271.125000=2.000000
,271.250000=0.000000
,271.375000=2.000000
,271.500000=0.000000
,271.750000=2.000000
,272.000000=0.000000
,272.250000=2.000000
,272.500000=1.000000
,273.000000=0.000000
,273.125000=2.000000
,273.250000=0.000000
,273.375000=2.000000
,273.500000=0.000000
,273.625000=2.000000
,273.750000=0.000000
,273.875000=2.000000
,274.000000=0.000000
,274.125000=2.000000
,274.250000=0.000000
,274.375000=2.000000
,274.500000=0.000000
,274.625000=2.000000
,274.750000=0.000000
,274.875000=2.000000
,275.000000=0.000000
,275.125000=2.000000
,275.250000=0.000000
,275.375000=2.000000
,275.500000=0.000000
,275.750000=2.000000
,276.000000=0.000000
,276.250000=2.000000
,276.500000=1.000000
,277.000000=0.000000
,277.125000=2.000000
,277.250000=0.000000
,277.500000=2.000000
,277.750000=0.000000
,277.875000=2.000000
,278.000000=0.000000
,278.125000=2.000000
,278.250000=0.000000
,278.375000=2.000000
,278.500000=0.000000
,278.750000=2.000000
,279.000000=0.000000
,279.125000=2.000000
,279.250000=0.000000
,279.375000=2.000000
,279.500000=0.000000
,279.625000=2.000000
,279.750000=0.000000
,279.875000=2.000000
,280.000000=1.000000
,281.000000=0.000000
,281.875000=4.000000
,282.000000=0.000000
,282.875000=4.000000
,283.000000=0.000000
,283.875000=4.000000
,284.000000=0.000000
,284.875000=4.000000
,285.000000=0.000000
,285.875000=4.000000
,286.000000=0.000000
,286.875000=4.000000
,287.000000=0.000000
,287.875000=4.000000
,288.000000=0.000000
,288.875000=4.000000
,289.000000=0.000000
,289.875000=4.000000
,290.000000=0.000000
,290.875000=4.000000
,291.000000=0.000000
,291.875000=4.000000
,292.000000=0.000000
,292.875000=4.000000
,293.000000=0.000000
,293.875000=4.000000
,294.000000=0.000000
,294.875000=4.000000
,295.000000=0.000000
,295.875000=4.000000
,296.000000=0.000000
,296.875000=4.000000
,297.000000=0.000000
,297.875000=4.000000
,299.666656=0.500000
,300.937500=1.000000
,392.000000=0.000000
,392.750000=2.000000
,393.000000=1.000000
,415.000000=0.000000
;
#FAKES:;
#LABELS:0.000000=Song Start
;
#ATTACKS:TIME=9.540000:LEN=5.000000:MODS=*1.75 20% Centered:TIME=9.770000:LEN=5.000000:MODS=*1.75 40% Centered:TIME=10.010000:LEN=5.000000:MODS=*1.75 60% Centered:TIME=10.120000:LEN=5.000000:MODS=0% Centered:TIME=12.930000:LEN=5.000000:MODS=*2 200% Mini:TIME=13.870000:LEN=5.000000:MODS=*100 0% Mini:TIME=20.889999:LEN=5.000000:MODS=*50 -200% Mini:TIME=20.889999:LEN=5.000000:MODS=*50 Beat:TIME=21.049999:LEN=5.000000:MODS=*50 -100% Mini:TIME=21.200001:LEN=5.000000:MODS=*50 -50% Mini:TIME=21.360001:LEN=5.000000:MODS=*50 0% Mini:TIME=21.360001:LEN=5.000000:MODS=*50 0% Beat:TIME=25.809999:LEN=5.000000:MODS=*2 Mini:TIME=26.040001:LEN=5.000000:MODS=*20 -100% Mini:TIME=26.510000:LEN=5.000000:MODS=*0.75 0% Mini:TIME=29.549999:LEN=5.000000:MODS=*2 Mini:TIME=29.790001:LEN=5.000000:MODS=*20 -100% Mini:TIME=30.260000:LEN=5.000000:MODS=*0.75 0% Mini:TIME=9.540000:LEN=5.000000:MODS=*1.75 20% Centered:TIME=9.770000:LEN=5.000000:MODS=*1.75 40% Centered:TIME=10.010000:LEN=5.000000:MODS=*1.75 60% Centered:TIME=10.120000:LEN=5.000000:MODS=0% Centered:TIME=12.930000:LEN=5.000000:MODS=*2 200% Mini:TIME=13.870000:LEN=5.000000:MODS=*100 0% Mini:TIME=20.889999:LEN=5.000000:MODS=*50 -200% Mini:TIME=20.889999:LEN=5.000000:MODS=*50 Beat:TIME=21.049999:LEN=5.000000:MODS=*50 -100% Mini:TIME=21.200001:LEN=5.000000:MODS=*50 -50% Mini:TIME=21.360001:LEN=5.000000:MODS=*50 0% Mini:TIME=21.360001:LEN=5.000000:MODS=*50 0% Beat:TIME=25.809999:LEN=5.000000:MODS=*2 Mini:TIME=26.040001:LEN=5.000000:MODS=*20 -100% Mini:TIME=26.510000:LEN=5.000000:MODS=*0.75 0% Mini:TIME=29.549999:LEN=5.000000:MODS=*2 Mini:TIME=29.790001:LEN=5.000000:MODS=*20 -100% Mini:TIME=30.260000:LEN=5.000000:MODS=*0.75 0% Mini:TIME=9.540000:LEN=5.000000:MODS=*1.75 20% Centered:TIME=9.770000:LEN=5.000000:MODS=*1.75 40% Centered:TIME=10.010000:LEN=5.000000:MODS=*1.75 60% Centered:TIME=10.120000:LEN=5.000000:MODS=0% Centered:TIME=12.930000:LEN=5.000000:MODS=*2 200% Mini:TIME=13.870000:LEN=5.000000:MODS=*100 0% Mini:TIME=20.889999:LEN=5.000000:MODS=*50 -200% Mini:TIME=20.889999:LEN=5.000000:MODS=*50 Beat:TIME=21.049999:LEN=5.000000:MODS=*50 -100% Mini:TIME=21.200001:LEN=5.000000:MODS=*50 -50% Mini:TIME=21.360001:LEN=5.000000:MODS=*50 0% Mini:TIME=21.360001:LEN=5.000000:MODS=*50 0% Beat:TIME=25.809999:LEN=5.000000:MODS=*2 Mini:TIME=26.040001:LEN=5.000000:MODS=*20 -100% Mini:TIME=26.510000:LEN=5.000000:MODS=*0.75 0% Mini:TIME=29.549999:LEN=5.000000:MODS=*2 Mini:TIME=29.790001:LEN=5.000000:MODS=*20 -100% Mini:TIME=30.260000:LEN=5.000000:MODS=*0.75 0% Mini:TIME=9.540000:LEN=5.000000:MODS=*1.75 20% Centered:TIME=9.770000:LEN=5.000000:MODS=*1.75 40% Centered:TIME=10.010000:LEN=5.000000:MODS=*1.75 60% Centered:TIME=10.120000:LEN=5.000000:MODS=0% Centered:TIME=12.930000:LEN=5.000000:MODS=*2 200% Mini:TIME=13.870000:LEN=5.000000:MODS=*100 0% Mini:TIME=20.889999:LEN=5.000000:MODS=*50 -200% Mini:TIME=20.889999:LEN=5.000000:MODS=*50 Beat:TIME=21.049999:LEN=5.000000:MODS=*50 -100% Mini:TIME=21.200001:LEN=5.000000:MODS=*50 -50% Mini:TIME=21.360001:LEN=5.000000:MODS=*50 0% Mini:TIME=21.360001:LEN=5.000000:MODS=*50 0% Beat:TIME=25.809999:LEN=5.000000:MODS=*2 Mini:TIME=26.040001:LEN=5.000000:MODS=*20 -100% Mini:TIME=26.510000:LEN=5.000000:MODS=*0.75 0% Mini:TIME=29.549999:LEN=5.000000:MODS=*2 Mini:TIME=29.790001:LEN=5.000000:MODS=*20 -100% Mini:TIME=30.260000:LEN=5.000000:MODS=*0.75 0% Mini:TIME=42.896950:LEN=5.000000:MODS=Stealth:TIME=43.833359:LEN=5.000000:MODS=*100 0% Stealth:TIME=42.896950:LEN=5.000000:MODS=*0.5 50% Reverse:TIME=43.833359:LEN=5.000000:MODS=*100 0% Reverse:TIME=63.029610:LEN=5.000000:MODS=*20 0% Drunk:TIME=63.029610:LEN=5.000000:MODS=*10 50% Invert:TIME=63.497810:LEN=5.000000:MODS=*10 -50% Invert:TIME=63.966011:LEN=5.000000:MODS=*10 50% Invert:TIME=64.434212:LEN=5.000000:MODS=*10 0% Invert:TIME=71.808380:LEN=5.000000:MODS=*1.75 20% Centered:TIME=72.042480:LEN=5.000000:MODS=*1.75 40% Centered:TIME=72.276581:LEN=5.000000:MODS=*1.75% 60% Centered:TIME=72.393631:LEN=5.000000:MODS=0% Centered:TIME=75.202843:LEN=5.000000:MODS=*10 Stealth:TIME=75.671043:LEN=5.000000:MODS=*2 0% Stealth:TIME=102.358521:LEN=5.000000:MODS=*50 500% Beat:TIME=103.763123:LEN=5.000000:MODS=*50 0% Beat:TIME=86.556725:LEN=1.000000:MODS=30% Brake:TIME=81.757660:LEN=1.000000:MODS=Boost:TIME=85.035072:LEN=1.400000:MODS=Boost:TIME=87.376076:LEN=5.000000:MODS=*5 0% Brake:TIME=119.213768:LEN=14.980000:MODS=50% Drunk:TIME=48.047165:LEN=14.980000:MODS=50% Drunk:TIME=134.196213:LEN=5.000000:MODS=*20 0% Drunk:TIME=134.196213:LEN=5.000000:MODS=*10 50% Invert:TIME=134.664413:LEN=5.000000:MODS=*10 -50% Invert:TIME=135.132614:LEN=5.000000:MODS=*10 50% Invert:TIME=135.600815:LEN=5.000000:MODS=*10 0% Invert;
#NOTES:
0000
0000
0000
0000
,
0000
0000
0000
0000
,
0000
0000
0000
0000
,
0000
0000
0000
0000
,
0000
0000
0000
0000
,
0001
0000
0100
0000
1000
0000
0000
0000
1000
0000
0100
0000
0001
0000
0000
0001
,
0020
0000
0031
0100
0040
0000
1030
0000
,
1000
0000
0100
0000
0010
0002
0000
0000
0103
0000
1000
0000
0100
0000
0010
0000
,
2000
0000
3100
0010
0012
0000
1000
1003
,
0100
0000
0010
0000
0001
0000
0000
0000
0100
0000
0010
0000
1000
0000
0000
1000
,
0200
0000
0310
0001
0200
0000
0000
0000
,
0310
0000
1000
0000
0200
0000
0000
0000
0301
0000
0100
0000
1000
0000
0000
1000
,
0020
0000
0000
0000
0130
0000
0001
0000
1000
0100
0000
0010
0001
0000
0001
0000
,
1000
0000
0100
0000
0001
0000
0000
0000
0001
0000
0100
0000
1000
0000
0000
1000
,
0020
0000
0000
0000
0130
0000
0001
0000
1000
0010
0000
0010
0100
0000
0000
0000
,
0001
0000
0100
0000
0010
2000
0000
0000
3100
0000
0001
0000
0100
0000
0010
0000
,
0002
0000
0000
0000
1003
0000
0010
0000
0100
0001
0000
0001
1000
0000
0100
0000
,
1000
0001
1000
0001
1000
0000
0000
0000
0110
0000
0000
0000
0001
0000
0001
0000
,
2000
0000
0010
0000
0001
0000
3100
1000
,
0001
1000
0001
1000
0001
0000
0000
0000
0110
0000
0000
0000
1000
0000
1000
0000
,
0002
0000
0013
0000
0001
0100
0010
1000
,
0001
0100
0000
0010
1000
0000
0000
0000
1000
0000
0100
0010
0001
0000
0000
0000
,
1001
0000
1000
0001
0000
0001
1000
0000
,
1000
0000
0100
0000
0010
0002
0000
0000
1003
0000
0010
0100
0001
0000
0200
0000
,
0010
0000
0310
1000
0000
0000
0001
0001
,
1000
0000
0001
0100
0001
0000
0000
0000
0001
0000
1000
0100
1000
0000
0000
0000
,
1001
0000
0001
0100
0020
0000
0000
0000
,
1030
0000
0010
0000
0002
0000
0000
0000
0013
0000
1000
0000
0100
0000
0000
0100
,
0020
0000
0031
0100
0010
0010
1000
1000
,
0000
0000
0000
0000
1002
0000
1003
0001
,
0010
0001
0100
0020
1000
0000
1030
0100
,
0010
0100
1000
0002
0100
0000
0003
0000
,
0000
0000
0000
0000
,
0000
0000
0000
0000
0000
0000
MMMM
MMMM
MMMM
MMMM
0000
0000
0000
0000
0000
0001
0000
0000
0010
0000
0000
0001
0000
0000
,
0100
0020
1000
0000
1030
0100
0010
0100
,
1000
0002
0100
0000
0103
0010
1000
0100
,
0010
0200
1000
0000
1300
0010
0100
0001
,
0010
0100
2000
0000
3001
0100
1000
0100
,
0001
0020
0100
0000
0130
0010
0001
0100
,
1000
0200
0001
0000
0301
0010
0100
0010
,
0001
0200
1000
0000
1300
0100
0001
0010
,
0100
1000
0002
0000
0203
0000
2300
0000
,
3020
0000
0031
0100
1000
0100
0010
1000
,
0100
0000
0000
0100
0020
0000
0000
0000
0031
0000
0100
0000
0040
0000
0000
0000
,
1030
0000
0000
0000
1000
0000
0100
0000
0010
0002
1000
0000
1003
0000
0001
0100
,
0001
1000
0020
0000
1030
0100
2100
0000
,
0001
3001
0100
0010
1000
0100
0001
0100
,
1000
0000
0000
1000
0020
0000
0000
0000
0130
0000
0001
0000
2000
0000
0000
0000
,
0000
0000
3010
1000
0200
0000
0301
0100
,
1000
0000
0000
1000
0020
0000
0000
0000
0130
0000
0001
0000
0000
0000
0000
0000
,
0000
0000
0000
0000
,
0000
0000
0000
0000
,
0000
0000
0000
0000
,
0000
0000
0000
0000
,
0000
0000
0000
0000
,
0000
0000
0000
0000
,
0000
0000
0010
1000
0200
0000
0301
0100
,
1000
0000
0000
1000
0020
0000
0000
0000
0130
0000
0001
0000
1000
0100
1000
0000
,
0001
0100
0010
1000
0100
0010
0001
0100
,
0010
0000
0000
0000
4000
0004
0000
0000
0000
0000
0000
0000
0000
0000
0000
0000
,
3003
0000
1001
0000
1000
0001
1001
0000
,
0400
0040
0000
0000
0000
0000
0000
0000
0000
0000
0000
0000
0000
0000
0000
0000
,
0330
0000
1000
0100
0010
0100
1000
0001
,
0001
0000
0001
0100
0010
0100
0001
1000
,
1000
0000
0001
0010
0100
0010
0001
1000
,
1000
0000
0000
0000
0001
0000
0000
0100
0000
0000
0010
0000
1000
0000
0001
0000
,
0010
0100
1000
0010
0001
0010
1000
0100
,
0010
0000
0001
0010
1000
0010
0001
0100
,
0010
0000
1000
0100
0001
0100
1000
0010
,
0100
0000
0000
0000
0001
0000
0000
0010
0000
0000
0100
0000
0010
0000
0002
0000
,
2000
0010
0010
0010
,
0010
0010
0010
0010
,
0010
0010
0010
0010
,
0010
0010
0010
0010
,
0010
0010
3013
0000
,
0000
0000
0000
0000
0000
0000
0000
0000
0000
0000
0000
0000
0000
0000
0000
0001
0000
0000
0000
0000
0000
0000
0000
0000
0000
0000
0000
0010
0000
0000
0000
0000
0000
0000
0000
0000
0000
0000
0000
0100
0000
0000
0000
0000
0000
0000
0000
0000
0000
0000
0000
1000
0000
0000
0000
0000
0000
0000
0000
0000
0000
0000
0000
1000
,
0000
0000
0000
0002
0000
0000
0000
0000
0000
0000
0000
0000
0000
0000
0000
1003
0000
0000
0000
0000
0000
0000
0000
0000
0000
0000
0000
0010
0000
0000
0000
0000
0000
0000
0000
0000
0000
0000
0000
0100
0000
0000
0000
0000
0000
0000
0000
0000
0000
0000
0000
0001
0000
0000
0000
0000
0000
0000
0000
0000
0000
0000
0000
0001
,
0000
0000
0000
2000
0000
0000
0000
0000
0000
0000
0000
0000
0000
0000
0000
3000
0000
0000
0000
0000
0000
0000
0000
0000
0000
0000
0000
0000
0000
0000
0000
0000
0000
0000
0000
0000
0000
0000
0000
0000
0000
0000
0000
0000
0000
0000
0000
0000
0000
0000
0000
0000
0000
0000
0000
0000
0000
0000
0000
0000
0000
0000
0000
0000
,
0000
0000
0000
0000
,
0000
0000
0000
0000
0001
0000
0000
0010
0000
0000
0100
0000
0000
1000
0000
0000
,
1000
0002
0000
0000
1003
0000
0000
0010
0000
0000
0100
0000
0000
0001
0000
0000
,
0001
2000
0000
0000
3100
0000
0000
0010
0000
0000
0001
0000
0000
1000
0000
0000
,
1000
0020
0000
0000
0130
0000
0000
0010
0000
0000
1000
0000
0000
0001
0000
0000
,
1000
0001
1000
0100
0010
0001
0100
0010
,
1000
0001
0010
0001
0100
0010
1000
0100
,
1000
0001
0100
0010
1000
0100
0001
0100
,
1000
0001
0100
0010
1000
0100
0001
0100
,
1000
0001
2000
0000
3001
1000
0010
1000
,
0100
0020
0001
0000
0031
0100
0010
0100
,
0001
2000
0100
0000
3100
0010
0001
0100
,
0010
0200
0001
0000
0301
0010
0100
1000
,
0010
0100
0001
0010
0001
1000
0001
0100
,
0010
0000
1000
0010
1000
0001
1000
0100
,
0010
0000
0001
0100
1000
0100
0001
1000
,
0100
0000
1000
0100
0001
0100
1000
0010
,
0100
0001
2000
0000
3020
0000
0032
0000
,
0203
0000
1300
0100
0001
0000
0001
0100
,
1000
0000
0000
1000
0020
0000
0000
0000
0130
0000
0001
0000
4000
0000
0000
0000
,
3100
0000
0000
0000
1000
0000
0100
0000
0010
0002
0000
0000
0103
0000
0010
0000
,
1000
0100
0020
0000
0031
1000
0000
0000
,
0000
0000
0000
0000
,
0000
0000
0000
0000
,
0000
0000
0000
0000
,
0000
0000
0000
MMMM
;

//---------------dance-single - ----------------
#NOTEDATA:;
#CHARTNAME:;
#STEPSTYPE:dance-single;
#DESCRIPTION:;
#CHARTSTYLE:;
#DIFFICULTY:Medium;
#METER:5;
#RADARVALUES:0.368186,0.507253,0.160645,0.307321,0.062861,369.000000,346.000000,23.000000,44.000000,0.000000,3.000000,0.000000,0.000000,47.000000,0.368186,0.507253,0.160645,0.307321,0.062861,369.000000,346.000000,23.000000,44.000000,0.000000,3.000000,0.000000,0.000000,47.000000;
#CREDIT:;
#OFFSET:1.130000;
#BPMS:0.000000=128.149994
;
#STOPS:;
#DELAYS:;
#WARPS:5.500000=12.000000
,117.000000=16.000000
,191.000000=16.000000
,208.000000=16.000000
,284.000000=15.937500
,300.937500=16.062500
,399.000000=16.000000
;
#TIMESIGNATURES:0.000000=4=4
;
#TICKCOUNTS:0.000000=4
;
#COMBOS:0.000000=1
;
#SPEEDS:0.000000=1.000000=0.000000=0
,69.500000=0.500000=0.500000=0
,70.000000=1.000000=0.500000=0
,77.500000=0.500000=0.500000=0
,78.000000=1.000000=0.500000=0
,115.500000=2.000000=2.500000=0
,133.000000=1.000000=0.000000=0
,165.000000=1.500000=1.000000=0
,166.000000=0.750000=1.000000=0
,167.000000=1.500000=1.000000=0
,168.000000=1.000000=1.000000=0
,237.000000=2.000000=2.000000=0
,239.000000=1.000000=2.000000=0
,244.000000=3.000000=3.000000=0
,247.000000=1.000000=2.000000=0
,381.000000=1.500000=1.000000=0
,382.000000=0.750000=1.000000=0
,383.000000=1.500000=1.000000=0
,384.000000=1.000000=1.000000=0
;
#SCROLLS:0.000000=1.000000
,17.500000=0.000000
,19.750000=2.000000
,20.000000=1.000000
,27.000000=0.000000
,27.750000=2.000000
,28.000000=1.000000
,34.000000=0.000000
,34.750000=2.000000
,35.000000=0.000000
,35.250000=2.000000
,35.500000=0.000000
,35.750000=2.000000
,36.000000=1.000000
,42.000000=0.000000
,43.750000=2.000000
,44.000000=1.000000
,59.000000=0.000000
,59.166668=2.000000
,59.333332=0.000000
,59.500000=2.000000
,59.666668=0.000000
,59.833332=2.000000
,60.000000=1.000000
,82.000000=0.000000
,82.125000=2.000000
,82.250000=0.000000
,82.375000=2.000000
,82.500000=0.000000
,82.625000=2.000000
,82.750000=0.000000
,82.875000=2.000000
,83.000000=0.000000
,83.125000=2.000000
,83.250000=0.000000
,83.375000=2.000000
,83.500000=0.000000
,83.625000=2.000000
,83.750000=0.000000
,83.875000=2.000000
,84.000000=1.000000
,85.000000=0.000000
,85.750000=2.000000
,86.000000=1.000000
,88.000000=0.000000
,88.750000=2.000000
,89.000000=1.000000
,89.500000=0.000000
,90.250000=2.000000
,90.500000=1.000000
,91.000000=0.000000
,91.750000=2.000000
,92.000000=1.000000
,98.000000=0.500000
,99.000000=0.000000
,99.250000=2.000000
,99.500000=0.000000
,99.750000=2.000000
,100.000000=1.000000
,106.000000=0.000000
,107.750000=2.000000
,108.000000=1.000000
,115.500000=0.000000
,117.500000=1.000000
,133.000000=10.000000
,133.500000=1.000000
,183.000000=0.000000
,183.750000=2.000000
,184.000000=0.000000
,184.250000=2.000000
,184.500000=0.000000
,184.750000=2.000000
,185.000000=1.000000
,224.000000=0.000000
,225.000000=1.000000
,249.000000=0.000000
,249.125000=2.000000
,249.250000=0.000000
,249.375000=2.000000
,249.500000=0.000000
,249.625000=2.000000
,249.750000=0.000000
,249.875000=2.000000
,250.000000=0.000000
,250.125000=2.000000
,250.250000=0.000000
,250.375000=2.000000
,250.500000=0.000000
,250.625000=2.000000
,250.750000=0.000000
,250.875000=2.000000
,251.000000=0.000000
,251.125000=2.000000
,251.250000=0.000000
,251.375000=2.000000
,251.500000=0.000000
,251.750000=2.000000
,252.000000=0.000000
,252.250000=2.000000
,252.500000=1.000000
,253.000000=0.000000
,253.125000=2.000000
,253.250000=0.000000
,253.375000=2.000000
,253.500000=0.000000
,253.625000=2.000000
,253.750000=0.000000
,253.875000=2.000000
,254.000000=0.000000
,254.125000=2.000000
,254.250000=0.000000
,254.375000=2.000000
,254.500000=0.000000
,254.625000=2.000000
,254.750000=0.000000
,254.875000=2.000000
,255.000000=0.000000
,255.125000=2.000000
,255.250000=0.000000
,255.375000=2.000000
,255.500000=0.000000
,255.750000=2.000000
,256.000000=0.000000
,256.250000=2.000000
,256.500000=1.000000
,257.000000=0.000000
,257.125000=2.000000
,257.250000=0.000000
,257.375000=2.000000
,257.500000=0.000000
,257.625000=2.000000
,257.750000=0.000000
,257.875000=2.000000
,258.000000=0.000000
,258.125000=2.000000
,258.250000=0.000000
,258.375000=2.000000
,258.500000=0.000000
,258.625000=2.000000
,258.750000=0.000000
,258.875000=2.000000
,259.000000=0.000000
,259.125000=2.000000
,259.250000=0.000000
,259.375000=2.000000
,259.500000=0.000000
,259.750000=2.000000
,260.000000=0.000000
,260.250000=2.000000
,260.500000=1.000000
,261.000000=0.000000
,261.125000=2.000000
,261.250000=0.000000
,261.500000=2.000000
,261.750000=0.000000
,261.875000=2.000000
,262.000000=0.000000
,262.125000=2.000000
,262.250000=0.000000
,262.375000=2.000000
,262.500000=0.000000
,262.750000=2.000000
,263.000000=0.000000
,263.125000=2.000000
,263.250000=0.000000
,263.375000=2.000000
,263.500000=0.000000
,263.625000=2.000000
,263.750000=0.000000
,263.875000=2.000000
,264.000000=0.000000
,264.250000=2.000000
,264.500000=0.000000
,264.750000=2.000000
,265.000000=0.000000
,265.125000=2.000000
,265.250000=0.000000
,265.375000=2.000000
,265.500000=0.000000
,265.625000=2.000000
,265.750000=0.000000
,265.875000=2.000000
,266.000000=0.000000
,266.125000=2.000000
,266.250000=0.000000
,266.375000=2.000000
,266.500000=0.000000
,266.625000=2.000000
,266.750000=0.000000
,266.875000=2.000000
,267.000000=0.000000
,267.125000=2.000000
,267.250000=0.000000
,267.375000=2.000000
,267.500000=0.000000
,267.750000=2.000000
,268.000000=0.000000
,268.250000=2.000000
,268.500000=1.000000
,269.000000=0.000000
,269.125000=2.000000
,269.250000=0.000000
,269.375000=2.000000
,269.500000=0.000000
,269.625000=2.000000
,269.750000=0.000000
,269.875000=2.000000
,270.000000=0.000000
,270.125000=2.000000
,270.250000=0.000000
,270.375000=2.000000
,270.500000=0.000000
,270.625000=2.000000
,270.750000=0.000000
,270.875000=2.000000
,271.000000=0.000000
,271.125000=2.000000
,271.250000=0.000000
,271.375000=2.000000
,271.500000=0.000000
,271.750000=2.000000
,272.000000=0.000000
,272.250000=2.000000
,272.500000=1.000000
,273.000000=0.000000
,273.125000=2.000000
,273.250000=0.000000
,273.375000=2.000000
,273.500000=0.000000
,273.625000=2.000000
,273.750000=0.000000
,273.875000=2.000000
,274.000000=0.000000
,274.125000=2.000000
,274.250000=0.000000
,274.375000=2.000000
,274.500000=0.000000
,274.625000=2.000000
,274.750000=0.000000
,274.875000=2.000000
,275.000000=0.000000
,275.125000=2.000000
,275.250000=0.000000
,275.375000=2.000000
,275.500000=0.000000
,275.750000=2.000000
,276.000000=0.000000
,276.250000=2.000000
,276.500000=1.000000
,277.000000=0.000000
,277.125000=2.000000
,277.250000=0.000000
,277.500000=2.000000
,277.750000=0.000000
,277.875000=2.000000
,278.000000=0.000000
,278.125000=2.000000
,278.250000=0.000000
,278.375000=2.000000
,278.500000=0.000000
,278.750000=2.000000
,279.000000=0.000000
,279.125000=2.000000
,279.250000=0.000000
,279.375000=2.000000
,279.500000=0.000000
,279.625000=2.000000
,279.750000=0.000000
,279.875000=2.000000
,280.000000=1.000000
,281.000000=0.000000
,281.875000=4.000000
,282.000000=0.000000
,282.875000=4.000000
,283.000000=0.000000
,283.875000=4.000000
,284.000000=0.000000
,284.875000=4.000000
,285.000000=0.000000
,285.875000=4.000000
,286.000000=0.000000
,286.875000=4.000000
,287.000000=0.000000
,287.875000=4.000000
,288.000000=0.000000
,288.875000=4.000000
,289.000000=0.000000
,289.875000=4.000000
,290.000000=0.000000
,290.875000=4.000000
,291.000000=0.000000
,291.875000=4.000000
,292.000000=0.000000
,292.875000=4.000000
,293.000000=0.000000
,293.875000=4.000000
,294.000000=0.000000
,294.875000=4.000000
,295.000000=0.000000
,295.875000=4.000000
,296.000000=0.000000
,296.875000=4.000000
,297.000000=0.000000
,297.875000=4.000000
,299.666656=0.500000
,300.937500=1.000000
,392.000000=0.000000
,392.750000=2.000000
,393.000000=1.000000
,415.000000=0.000000
;
#FAKES:;
#LABELS:0.000000=Song Start
;
#ATTACKS:TIME=9.540000:LEN=5.000000:MODS=*1.75 20% Centered:TIME=9.770000:LEN=5.000000:MODS=*1.75 40% Centered:TIME=10.010000:LEN=5.000000:MODS=*1.75 60% Centered:TIME=10.120000:LEN=5.000000:MODS=0% Centered:TIME=12.930000:LEN=5.000000:MODS=*2 200% Mini:TIME=13.870000:LEN=5.000000:MODS=*100 0% Mini:TIME=20.889999:LEN=5.000000:MODS=*50 -200% Mini:TIME=20.889999:LEN=5.000000:MODS=*50 Beat:TIME=21.049999:LEN=5.000000:MODS=*50 -100% Mini:TIME=21.200001:LEN=5.000000:MODS=*50 -50% Mini:TIME=21.360001:LEN=5.000000:MODS=*50 0% Mini:TIME=21.360001:LEN=5.000000:MODS=*50 0% Beat:TIME=25.809999:LEN=5.000000:MODS=*2 Mini:TIME=26.040001:LEN=5.000000:MODS=*20 -100% Mini:TIME=26.510000:LEN=5.000000:MODS=*0.75 0% Mini:TIME=29.549999:LEN=5.000000:MODS=*2 Mini:TIME=29.790001:LEN=5.000000:MODS=*20 -100% Mini:TIME=30.260000:LEN=5.000000:MODS=*0.75 0% Mini:TIME=9.540000:LEN=5.000000:MODS=*1.75 20% Centered:TIME=9.770000:LEN=5.000000:MODS=*1.75 40% Centered:TIME=10.010000:LEN=5.000000:MODS=*1.75 60% Centered:TIME=10.120000:LEN=5.000000:MODS=0% Centered:TIME=12.930000:LEN=5.000000:MODS=*2 200% Mini:TIME=13.870000:LEN=5.000000:MODS=*100 0% Mini:TIME=20.889999:LEN=5.000000:MODS=*50 -200% Mini:TIME=20.889999:LEN=5.000000:MODS=*50 Beat:TIME=21.049999:LEN=5.000000:MODS=*50 -100% Mini:TIME=21.200001:LEN=5.000000:MODS=*50 -50% Mini:TIME=21.360001:LEN=5.000000:MODS=*50 0% Mini:TIME=21.360001:LEN=5.000000:MODS=*50 0% Beat:TIME=25.809999:LEN=5.000000:MODS=*2 Mini:TIME=26.040001:LEN=5.000000:MODS=*20 -100% Mini:TIME=26.510000:LEN=5.000000:MODS=*0.75 0% Mini:TIME=29.549999:LEN=5.000000:MODS=*2 Mini:TIME=29.790001:LEN=5.000000:MODS=*20 -100% Mini:TIME=30.260000:LEN=5.000000:MODS=*0.75 0% Mini:TIME=9.540000:LEN=5.000000:MODS=*1.75 20% Centered:TIME=9.770000:LEN=5.000000:MODS=*1.75 40% Centered:TIME=10.010000:LEN=5.000000:MODS=*1.75 60% Centered:TIME=10.120000:LEN=5.000000:MODS=0% Centered:TIME=12.930000:LEN=5.000000:MODS=*2 200% Mini:TIME=13.870000:LEN=5.000000:MODS=*100 0% Mini:TIME=20.889999:LEN=5.000000:MODS=*50 -200% Mini:TIME=20.889999:LEN=5.000000:MODS=*50 Beat:TIME=21.049999:LEN=5.000000:MODS=*50 -100% Mini:TIME=21.200001:LEN=5.000000:MODS=*50 -50% Mini:TIME=21.360001:LEN=5.000000:MODS=*50 0% Mini:TIME=21.360001:LEN=5.000000:MODS=*50 0% Beat:TIME=25.809999:LEN=5.000000:MODS=*2 Mini:TIME=26.040001:LEN=5.000000:MODS=*20 -100% Mini:TIME=26.510000:LEN=5.000000:MODS=*0.75 0% Mini:TIME=29.549999:LEN=5.000000:MODS=*2 Mini:TIME=29.790001:LEN=5.000000:MODS=*20 -100% Mini:TIME=30.260000:LEN=5.000000:MODS=*0.75 0% Mini:TIME=9.540000:LEN=5.000000:MODS=*1.75 20% Centered:TIME=9.770000:LEN=5.000000:MODS=*1.75 40% Centered:TIME=10.010000:LEN=5.000000:MODS=*1.75 60% Centered:TIME=10.120000:LEN=5.000000:MODS=0% Centered:TIME=12.930000:LEN=5.000000:MODS=*2 200% Mini:TIME=13.870000:LEN=5.000000:MODS=*100 0% Mini:TIME=20.889999:LEN=5.000000:MODS=*50 -200% Mini:TIME=20.889999:LEN=5.000000:MODS=*50 Beat:TIME=21.049999:LEN=5.000000:MODS=*50 -100% Mini:TIME=21.200001:LEN=5.000000:MODS=*50 -50% Mini:TIME=21.360001:LEN=5.000000:MODS=*50 0% Mini:TIME=21.360001:LEN=5.000000:MODS=*50 0% Beat:TIME=25.809999:LEN=5.000000:MODS=*2 Mini:TIME=26.040001:LEN=5.000000:MODS=*20 -100% Mini:TIME=26.510000:LEN=5.000000:MODS=*0.75 0% Mini:TIME=29.549999:LEN=5.000000:MODS=*2 Mini:TIME=29.790001:LEN=5.000000:MODS=*20 -100% Mini:TIME=30.260000:LEN=5.000000:MODS=*0.75 0% Mini:TIME=42.896950:LEN=5.000000:MODS=Stealth:TIME=43.833359:LEN=5.000000:MODS=*100 0% Stealth:TIME=42.896950:LEN=5.000000:MODS=*0.5 50% Reverse:TIME=43.833359:LEN=5.000000:MODS=*100 0% Reverse:TIME=63.029610:LEN=5.000000:MODS=*20 0% Drunk:TIME=63.029610:LEN=5.000000:MODS=*10 50% Invert:TIME=63.497810:LEN=5.000000:MODS=*10 -50% Invert:TIME=63.966011:LEN=5.000000:MODS=*10 50% Invert:TIME=64.434212:LEN=5.000000:MODS=*10 0% Invert:TIME=71.808380:LEN=5.000000:MODS=*1.75 20% Centered:TIME=72.042480:LEN=5.000000:MODS=*1.75 40% Centered:TIME=72.276581:LEN=5.000000:MODS=*1.75% 60% Centered:TIME=72.393631:LEN=5.000000:MODS=0% Centered:TIME=75.202843:LEN=5.000000:MODS=*10 Stealth:TIME=75.671043:LEN=5.000000:MODS=*2 0% Stealth:TIME=102.358521:LEN=5.000000:MODS=*50 500% Beat:TIME=103.763123:LEN=5.000000:MODS=*50 0% Beat:TIME=86.556725:LEN=1.000000:MODS=30% Brake:TIME=81.757660:LEN=1.000000:MODS=Boost:TIME=85.035072:LEN=1.400000:MODS=Boost:TIME=87.376076:LEN=5.000000:MODS=*5 0% Brake:TIME=119.213768:LEN=14.980000:MODS=50% Drunk:TIME=48.047165:LEN=14.980000:MODS=50% Drunk:TIME=134.196213:LEN=5.000000:MODS=*20 0% Drunk:TIME=134.196213:LEN=5.000000:MODS=*10 50% Invert:TIME=134.664413:LEN=5.000000:MODS=*10 -50% Invert:TIME=135.132614:LEN=5.000000:MODS=*10 50% Invert:TIME=135.600815:LEN=5.000000:MODS=*10 0% Invert;
#NOTES:
0000
0000
0000
0000
,
0000
0000
0000
0000
,
0000
0000
0000
0000
,
0000
0000
0000
0000
,
0000
0000
0000
0000
,
0001
0100
0001
0000
1000
0100
1000
0000
,
2002
0000
3003
0000
0001
1000
0010
0000
,
1000
0010
1000
0000
0001
0010
0001
1000
,
0020
0030
0110
1001
,
1000
0100
0010
0000
0001
0100
0010
0000
,
2002
3003
0002
0000
,
0013
0001
0200
0000
0310
1000
0100
0000
,
0220
0000
0330
0000
1001
0000
1000
1000
,
0001
0010
0001
0000
1000
0010
1000
0000
,
2002
3003
1000
0110
,
0001
0100
0001
0000
1000
0100
1000
0001
,
0200
0000
0300
0000
0100
0000
0010
1000
,
0100
0010
0001
0000
1001
0000
0001
1000
,
0002
0000
0000
0000
0010
0000
0013
0001
,
0100
0010
1000
0000
1001
0000
1000
0001
,
2000
0000
0000
0000
3010
1000
0001
0000
,
1000
0100
0010
0001
,
0100
0000
0010
0010
0000
0010
0010
0000
,
1000
0100
0001
0100
,
1000
0000
0010
0100
0000
0000
1001
0000
,
0001
0010
0100
0000
1000
0010
0100
0000
,
0001
0000
1000
0100
0020
0000
0000
0000
,
0031
0010
0002
0000
1003
0010
1000
0000
,
2002
0000
3003
0000
1000
0100
0010
0001
,
0000
0000
2002
3003
,
0001
0000
0100
0010
1000
0000
0001
0000
,
1000
0000
0100
0010
0001
0000
0000
0000
,
0000
0000
0000
0000
,
0000
2002
3003
0001
,
0100
0010
1000
0000
0001
0000
1000
0000
,
0100
0010
0001
0000
1000
0000
0001
0000
,
0100
0010
1000
0000
0100
0000
1000
0010
,
0100
0001
1000
0000
0001
0000
0010
0000
,
0001
0100
0010
0000
0100
0000
0010
0000
,
1000
0100
0010
0000
0100
0000
1000
0000
,
0001
0100
0010
0000
1000
0000
0001
0010
,
0100
1000
0002
0000
2003
0000
3002
0000
,
2003
0000
3001
0100
0001
0000
1000
0010
,
1000
0000
2002
0000
3003
0000
1000
0001
,
0010
0000
0001
0010
0001
0000
1000
0010
,
1000
0001
0020
0000
0030
0000
0110
0000
,
1001
0000
1000
0010
0100
0000
0001
0100
,
0010
2002
3003
0002
,
0000
0000
0013
0100
1000
0000
0010
0100
,
0001
2002
3003
0000
,
0000
0000
0000
0000
,
0000
0000
0000
0000
,
0000
0000
0000
0000
,
0000
0000
0000
0000
,
0000
0000
0000
0000
,
0000
0000
0000
0000
,
0000
0000
0010
0001
0100
0000
0010
1000
,
0100
0000
0220
0000
0330
0000
1000
0001
,
1000
0001
0100
0010
,
1000
2002
0000
0000
,
3003
0001
1000
1001
,
0220
0000
0000
0000
,
0330
1000
0010
0100
,
0001
0010
1000
0010
,
0001
1000
0010
1000
,
0100
0000
0001
0000
0100
0000
1000
0001
,
1000
0001
0010
0100
,
1000
0010
0001
0010
,
1000
0001
0010
0001
,
0100
0000
1000
0000
0100
0000
0001
2000
,
0002
0010
0010
0010
,
0010
0010
0010
0010
,
0010
0010
0010
0010
,
0010
0010
0010
0010
,
0010
0010
3013
0000
,
0000
0000
0000
0000
0000
0000
0000
0000
0000
0000
0000
0000
0000
0000
0000
0001
0000
0000
0000
0000
0000
0000
0000
0000
0000
0000
0000
0100
0000
0000
0000
0000
0000
0000
0000
0000
0000
0000
0000
0001
0000
0000
0000
0000
0000
0000
0000
0000
0000
0000
0000
0100
0000
0000
0000
0000
0000
0000
0000
0000
0000
0000
0000
0001
,
0000
0000
0000
0000
0000
0000
0000
0000
0000
0000
0000
0000
0000
0000
0000
1000
0000
0000
0000
0000
0000
0000
0000
0000
0000
0000
0000
0100
0000
0000
0000
0000
0000
0000
0000
0000
0000
0000
0000
1000
0000
0000
0000
0000
0000
0000
0000
0000
0000
0000
0000
0100
0000
0000
0000
0000
0000
0000
0000
0000
0000
0000
0000
1000
,
0000
0000
0000
0000
,
0000
0000
0000
0000
,
0000
0000
0000
0000
0001
0000
0000
0100
0000
0000
0001
0000
0000
0100
0000
0000
,
0001
0000
0000
0000
1000
0000
0000
0100
0000
0000
1000
0000
0000
0100
0000
0000
,
1000
0000
0000
0000
0001
0000
0000
0010
0000
0000
0001
0000
0000
0010
0000
0000
,
0001
0000
0000
0000
1000
0000
0000
0010
0000
0000
1000
0000
0000
0010
0000
0000
,
1000
0010
1000
0000
0100
0000
0010
0000
,
0001
0001
0100
0010
,
1000
1000
0001
0010
,
0001
0001
1000
0010
,
1000
1000
0001
1000
,
0100
0010
0001
0000
1000
0000
0001
0000
,
0100
0010
1000
0000
0001
0000
1000
0000
,
0100
0010
0001
0000
0100
0000
0001
0010
,
0100
1000
0001
0000
1000
0000
0010
0000
,
1000
0100
0010
0000
0100
0000
0010
0000
,
0001
0100
0010
0000
0100
0000
0001
0000
,
1000
0100
0010
0000
0001
0000
1000
0010
,
0100
0001
2000
0000
3002
0000
2003
0000
,
3002
0000
1003
0100
1000
0000
0001
0100
,
0001
0000
2002
0000
3003
0000
0001
1000
,
0100
0000
1000
0010
1000
0000
0001
0010
,
0001
1000
0020
0000
0030
0000
0110
0000
,
0000
0000
0000
0000
,
0000
0000
0000
0000
,
0000
0000
0000
0000
,
0000
0000
0000
0110
;

//---------------dance-single - ----------------
#NOTEDATA:;
#CHARTNAME:;
#STEPSTYPE:dance-single;
#DESCRIPTION:;
#CHARTSTYLE:;
#DIFFICULTY:Easy;
#METER:3;
#RADARVALUES:0.212530,0.326091,0.062861,0.321290,0.017461,213.000000,204.000000,9.000000,46.000000,0.000000,3.000000,0.000000,0.000000,36.000000,0.212530,0.326091,0.062861,0.321290,0.017461,213.000000,204.000000,9.000000,46.000000,0.000000,3.000000,0.000000,0.000000,36.000000;
#CREDIT:;
#OFFSET:1.130000;
#BPMS:0.000000=128.149994
;
#STOPS:;
#DELAYS:;
#WARPS:5.500000=12.000000
,117.000000=16.000000
,191.000000=16.000000
,208.000000=16.000000
,284.000000=15.937500
,300.937500=16.062500
,399.000000=16.000000
;
#TIMESIGNATURES:0.000000=4=4
;
#TICKCOUNTS:0.000000=4
;
#COMBOS:0.000000=1
;
#SPEEDS:0.000000=1.000000=0.000000=0
,69.500000=0.500000=0.500000=0
,70.000000=1.000000=0.500000=0
,77.500000=0.500000=0.500000=0
,78.000000=1.000000=0.500000=0
,115.500000=2.000000=2.500000=0
,133.000000=1.000000=0.000000=0
,165.000000=1.500000=1.000000=0
,166.000000=0.750000=1.000000=0
,167.000000=1.500000=1.000000=0
,168.000000=1.000000=1.000000=0
,237.000000=2.000000=2.000000=0
,239.000000=1.000000=2.000000=0
,244.000000=3.000000=3.000000=0
,247.000000=1.000000=2.000000=0
,381.000000=1.500000=1.000000=0
,382.000000=0.750000=1.000000=0
,383.000000=1.500000=1.000000=0
,384.000000=1.000000=1.000000=0
;
#SCROLLS:0.000000=1.000000
,17.500000=0.000000
,19.750000=2.000000
,20.000000=1.000000
,27.000000=0.000000
,27.750000=2.000000
,28.000000=1.000000
,34.000000=0.000000
,34.750000=2.000000
,35.000000=0.000000
,35.250000=2.000000
,35.500000=0.000000
,35.750000=2.000000
,36.000000=1.000000
,42.000000=0.000000
,43.750000=2.000000
,44.000000=1.000000
,59.000000=0.000000
,59.166668=2.000000
,59.333332=0.000000
,59.500000=2.000000
,59.666668=0.000000
,59.833332=2.000000
,60.000000=1.000000
,82.000000=0.000000
,82.125000=2.000000
,82.250000=0.000000
,82.375000=2.000000
,82.500000=0.000000
,82.625000=2.000000
,82.750000=0.000000
,82.875000=2.000000
,83.000000=0.000000
,83.125000=2.000000
,83.250000=0.000000
,83.375000=2.000000
,83.500000=0.000000
,83.625000=2.000000
,83.750000=0.000000
,83.875000=2.000000
,84.000000=1.000000
,85.000000=0.000000
,85.750000=2.000000
,86.000000=1.000000
,88.000000=0.000000
,88.750000=2.000000
,89.000000=1.000000
,89.500000=0.000000
,90.250000=2.000000
,90.500000=1.000000
,91.000000=0.000000
,91.750000=2.000000
,92.000000=1.000000
,98.000000=0.500000
,99.000000=0.000000
,99.250000=2.000000
,99.500000=0.000000
,99.750000=2.000000
,100.000000=1.000000
,106.000000=0.000000
,107.750000=2.000000
,108.000000=1.000000
,115.500000=0.000000
,117.500000=1.000000
,133.000000=10.000000
,133.500000=1.000000
,183.000000=0.000000
,183.750000=2.000000
,184.000000=0.000000
,184.250000=2.000000
,184.500000=0.000000
,184.750000=2.000000
,185.000000=1.000000
,224.000000=0.000000
,225.000000=1.000000
,249.000000=0.000000
,249.125000=2.000000
,249.250000=0.000000
,249.375000=2.000000
,249.500000=0.000000
,249.625000=2.000000
,249.750000=0.000000
,249.875000=2.000000
,250.000000=0.000000
,250.125000=2.000000
,250.250000=0.000000
,250.375000=2.000000
,250.500000=0.000000
,250.625000=2.000000
,250.750000=0.000000
,250.875000=2.000000
,251.000000=0.000000
,251.125000=2.000000
,251.250000=0.000000
,251.375000=2.000000
,251.500000=0.000000
,251.750000=2.000000
,252.000000=0.000000
,252.250000=2.000000
,252.500000=1.000000
,253.000000=0.000000
,253.125000=2.000000
,253.250000=0.000000
,253.375000=2.000000
,253.500000=0.000000
,253.625000=2.000000
,253.750000=0.000000
,253.875000=2.000000
,254.000000=0.000000
,254.125000=2.000000
,254.250000=0.000000
,254.375000=2.000000
,254.500000=0.000000
,254.625000=2.000000
,254.750000=0.000000
,254.875000=2.000000
,255.000000=0.000000
,255.125000=2.000000
,255.250000=0.000000
,255.375000=2.000000
,255.500000=0.000000
,255.750000=2.000000
,256.000000=0.000000
,256.250000=2.000000
,256.500000=1.000000
,257.000000=0.000000
,257.125000=2.000000
,257.250000=0.000000
,257.375000=2.000000
,257.500000=0.000000
,257.625000=2.000000
,257.750000=0.000000
,257.875000=2.000000
,258.000000=0.000000
,258.125000=2.000000
,258.250000=0.000000
,258.375000=2.000000
,258.500000=0.000000
,258.625000=2.000000
,258.750000=0.000000
,258.875000=2.000000
,259.000000=0.000000
,259.125000=2.000000
,259.250000=0.000000
,259.375000=2.000000
,259.500000=0.000000
,259.750000=2.000000
,260.000000=0.000000
,260.250000=2.000000
,260.500000=1.000000
,261.000000=0.000000
,261.125000=2.000000
,261.250000=0.000000
,261.500000=2.000000
,261.750000=0.000000
,261.875000=2.000000
,262.000000=0.000000
,262.125000=2.000000
,262.250000=0.000000
,262.375000=2.000000
,262.500000=0.000000
,262.750000=2.000000
,263.000000=0.000000
,263.125000=2.000000
,263.250000=0.000000
,263.375000=2.000000
,263.500000=0.000000
,263.625000=2.000000
,263.750000=0.000000
,263.875000=2.000000
,264.000000=0.000000
,264.250000=2.000000
,264.500000=0.000000
,264.750000=2.000000
,265.000000=0.000000
,265.125000=2.000000
,265.250000=0.000000
,265.375000=2.000000
,265.500000=0.000000
,265.625000=2.000000
,265.750000=0.000000
,265.875000=2.000000
,266.000000=0.000000
,266.125000=2.000000
,266.250000=0.000000
,266.375000=2.000000
,266.500000=0.000000
,266.625000=2.000000
,266.750000=0.000000
,266.875000=2.000000
,267.000000=0.000000
,267.125000=2.000000
,267.250000=0.000000
,267.375000=2.000000
,267.500000=0.000000
,267.750000=2.000000
,268.000000=0.000000
,268.250000=2.000000
,268.500000=1.000000
,269.000000=0.000000
,269.125000=2.000000
,269.250000=0.000000
,269.375000=2.000000
,269.500000=0.000000
,269.625000=2.000000
,269.750000=0.000000
,269.875000=2.000000
,270.000000=0.000000
,270.125000=2.000000
,270.250000=0.000000
,270.375000=2.000000
,270.500000=0.000000
,270.625000=2.000000
,270.750000=0.000000
,270.875000=2.000000
,271.000000=0.000000
,271.125000=2.000000
,271.250000=0.000000
,271.375000=2.000000
,271.500000=0.000000
,271.750000=2.000000
,272.000000=0.000000
,272.250000=2.000000
,272.500000=1.000000
,273.000000=0.000000
,273.125000=2.000000
,273.250000=0.000000
,273.375000=2.000000
,273.500000=0.000000
,273.625000=2.000000
,273.750000=0.000000
,273.875000=2.000000
,274.000000=0.000000
,274.125000=2.000000
,274.250000=0.000000
,274.375000=2.000000
,274.500000=0.000000
,274.625000=2.000000
,274.750000=0.000000
,274.875000=2.000000
,275.000000=0.000000
,275.125000=2.000000
,275.250000=0.000000
,275.375000=2.000000
,275.500000=0.000000
,275.750000=2.000000
,276.000000=0.000000
,276.250000=2.000000
,276.500000=1.000000
,277.000000=0.000000
,277.125000=2.000000
,277.250000=0.000000
,277.500000=2.000000
,277.750000=0.000000
,277.875000=2.000000
,278.000000=0.000000
,278.125000=2.000000
,278.250000=0.000000
,278.375000=2.000000
,278.500000=0.000000
,278.750000=2.000000
,279.000000=0.000000
,279.125000=2.000000
,279.250000=0.000000
,279.375000=2.000000
,279.500000=0.000000
,279.625000=2.000000
,279.750000=0.000000
,279.875000=2.000000
,280.000000=1.000000
,281.000000=0.000000
,281.875000=4.000000
,282.000000=0.000000
,282.875000=4.000000
,283.000000=0.000000
,283.875000=4.000000
,284.000000=0.000000
,284.875000=4.000000
,285.000000=0.000000
,285.875000=4.000000
,286.000000=0.000000
,286.875000=4.000000
,287.000000=0.000000
,287.875000=4.000000
,288.000000=0.000000
,288.875000=4.000000
,289.000000=0.000000
,289.875000=4.000000
,290.000000=0.000000
,290.875000=4.000000
,291.000000=0.000000
,291.875000=4.000000
,292.000000=0.000000
,292.875000=4.000000
,293.000000=0.000000
,293.875000=4.000000
,294.000000=0.000000
,294.875000=4.000000
,295.000000=0.000000
,295.875000=4.000000
,296.000000=0.000000
,296.875000=4.000000
,297.000000=0.000000
,297.875000=4.000000
,299.666656=0.500000
,300.937500=1.000000
,392.000000=0.000000
,392.750000=2.000000
,393.000000=1.000000
,415.000000=0.000000
;
#FAKES:;
#LABELS:0.000000=Song Start
;
#ATTACKS:TIME=9.540000:LEN=5.000000:MODS=*1.75 20% Centered:TIME=9.770000:LEN=5.000000:MODS=*1.75 40% Centered:TIME=10.010000:LEN=5.000000:MODS=*1.75 60% Centered:TIME=10.120000:LEN=5.000000:MODS=0% Centered:TIME=12.930000:LEN=5.000000:MODS=*2 200% Mini:TIME=13.870000:LEN=5.000000:MODS=*100 0% Mini:TIME=20.889999:LEN=5.000000:MODS=*50 -200% Mini:TIME=20.889999:LEN=5.000000:MODS=*50 Beat:TIME=21.049999:LEN=5.000000:MODS=*50 -100% Mini:TIME=21.200001:LEN=5.000000:MODS=*50 -50% Mini:TIME=21.360001:LEN=5.000000:MODS=*50 0% Mini:TIME=21.360001:LEN=5.000000:MODS=*50 0% Beat:TIME=25.809999:LEN=5.000000:MODS=*2 Mini:TIME=26.040001:LEN=5.000000:MODS=*20 -100% Mini:TIME=26.510000:LEN=5.000000:MODS=*0.75 0% Mini:TIME=29.549999:LEN=5.000000:MODS=*2 Mini:TIME=29.790001:LEN=5.000000:MODS=*20 -100% Mini:TIME=30.260000:LEN=5.000000:MODS=*0.75 0% Mini:TIME=9.540000:LEN=5.000000:MODS=*1.75 20% Centered:TIME=9.770000:LEN=5.000000:MODS=*1.75 40% Centered:TIME=10.010000:LEN=5.000000:MODS=*1.75 60% Centered:TIME=10.120000:LEN=5.000000:MODS=0% Centered:TIME=12.930000:LEN=5.000000:MODS=*2 200% Mini:TIME=13.870000:LEN=5.000000:MODS=*100 0% Mini:TIME=20.889999:LEN=5.000000:MODS=*50 -200% Mini:TIME=20.889999:LEN=5.000000:MODS=*50 Beat:TIME=21.049999:LEN=5.000000:MODS=*50 -100% Mini:TIME=21.200001:LEN=5.000000:MODS=*50 -50% Mini:TIME=21.360001:LEN=5.000000:MODS=*50 0% Mini:TIME=21.360001:LEN=5.000000:MODS=*50 0% Beat:TIME=25.809999:LEN=5.000000:MODS=*2 Mini:TIME=26.040001:LEN=5.000000:MODS=*20 -100% Mini:TIME=26.510000:LEN=5.000000:MODS=*0.75 0% Mini:TIME=29.549999:LEN=5.000000:MODS=*2 Mini:TIME=29.790001:LEN=5.000000:MODS=*20 -100% Mini:TIME=30.260000:LEN=5.000000:MODS=*0.75 0% Mini:TIME=9.540000:LEN=5.000000:MODS=*1.75 20% Centered:TIME=9.770000:LEN=5.000000:MODS=*1.75 40% Centered:TIME=10.010000:LEN=5.000000:MODS=*1.75 60% Centered:TIME=10.120000:LEN=5.000000:MODS=0% Centered:TIME=12.930000:LEN=5.000000:MODS=*2 200% Mini:TIME=13.870000:LEN=5.000000:MODS=*100 0% Mini:TIME=20.889999:LEN=5.000000:MODS=*50 -200% Mini:TIME=20.889999:LEN=5.000000:MODS=*50 Beat:TIME=21.049999:LEN=5.000000:MODS=*50 -100% Mini:TIME=21.200001:LEN=5.000000:MODS=*50 -50% Mini:TIME=21.360001:LEN=5.000000:MODS=*50 0% Mini:TIME=21.360001:LEN=5.000000:MODS=*50 0% Beat:TIME=25.809999:LEN=5.000000:MODS=*2 Mini:TIME=26.040001:LEN=5.000000:MODS=*20 -100% Mini:TIME=26.510000:LEN=5.000000:MODS=*0.75 0% Mini:TIME=29.549999:LEN=5.000000:MODS=*2 Mini:TIME=29.790001:LEN=5.000000:MODS=*20 -100% Mini:TIME=30.260000:LEN=5.000000:MODS=*0.75 0% Mini:TIME=9.540000:LEN=5.000000:MODS=*1.75 20% Centered:TIME=9.770000:LEN=5.000000:MODS=*1.75 40% Centered:TIME=10.010000:LEN=5.000000:MODS=*1.75 60% Centered:TIME=10.120000:LEN=5.000000:MODS=0% Centered:TIME=12.930000:LEN=5.000000:MODS=*2 200% Mini:TIME=13.870000:LEN=5.000000:MODS=*100 0% Mini:TIME=20.889999:LEN=5.000000:MODS=*50 -200% Mini:TIME=20.889999:LEN=5.000000:MODS=*50 Beat:TIME=21.049999:LEN=5.000000:MODS=*50 -100% Mini:TIME=21.200001:LEN=5.000000:MODS=*50 -50% Mini:TIME=21.360001:LEN=5.000000:MODS=*50 0% Mini:TIME=21.360001:LEN=5.000000:MODS=*50 0% Beat:TIME=25.809999:LEN=5.000000:MODS=*2 Mini:TIME=26.040001:LEN=5.000000:MODS=*20 -100% Mini:TIME=26.510000:LEN=5.000000:MODS=*0.75 0% Mini:TIME=29.549999:LEN=5.000000:MODS=*2 Mini:TIME=29.790001:LEN=5.000000:MODS=*20 -100% Mini:TIME=30.260000:LEN=5.000000:MODS=*0.75 0% Mini:TIME=42.896950:LEN=5.000000:MODS=Stealth:TIME=43.833359:LEN=5.000000:MODS=*100 0% Stealth:TIME=42.896950:LEN=5.000000:MODS=*0.5 50% Reverse:TIME=43.833359:LEN=5.000000:MODS=*100 0% Reverse:TIME=63.029610:LEN=5.000000:MODS=*20 0% Drunk:TIME=63.029610:LEN=5.000000:MODS=*10 50% Invert:TIME=63.497810:LEN=5.000000:MODS=*10 -50% Invert:TIME=63.966011:LEN=5.000000:MODS=*10 50% Invert:TIME=64.434212:LEN=5.000000:MODS=*10 0% Invert:TIME=71.808380:LEN=5.000000:MODS=*1.75 20% Centered:TIME=72.042480:LEN=5.000000:MODS=*1.75 40% Centered:TIME=72.276581:LEN=5.000000:MODS=*1.75% 60% Centered:TIME=72.393631:LEN=5.000000:MODS=0% Centered:TIME=75.202843:LEN=5.000000:MODS=*10 Stealth:TIME=75.671043:LEN=5.000000:MODS=*2 0% Stealth:TIME=102.358521:LEN=5.000000:MODS=*50 500% Beat:TIME=103.763123:LEN=5.000000:MODS=*50 0% Beat:TIME=86.556725:LEN=1.000000:MODS=30% Brake:TIME=81.757660:LEN=1.000000:MODS=Boost:TIME=85.035072:LEN=1.400000:MODS=Boost:TIME=87.376076:LEN=5.000000:MODS=*5 0% Brake:TIME=119.213768:LEN=14.980000:MODS=50% Drunk:TIME=48.047165:LEN=14.980000:MODS=50% Drunk:TIME=134.196213:LEN=5.000000:MODS=*20 0% Drunk:TIME=134.196213:LEN=5.000000:MODS=*10 50% Invert:TIME=134.664413:LEN=5.000000:MODS=*10 -50% Invert:TIME=135.132614:LEN=5.000000:MODS=*10 50% Invert:TIME=135.600815:LEN=5.000000:MODS=*10 0% Invert;
#NOTES:
0000
0000
0000
0000
,
0000
0000
0000
0000
,
0000
0000
0000
0000
,
0000
0000
0000
0000
,
0000
0000
0000
0000
,
0001
0100
0010
1000
,
0002
0003
1000
0000
,
0001
0010
0100
1000
,
0002
0003
2002
3003
,
1000
0010
0100
0001
,
2000
3000
0200
0000
,
1300
0100
0010
0001
,
2000
3000
0010
0000
,
1000
0100
0010
0001
,
2000
3000
0100
1000
,
0001
0100
0010
1000
,
0002
0003
1000
0000
,
0100
0100
1001
0000
,
0002
0000
0013
0001
,
0100
0100
1001
0000
,
2000
0000
3010
1000
,
0100
0000
0010
0000
,
0001
0000
0000
0000
,
0001
0000
0100
0000
,
0010
0000
1000
0000
,
0001
0000
1000
0000
,
0100
0000
0020
0000
,
0031
0000
0100
0000
,
0020
0030
1000
0001
,
0000
0000
2002
3003
,
0001
0200
0000
0310
,
1000
0200
0000
0300
,
0000
0000
0000
0000
,
0000
2002
3003
0001
,
0200
0000
0310
1000
,
0200
0000
1300
0001
,
0200
0000
0310
1000
,
0001
2000
0000
3010
,
0200
0000
0301
0010
,
0200
0000
0310
0001
,
2000
0000
3010
0100
,
0001
2002
0000
0000
,
3003
1000
0100
0010
,
0001
2000
3000
0001
,
0000
1000
0010
0100
,
0001
0020
0030
2002
,
3003
0001
0010
0100
,
1000
0002
0003
0200
,
0000
0301
0010
0100
,
1000
0002
0003
1000
,
0000
0000
0000
0000
,
0000
0000
0000
0000
,
0000
0000
0000
0000
,
0000
0000
0000
0000
,
0000
0000
0000
0000
,
0000
0000
0000
0000
,
0000
0100
0001
1000
,
0100
0020
0030
0001
,
0000
1000
0001
1000
,
0001
2000
0000
0000
,
3000
0100
0010
0100
,
0020
0000
0000
0000
,
0030
0001
0000
0100
,
0000
0010
0000
1000
,
0000
0100
0000
0010
,
0000
0001
0000
0100
,
0010
1000
0000
0100
,
0000
0010
0000
0001
,
0000
0100
0000
0010
,
0000
1000
0000
2002
,
0000
0010
0010
0010
,
0010
0010
0010
0010
,
0010
0010
0010
0010
,
0010
0010
0010
0010
,
0010
0010
3013
0000
,
0000
0000
0000
0000
0000
0000
0000
0000
0000
0000
0000
0000
0000
0000
0000
0001
0000
0000
0000
0000
0000
0000
0000
0000
0000
0000
0000
0000
0000
0000
0000
0000
0000
0000
0000
0000
0000
0000
0000
0000
0000
0000
0000
0000
0000
0000
0000
0100
0000
0000
0000
0000
0000
0000
0000
0000
0000
0000
0000
0000
0000
0000
0000
0000
,
0000
0000
0000
0000
0000
0000
0000
0000
0000
0000
0000
0000
0000
0000
0000
0010
0000
0000
0000
0000
0000
0000
0000
0000
0000
0000
0000
0000
0000
0000
0000
0000
0000
0000
0000
0000
0000
0000
0000
0000
0000
0000
0000
0000
0000
0000
0000
1000
0000
0000
0000
0000
0000
0000
0000
0000
0000
0000
0000
0000
0000
0000
0000
0000
,
0000
0000
0000
0000
0000
0000
0000
0000
0000
0000
0000
0000
0000
0000
0000
0001
0000
0000
0000
0000
0000
0000
0000
0000
0000
0000
0000
0000
0000
0000
0000
0000
0000
0000
0000
0000
0000
0000
0000
0000
0000
0000
0000
0000
0000
0000
0000
0000
0000
0000
0000
0000
0000
0000
0000
0000
0000
0000
0000
0000
0000
0000
0000
0000
,
0000
0000
0000
0000
,
0000
0001
0000
0100
,
0000
0010
0000
1000
,
0000
0001
0000
0010
,
0000
0100
0000
1000
,
1000
0001
0100
0001
,
0100
0010
1000
0010
,
1000
0001
0010
0001
,
0010
0100
1000
0100
,
1000
0002
0003
1000
,
0200
0000
0310
0001
,
0200
0000
0301
1000
,
0200
0000
0310
0001
,
1000
0002
0000
0013
,
0200
0000
1300
0010
,
0200
0000
0310
1000
,
0002
0000
0013
0100
,
1000
2002
0000
0000
,
3003
1000
0100
0010
,
0001
2000
3000
0001
,
0000
0001
0100
0010
,
1000
0002
0003
1001
,
0000
0000
0000
0000
,
0000
0000
0000
0000
,
0000
0000
0000
0000
,
0000
0000
0000
1001
;

//---------------dance-single - ----------------
#NOTEDATA:;
#CHARTNAME:;
#STEPSTYPE:dance-single;
#DESCRIPTION:;
#CHARTSTYLE:;
#DIFFICULTY:Beginner;
#METER:1;
#RADARVALUES:0.114746,0.217394,0.083815,0.160645,0.010477,115.000000,103.000000,12.000000,23.000000,0.000000,0.000000,0.000000,0.000000,16.000000,0.114746,0.217394,0.083815,0.160645,0.010477,115.000000,103.000000,12.000000,23.000000,0.000000,0.000000,0.000000,0.000000,16.000000;
#CREDIT:;
#OFFSET:1.130000;
#BPMS:0.000000=128.149994
;
#STOPS:;
#DELAYS:;
#WARPS:5.500000=12.000000
,117.000000=16.000000
,191.000000=16.000000
,208.000000=16.000000
,284.000000=15.937500
,300.937500=16.062500
,399.000000=16.000000
;
#TIMESIGNATURES:0.000000=4=4
;
#TICKCOUNTS:0.000000=4
;
#COMBOS:0.000000=1
;
#SPEEDS:0.000000=1.000000=0.000000=0
,69.500000=0.500000=0.500000=0
,70.000000=1.000000=0.500000=0
,77.500000=0.500000=0.500000=0
,78.000000=1.000000=0.500000=0
,115.500000=2.000000=2.500000=0
,133.000000=1.000000=0.000000=0
,165.000000=1.500000=1.000000=0
,166.000000=0.750000=1.000000=0
,167.000000=1.500000=1.000000=0
,168.000000=1.000000=1.000000=0
,237.000000=2.000000=2.000000=0
,239.000000=1.000000=2.000000=0
,244.000000=3.000000=3.000000=0
,247.000000=1.000000=2.000000=0
,381.000000=1.500000=1.000000=0
,382.000000=0.750000=1.000000=0
,383.000000=1.500000=1.000000=0
,384.000000=1.000000=1.000000=0
;
#SCROLLS:0.000000=1.000000
,17.500000=0.000000
,19.750000=2.000000
,20.000000=1.000000
,27.000000=0.000000
,27.750000=2.000000
,28.000000=1.000000
,34.000000=0.000000
,34.750000=2.000000
,35.000000=0.000000
,35.250000=2.000000
,35.500000=0.000000
,35.750000=2.000000
,36.000000=1.000000
,42.000000=0.000000
,43.750000=2.000000
,44.000000=1.000000
,59.000000=0.000000
,59.166668=2.000000
,59.333332=0.000000
,59.500000=2.000000
,59.666668=0.000000
,59.833332=2.000000
,60.000000=1.000000
,82.000000=0.000000
,82.125000=2.000000
,82.250000=0.000000
,82.375000=2.000000
,82.500000=0.000000
,82.625000=2.000000
,82.750000=0.000000
,82.875000=2.000000
,83.000000=0.000000
,83.125000=2.000000
,83.250000=0.000000
,83.375000=2.000000
,83.500000=0.000000
,83.625000=2.000000
,83.750000=0.000000
,83.875000=2.000000
,84.000000=1.000000
,85.000000=0.000000
,85.750000=2.000000
,86.000000=1.000000
,88.000000=0.000000
,88.750000=2.000000
,89.000000=1.000000
,89.500000=0.000000
,90.250000=2.000000
,90.500000=1.000000
,91.000000=0.000000
,91.750000=2.000000
,92.000000=1.000000
,98.000000=0.500000
,99.000000=0.000000
,99.250000=2.000000
,99.500000=0.000000
,99.750000=2.000000
,100.000000=1.000000
,106.000000=0.000000
,107.750000=2.000000
,108.000000=1.000000
,115.500000=0.000000
,117.500000=1.000000
,133.000000=10.000000
,133.500000=1.000000
,183.000000=0.000000
,183.750000=2.000000
,184.000000=0.000000
,184.250000=2.000000
,184.500000=0.000000
,184.750000=2.000000
,185.000000=1.000000
,224.000000=0.000000
,225.000000=1.000000
,249.000000=0.000000
,249.125000=2.000000
,249.250000=0.000000
,249.375000=2.000000
,249.500000=0.000000
,249.625000=2.000000
,249.750000=0.000000
,249.875000=2.000000
,250.000000=0.000000
,250.125000=2.000000
,250.250000=0.000000
,250.375000=2.000000
,250.500000=0.000000
,250.625000=2.000000
,250.750000=0.000000
,250.875000=2.000000
,251.000000=0.000000
,251.125000=2.000000
,251.250000=0.000000
,251.375000=2.000000
,251.500000=0.000000
,251.750000=2.000000
,252.000000=0.000000
,252.250000=2.000000
,252.500000=1.000000
,253.000000=0.000000
,253.125000=2.000000
,253.250000=0.000000
,253.375000=2.000000
,253.500000=0.000000
,253.625000=2.000000
,253.750000=0.000000
,253.875000=2.000000
,254.000000=0.000000
,254.125000=2.000000
,254.250000=0.000000
,254.375000=2.000000
,254.500000=0.000000
,254.625000=2.000000
,254.750000=0.000000
,254.875000=2.000000
,255.000000=0.000000
,255.125000=2.000000
,255.250000=0.000000
,255.375000=2.000000
,255.500000=0.000000
,255.750000=2.000000
,256.000000=0.000000
,256.250000=2.000000
,256.500000=1.000000
,257.000000=0.000000
,257.125000=2.000000
,257.250000=0.000000
,257.375000=2.000000
,257.500000=0.000000
,257.625000=2.000000
,257.750000=0.000000
,257.875000=2.000000
,258.000000=0.000000
,258.125000=2.000000
,258.250000=0.000000
,258.375000=2.000000
,258.500000=0.000000
,258.625000=2.000000
,258.750000=0.000000
,258.875000=2.000000
,259.000000=0.000000
,259.125000=2.000000
,259.250000=0.000000
,259.375000=2.000000
,259.500000=0.000000
,259.750000=2.000000
,260.000000=0.000000
,260.250000=2.000000
,260.500000=1.000000
,261.000000=0.000000
,261.125000=2.000000
,261.250000=0.000000
,261.500000=2.000000
,261.750000=0.000000
,261.875000=2.000000
,262.000000=0.000000
,262.125000=2.000000
,262.250000=0.000000
,262.375000=2.000000
,262.500000=0.000000
,262.750000=2.000000
,263.000000=0.000000
,263.125000=2.000000
,263.250000=0.000000
,263.375000=2.000000
,263.500000=0.000000
,263.625000=2.000000
,263.750000=0.000000
,263.875000=2.000000
,264.000000=0.000000
,264.250000=2.000000
,264.500000=0.000000
,264.750000=2.000000
,265.000000=0.000000
,265.125000=2.000000
,265.250000=0.000000
,265.375000=2.000000
,265.500000=0.000000
,265.625000=2.000000
,265.750000=0.000000
,265.875000=2.000000
,266.000000=0.000000
,266.125000=2.000000
,266.250000=0.000000
,266.375000=2.000000
,266.500000=0.000000
,266.625000=2.000000
,266.750000=0.000000
,266.875000=2.000000
,267.000000=0.000000
,267.125000=2.000000
,267.250000=0.000000
,267.375000=2.000000
,267.500000=0.000000
,267.750000=2.000000
,268.000000=0.000000
,268.250000=2.000000
,268.500000=1.000000
,269.000000=0.000000
,269.125000=2.000000
,269.250000=0.000000
,269.375000=2.000000
,269.500000=0.000000
,269.625000=2.000000
,269.750000=0.000000
,269.875000=2.000000
,270.000000=0.000000
,270.125000=2.000000
,270.250000=0.000000
,270.375000=2.000000
,270.500000=0.000000
,270.625000=2.000000
,270.750000=0.000000
,270.875000=2.000000
,271.000000=0.000000
,271.125000=2.000000
,271.250000=0.000000
,271.375000=2.000000
,271.500000=0.000000
,271.750000=2.000000
,272.000000=0.000000
,272.250000=2.000000
,272.500000=1.000000
,273.000000=0.000000
,273.125000=2.000000
,273.250000=0.000000
,273.375000=2.000000
,273.500000=0.000000
,273.625000=2.000000
,273.750000=0.000000
,273.875000=2.000000
,274.000000=0.000000
,274.125000=2.000000
,274.250000=0.000000
,274.375000=2.000000
,274.500000=0.000000
,274.625000=2.000000
,274.750000=0.000000
,274.875000=2.000000
,275.000000=0.000000
,275.125000=2.000000
,275.250000=0.000000
,275.375000=2.000000
,275.500000=0.000000
,275.750000=2.000000
,276.000000=0.000000
,276.250000=2.000000
,276.500000=1.000000
,277.000000=0.000000
,277.125000=2.000000
,277.250000=0.000000
,277.500000=2.000000
,277.750000=0.000000
,277.875000=2.000000
,278.000000=0.000000
,278.125000=2.000000
,278.250000=0.000000
,278.375000=2.000000
,278.500000=0.000000
,278.750000=2.000000
,279.000000=0.000000
,279.125000=2.000000
,279.250000=0.000000
,279.375000=2.000000
,279.500000=0.000000
,279.625000=2.000000
,279.750000=0.000000
,279.875000=2.000000
,280.000000=1.000000
,281.000000=0.000000
,281.875000=4.000000
,282.000000=0.000000
,282.875000=4.000000
,283.000000=0.000000
,283.875000=4.000000
,284.000000=0.000000
,284.875000=4.000000
,285.000000=0.000000
,285.875000=4.000000
,286.000000=0.000000
,286.875000=4.000000
,287.000000=0.000000
,287.875000=4.000000
,288.000000=0.000000
,288.875000=4.000000
,289.000000=0.000000
,289.875000=4.000000
,290.000000=0.000000
,290.875000=4.000000
,291.000000=0.000000
,291.875000=4.000000
,292.000000=0.000000
,292.875000=4.000000
,293.000000=0.000000
,293.875000=4.000000
,294.000000=0.000000
,294.875000=4.000000
,295.000000=0.000000
,295.875000=4.000000
,296.000000=0.000000
,296.875000=4.000000
,297.000000=0.000000
,297.875000=4.000000
,299.666656=0.500000
,300.937500=1.000000
,392.000000=0.000000
,392.750000=2.000000
,393.000000=1.000000
,415.000000=0.000000
;
#FAKES:;
#LABELS:0.000000=Song Start
;
#ATTACKS:TIME=9.540000:LEN=5.000000:MODS=*1.75 20% Centered:TIME=9.770000:LEN=5.000000:MODS=*1.75 40% Centered:TIME=10.010000:LEN=5.000000:MODS=*1.75 60% Centered:TIME=10.120000:LEN=5.000000:MODS=0% Centered:TIME=12.930000:LEN=5.000000:MODS=*2 200% Mini:TIME=13.870000:LEN=5.000000:MODS=*100 0% Mini:TIME=20.889999:LEN=5.000000:MODS=*50 -200% Mini:TIME=20.889999:LEN=5.000000:MODS=*50 Beat:TIME=21.049999:LEN=5.000000:MODS=*50 -100% Mini:TIME=21.200001:LEN=5.000000:MODS=*50 -50% Mini:TIME=21.360001:LEN=5.000000:MODS=*50 0% Mini:TIME=21.360001:LEN=5.000000:MODS=*50 0% Beat:TIME=25.809999:LEN=5.000000:MODS=*2 Mini:TIME=26.040001:LEN=5.000000:MODS=*20 -100% Mini:TIME=26.510000:LEN=5.000000:MODS=*0.75 0% Mini:TIME=29.549999:LEN=5.000000:MODS=*2 Mini:TIME=29.790001:LEN=5.000000:MODS=*20 -100% Mini:TIME=30.260000:LEN=5.000000:MODS=*0.75 0% Mini:TIME=9.540000:LEN=5.000000:MODS=*1.75 20% Centered:TIME=9.770000:LEN=5.000000:MODS=*1.75 40% Centered:TIME=10.010000:LEN=5.000000:MODS=*1.75 60% Centered:TIME=10.120000:LEN=5.000000:MODS=0% Centered:TIME=12.930000:LEN=5.000000:MODS=*2 200% Mini:TIME=13.870000:LEN=5.000000:MODS=*100 0% Mini:TIME=20.889999:LEN=5.000000:MODS=*50 -200% Mini:TIME=20.889999:LEN=5.000000:MODS=*50 Beat:TIME=21.049999:LEN=5.000000:MODS=*50 -100% Mini:TIME=21.200001:LEN=5.000000:MODS=*50 -50% Mini:TIME=21.360001:LEN=5.000000:MODS=*50 0% Mini:TIME=21.360001:LEN=5.000000:MODS=*50 0% Beat:TIME=25.809999:LEN=5.000000:MODS=*2 Mini:TIME=26.040001:LEN=5.000000:MODS=*20 -100% Mini:TIME=26.510000:LEN=5.000000:MODS=*0.75 0% Mini:TIME=29.549999:LEN=5.000000:MODS=*2 Mini:TIME=29.790001:LEN=5.000000:MODS=*20 -100% Mini:TIME=30.260000:LEN=5.000000:MODS=*0.75 0% Mini:TIME=9.540000:LEN=5.000000:MODS=*1.75 20% Centered:TIME=9.770000:LEN=5.000000:MODS=*1.75 40% Centered:TIME=10.010000:LEN=5.000000:MODS=*1.75 60% Centered:TIME=10.120000:LEN=5.000000:MODS=0% Centered:TIME=12.930000:LEN=5.000000:MODS=*2 200% Mini:TIME=13.870000:LEN=5.000000:MODS=*100 0% Mini:TIME=20.889999:LEN=5.000000:MODS=*50 -200% Mini:TIME=20.889999:LEN=5.000000:MODS=*50 Beat:TIME=21.049999:LEN=5.000000:MODS=*50 -100% Mini:TIME=21.200001:LEN=5.000000:MODS=*50 -50% Mini:TIME=21.360001:LEN=5.000000:MODS=*50 0% Mini:TIME=21.360001:LEN=5.000000:MODS=*50 0% Beat:TIME=25.809999:LEN=5.000000:MODS=*2 Mini:TIME=26.040001:LEN=5.000000:MODS=*20 -100% Mini:TIME=26.510000:LEN=5.000000:MODS=*0.75 0% Mini:TIME=29.549999:LEN=5.000000:MODS=*2 Mini:TIME=29.790001:LEN=5.000000:MODS=*20 -100% Mini:TIME=30.260000:LEN=5.000000:MODS=*0.75 0% Mini:TIME=9.540000:LEN=5.000000:MODS=*1.75 20% Centered:TIME=9.770000:LEN=5.000000:MODS=*1.75 40% Centered:TIME=10.010000:LEN=5.000000:MODS=*1.75 60% Centered:TIME=10.120000:LEN=5.000000:MODS=0% Centered:TIME=12.930000:LEN=5.000000:MODS=*2 200% Mini:TIME=13.870000:LEN=5.000000:MODS=*100 0% Mini:TIME=20.889999:LEN=5.000000:MODS=*50 -200% Mini:TIME=20.889999:LEN=5.000000:MODS=*50 Beat:TIME=21.049999:LEN=5.000000:MODS=*50 -100% Mini:TIME=21.200001:LEN=5.000000:MODS=*50 -50% Mini:TIME=21.360001:LEN=5.000000:MODS=*50 0% Mini:TIME=21.360001:LEN=5.000000:MODS=*50 0% Beat:TIME=25.809999:LEN=5.000000:MODS=*2 Mini:TIME=26.040001:LEN=5.000000:MODS=*20 -100% Mini:TIME=26.510000:LEN=5.000000:MODS=*0.75 0% Mini:TIME=29.549999:LEN=5.000000:MODS=*2 Mini:TIME=29.790001:LEN=5.000000:MODS=*20 -100% Mini:TIME=30.260000:LEN=5.000000:MODS=*0.75 0% Mini:TIME=42.896950:LEN=5.000000:MODS=Stealth:TIME=43.833359:LEN=5.000000:MODS=*100 0% Stealth:TIME=42.896950:LEN=5.000000:MODS=*0.5 50% Reverse:TIME=43.833359:LEN=5.000000:MODS=*100 0% Reverse:TIME=63.029610:LEN=5.000000:MODS=*20 0% Drunk:TIME=63.029610:LEN=5.000000:MODS=*10 50% Invert:TIME=63.497810:LEN=5.000000:MODS=*10 -50% Invert:TIME=63.966011:LEN=5.000000:MODS=*10 50% Invert:TIME=64.434212:LEN=5.000000:MODS=*10 0% Invert:TIME=71.808380:LEN=5.000000:MODS=*1.75 20% Centered:TIME=72.042480:LEN=5.000000:MODS=*1.75 40% Centered:TIME=72.276581:LEN=5.000000:MODS=*1.75% 60% Centered:TIME=72.393631:LEN=5.000000:MODS=0% Centered:TIME=75.202843:LEN=5.000000:MODS=*10 Stealth:TIME=75.671043:LEN=5.000000:MODS=*2 0% Stealth:TIME=102.358521:LEN=5.000000:MODS=*50 500% Beat:TIME=103.763123:LEN=5.000000:MODS=*50 0% Beat:TIME=86.556725:LEN=1.000000:MODS=30% Brake:TIME=81.757660:LEN=1.000000:MODS=Boost:TIME=85.035072:LEN=1.400000:MODS=Boost:TIME=87.376076:LEN=5.000000:MODS=*5 0% Brake:TIME=119.213768:LEN=14.980000:MODS=50% Drunk:TIME=48.047165:LEN=14.980000:MODS=50% Drunk:TIME=134.196213:LEN=5.000000:MODS=*20 0% Drunk:TIME=134.196213:LEN=5.000000:MODS=*10 50% Invert:TIME=134.664413:LEN=5.000000:MODS=*10 -50% Invert:TIME=135.132614:LEN=5.000000:MODS=*10 50% Invert:TIME=135.600815:LEN=5.000000:MODS=*10 0% Invert;
#NOTES:
// measure 0
0000
0000
0000
0000
,  // measure 1
0000
0000
0000
0000
,  // measure 2
0000
0000
0000
0000
,  // measure 3
0000
0000
0000
0000
,  // measure 4
0000
0000
0000
0000
,  // measure 5
0001
0000
0100
0000
,  // measure 6
0001
0000
0000
0000
,  // measure 7
1000
0000
0100
0000
,  // measure 8
1000
0000
1001
0000
,  // measure 9
1000
0000
0010
0000
,  // measure 10
1000
0000
0000
0000
,  // measure 11
0001
0000
0010
0000
,  // measure 12
0001
0000
0000
0000
,  // measure 13
1000
0000
0010
0000
,  // measure 14
0100
0000
0000
0000
,  // measure 15
0001
0000
0010
0000
,  // measure 16
0100
0000
0000
0000
,  // measure 17
1000
0000
1001
0000
,  // measure 18
0002
0000
0003
0000
,  // measure 19
0001
0000
1001
0000
,  // measure 20
2000
0000
3000
0000
,  // measure 21
1000
0000
0000
0000
,  // measure 22
0100
0000
0000
0000
,  // measure 23
0010
0000
0000
0000
,  // measure 24
0001
0000
0000
0000
,  // measure 25
1000
0000
0001
0000
,  // measure 26
1000
0000
0000
0000
,  // measure 27
0010
0000
0100
0000
,  // measure 28
0010
0000
1001
0000
,  // measure 29
0000
0000
2002
3003
,  // measure 30
0000
2000
0000
3000
,  // measure 31
0000
0200
0000
0300
,  // measure 32
0000
0000
0000
0000
,  // measure 33
0000
2002
3003
0000
,  // measure 34
2000
0000
3000
0000
,  // measure 35
0200
0000
0300
0000
,  // measure 36
0020
0000
0030
0001
,  // measure 37
0000
0002
0000
0003
,  // measure 38
0200
0000
0300
0000
,  // measure 39
0020
0000
0030
0000
,  // measure 40
2000
0000
3000
0001
,  // measure 41
0000
1001
0000
0000
,  // measure 42
0000
1000
0000
0100
,  // measure 43
0000
1000
0000
0000
,  // measure 44
0000
0001
0000
0100
,  // measure 45
0000
0001
0000
1001
,  // measure 46
0000
1000
0000
0100
,  // measure 47
0000
0010
0000
0001
,  // measure 48
0000
0001
0000
0100
,  // measure 49
0000
0010
0000
0000
,  // measure 50
0000
0000
0000
0000
,  // measure 51
0000
0000
0000
0000
,  // measure 52
0000
0000
0000
0000
,  // measure 53
0000
0000
0000
0000
,  // measure 54
0000
0000
0000
0000
,  // measure 55
0000
0000
0000
0000
,  // measure 56
0000
0001
0000
0100
,  // measure 57
0000
0010
0000
0000
,  // measure 58
0000
1001
0000
0000
,  // measure 59
0000
0200
0000
0000
,  // measure 60
0300
1001
0000
0000
,  // measure 61
0020
0000
0000
0000
,  // measure 62
0030
1000
0000
0000
,  // measure 63
0000
0001
0000
0000
,  // measure 64
0000
1000
0000
0000
,  // measure 65
0000
0001
0000
0000
,  // measure 66
0000
0010
0000
0000
,  // measure 67
0000
0100
0000
0000
,  // measure 68
0000
0010
0000
0000
,  // measure 69
0000
0100
0000
0000
,  // measure 70
0000
2002
0000
0000
,  // measure 71
3003
1000
0000
0000
,  // measure 72
0000
0100
0000
0000
,  // measure 73
0000
0010
0000
0000
,  // measure 74
0000
0000
0000
0000
,  // measure 75
0000
0000
0000
0000
0000
0000
0000
0000
0000
0000
0000
0000
0000
0000
0000
1000
0000
0000
0000
0000
0000
0000
0000
0000
0000
0000
0000
0000
0000
0000
0000
0000
0000
0000
0000
0000
0000
0000
0000
0000
0000
0000
0000
0000
0000
0000
0000
0000
0000
0000
0000
0000
0000
0000
0000
0000
0000
0000
0000
0000
0000
0000
0000
0000
,  // measure 76
0000
0000
0000
0000
0000
0000
0000
0000
0000
0000
0000
0000
0000
0000
0000
0100
0000
0000
0000
0000
0000
0000
0000
0000
0000
0000
0000
0000
0000
0000
0000
0000
0000
0000
0000
0000
0000
0000
0000
0000
0000
0000
0000
0000
0000
0000
0000
0000
0000
0000
0000
0000
0000
0000
0000
0000
0000
0000
0000
0000
0000
0000
0000
0000
,  // measure 77
0000
0000
0000
0000
0000
0000
0000
0000
0000
0000
0000
0000
0000
0000
0000
0010
0000
0000
0000
0000
0000
0000
0000
0000
0000
0000
0000
0000
0000
0000
0000
0000
0000
0000
0000
0000
0000
0000
0000
0000
0000
0000
0000
0000
0000
0000
0000
0000
0000
0000
0000
0000
0000
0000
0000
0000
0000
0000
0000
0000
0000
0000
0000
0000
,  // measure 78
0000
0000
0000
0000
,  // measure 79
0000
1000
0000
0000
,  // measure 80
0000
0100
0000
0000
,  // measure 81
0000
0010
0000
0000
,  // measure 82
0000
0001
0000
0000
,  // measure 83
0000
1000
0000
1000
,  // measure 84
0000
0010
0000
0010
,  // measure 85
0000
0100
0000
0100
,  // measure 86
0000
0001
0000
0001
,  // measure 87
0000
2000
3000
0000
,  // measure 88
0002
0000
0003
0000
,  // measure 89
0200
0000
0300
0000
,  // measure 90
0020
0000
0030
1000
,  // measure 91
0000
2000
0000
3000
,  // measure 92
0200
0000
0300
0000
,  // measure 93
0020
0000
0030
0000
,  // measure 94
0002
0000
0003
1000
,  // measure 95
0000
1001
0000
0000
,  // measure 96
0000
0001
0000
1000
,  // measure 97
0000
0001
0000
0000
,  // measure 98
0000
0100
0000
0010
,  // measure 99
0000
0100
0000
1001
,  // measure 100
0000
0000
0000
0000
,  // measure 101
0000
0000
0000
0000
,  // measure 102
0000
0000
0000
0000
,  // measure 103
0000
0000
0000
1001
;
