#TITLE:Tal Tal Heights;
#SUBTITLE:(KAZOO'd!);
#ARTIST:Tsuko G.;
#TITLETRANSLIT:;
#SUBTITLETRANSLIT:;
#ARTISTTRANSLIT:;
#GENRE:;
#CREDIT:;
#BANNER:[You Won't See This In DDR IV] - Tal Tal Heights (KAZOO'd!)-bn.png;
#BACKGROUND:[You Won't See This In DDR IV] - Tal Tal Heights (KAZOO'd!)-bg.png;
#LYRICSPATH:;
#CDTITLE:;
#MUSIC:Tal Tal Heights (KAZOO'd!).mp3;
#OFFSET:-0.090000;
#SAMPLESTART:67.279999;
#SAMPLELENGTH:12.500000;
#LASTBEATHINT:326.550079;
#SELECTABLE:YES;
#BPMS:0.000000=150.000000
,84.000000=37.500000
,85.000000=300.000000
,117.000000=150.000000
,201.000000=37.500000
,202.000000=300.000000
,218.000000=75.000000
,234.000000=150.000000
,238.000000=300.000000
,246.000000=150.000000
,298.000000=37.500000
,299.000000=300.000000
,331.000000=37.500000
;
#STOPS:
;
#BGCHANGES:;
#KEYSOUNDS:;
#ATTACKS:;

//---------------dance-single - ----------------
#NOTES:
     dance-single:
     :
     Easy:
     4:
     0.296130,0.362015,0.063537,0.039711,0.000000,261.000000,253.000000,8.000000,5.000000,0.000000,0.000000,0.296130,0.362015,0.063537,0.039711,0.000000,261.000000,253.000000,8.000000,5.000000,0.000000,0.000000:
0000
0000
0000
0000
,
0000
0000
0000
0000
,
0000
0000
0000
0000
,
0000
0000
0000
0000
,
1000
1000
1000
1000
,
0001
0001
0001
0001
,
1000
0001
1000
0001
,
0010
0010
0010
0110
,
1000
0100
1000
1000
,
0001
0100
0001
0001
,
1000
0010
1000
1000
,
0001
0010
0100
1000
,
0001
0010
0000
0100
,
1000
0010
0000
0100
,
0001
0001
0000
1000
,
1000
0000
0010
0100
,
0001
0010
0001
0001
,
1000
0010
1000
1000
,
0100
0010
0001
0010
,
0200
0000
0310
0000
,
0100
1000
0010
1000
,
0100
0010
0000
0001
,
0000
0010
0000
0001
,
0000
1000
0000
0100
,
0000
1000
0000
1000
,
0000
0010
0000
1000
,
0000
0010
0000
1000
,
0000
0001
0000
0100
,
0000
0001
0000
0001
,
0000
1000
1000
1000
,
1000
0010
0010
0010
,
0010
0001
0001
0001
,
0001
0010
0010
0010
,
0010
0100
0000
0101
,
0000
1100
0000
0101
,
0000
1100
0010
0001
,
0100
0010
1000
0100
,
0010
0001
0001
0010
,
0100
1000
1000
0100
,
0010
0001
0010
0100
,
1000
0010
0100
0001
,
1000
0010
0010
1000
,
0001
0100
0100
0001
,
1000
0010
1000
0001
,
0100
0001
1000
0010
,
0100
0001
0010
0010
,
0100
1000
0100
0100
,
0010
0001
0100
0100
,
0010
1000
0010
0010
,
1000
0001
1000
0001
,
1000
0010
0100
0000
,
0001
0000
1000
0000
,
0100
0000
0020
0000
,
0000
0000
0000
0000
,
0000
0000
0130
0100
,
0100
0100
0010
0001
,
0010
1000
0100
0001
,
0100
1000
1010
0100
,
0011
0100
1000
0001
,
1000
0001
0100
0000
,
0010
0000
0100
0000
,
0010
0000
0001
0010
,
0001
0001
1000
0010
,
1000
1000
0001
0100
,
0001
0001
1000
0100
,
0010
0001
1000
0100
,
0000
0010
0001
0100
,
0000
0010
1000
1000
,
0000
0001
0001
0000
,
0100
0010
1000
0100
,
1000
1000
0001
0100
,
0001
0001
0010
0100
,
1000
0100
0020
0000
,
0130
0000
0010
0001
,
0100
0001
0010
0100
,
0000
0100
0000
0010
,
0000
0010
0000
1000
,
0000
1000
0000
0001
,
0000
0001
0000
0010
,
0000
0001
0000
1000
,
0000
0100
0000
1000
,
0000
0001
0000
0010
,
0000
0000
0100
0000
0000
0000
2002
3003
;

//---------------dance-single - ----------------
#NOTES:
     dance-single:
     :
     Medium:
     6:
     0.440224,0.559477,0.182670,0.444762,0.000000,388.000000,365.000000,23.000000,56.000000,0.000000,0.000000,0.440224,0.559477,0.182670,0.444762,0.000000,388.000000,365.000000,23.000000,56.000000,0.000000,0.000000:
0000
0000
0000
0000
,
0000
0000
0000
0000
,
0000
0000
0000
0000
,
0000
0000
0000
0000
,
1000
0000
0200
0000
0000
1300
1000
1000
,
0020
0100
0100
0130
,
0001
0000
0200
0000
0000
0001
0001
0301
,
0020
0100
0100
0130
,
1000
0000
0101
0000
1000
0100
0001
0000
,
0002
0023
2030
3020
,
0031
0000
1100
0000
0001
0100
1000
0000
,
0020
2030
3002
0203
,
0301
1000
0020
0000
0000
0130
0001
0000
,
1000
0001
0020
0000
0000
0130
1000
0000
,
0100
1000
0002
0000
0000
1003
0010
0000
,
1000
0100
1000
0100
0010
0001
0100
0000
,
0001
0000
1010
0000
0001
0010
1000
0000
,
0200
0302
0203
2300
,
3001
0000
0020
0000
0000
0031
0010
1000
,
0020
0000
0000
0031
1000
0000
0010
0000
,
0100
0000
0002
0000
0000
1003
0000
0001
,
0020
0000
0130
0000
0000
1000
0000
0000
,
0100
0000
0010
0000
0000
0001
0000
0000
,
0010
0000
0100
0000
0000
0001
0000
0000
,
0100
0000
0010
0000
0000
1000
0000
0000
,
0010
0000
1000
0000
0000
0100
0000
0000
,
0010
0000
0001
0000
0000
0100
0000
0000
,
0010
0000
1000
0000
0000
0001
0000
0000
,
0010
0000
0100
0000
0000
1000
0000
0000
,
0001
0000
0100
0001
0100
0001
0100
0001
,
0100
0000
0100
1000
0100
1000
0100
1000
,
0100
0000
0001
0010
0001
0010
0001
0010
,
0001
0000
1000
0010
1000
0010
1000
0010
,
1000
0000
0100
1000
0100
1000
0100
1000
,
0010
0000
0100
0001
0100
0001
0100
0001
,
0010
0000
0001
1000
0001
1000
0001
1000
,
0010
0000
0010
1000
0001
0100
0001
1000
,
0010
0000
0100
0000
0101
0000
0001
0100
,
1010
0000
1000
0000
1100
0000
1000
0100
,
0010
0002
0010
1000
,
0103
0000
2000
0000
0010
0000
3001
0100
,
0001
0000
1000
0100
0020
0000
0000
0031
,
0100
0000
0001
0100
0020
0000
0000
1030
,
0100
1000
0001
0000
0200
0000
0000
0301
,
1000
0100
1000
0000
1010
0000
1001
0000
,
0011
0000
1000
0000
1010
0000
1000
0100
,
0010
0000
0001
0000
0011
0000
0001
0100
,
0010
2000
0010
0001
,
3100
0000
0020
0000
0000
0031
0100
0000
,
0010
1000
0010
0000
2000
0000
0000
3001
,
0000
0010
0200
0000
0310
0000
0000
0001
,
0000
0000
1000
0000
0010
0000
0000
1000
,
0000
0001
0020
0000
,
1000
0000
0001
0000
,
0130
0000
0000
0000
2000
0100
0100
0100
,
0100
0100
0100
3100
0010
0010
0010
0010
,
0001
0001
0001
0001
1000
1000
1000
1000
,
0100
0100
0100
0100
1000
0010
1000
0010
,
0001
0010
0001
0010
0001
0000
0100
0000
,
1000
0100
0010
0100
,
0010
0100
0010
0000
,
1001
0000
0010
1100
,
0010
1000
0100
0000
0200
0000
0302
0000
,
0023
0032
0103
1010
,
0100
1000
0010
0000
0002
0000
0023
0000
,
0230
0000
2300
0000
3100
0010
0002
0000
,
0000
1003
0100
0000
0010
0100
0002
0000
,
0000
1003
0010
0000
1000
0010
0200
0000
,
0000
0310
0001
0000
0010
1000
0010
1000
,
0001
0100
1000
0000
0100
0000
0011
0000
,
0100
0001
0010
0000
2000
0000
3200
0000
,
2300
3020
0130
0002
,
0000
0103
0001
0010
0002
0000
0000
0103
,
0010
0001
1000
0200
,
0000
0000
0310
0000
0000
0000
0100
0000
2002
0000
0000
3003
1000
0000
0000
0000
,
0000
1100
0000
0000
1000
0000
0001
0000
,
0000
0101
0000
0000
0001
0000
1000
0000
,
0000
1010
0000
0000
1000
0000
0001
0000
,
0000
0011
0000
0000
0001
0000
0100
0000
,
0000
0110
0000
0000
0010
0000
1000
0000
,
0000
1001
0000
0000
0001
0000
0010
0000
,
0000
0100
0000
0000
1000
0000
0001
0000
,
1000
0000
0010
0000
0100
0000
2002
3003
;

//---------------dance-single - ----------------
#NOTES:
     dance-single:
     :
     Hard:
     9:
     0.698912,2.007535,0.246208,0.476531,0.544039,616.000000,585.000000,31.000000,60.000000,0.000000,0.000000,0.698912,2.007535,0.246208,0.476531,0.544039,616.000000,585.000000,31.000000,60.000000,0.000000,0.000000:
0000
0000
0000
0000
,
0000
0000
0000
0000
,
0000
0000
0000
0000
,
0000
0000
0000
0000
,
2000
0000
0000
0000
3200
0000
0000
0000
0000
0000
1300
0000
1000
0001
1000
0001
,
0020
0100
0100
0130
,
0002
0000
0000
0000
0203
0000
0000
0000
0000
0000
0301
0000
0001
1000
0001
1000
,
0020
0000
0130
0000
1000
0001
1001
0000
,
1000
0100
1100
0000
0001
0100
0101
0000
,
1000
0000
0001
0000
0010
0000
0001
0000
1000
0000
0000
0010
0000
0000
0001
0000
,
1000
1200
0010
0301
,
1000
0100
1000
0010
0001
0100
0001
1000
,
0010
0000
1000
0100
0020
0000
0000
0000
0000
0000
0031
0000
0001
0000
0100
0000
,
0010
0000
0001
0100
0020
0000
0000
0000
0000
0000
1030
0000
1000
0000
0100
0000
,
1000
0000
0102
0000
1003
0100
1000
0010
,
2000
0000
0000
0000
3100
0000
0000
0000
0001
1000
0001
1000
0001
0000
0000
0000
,
1000
0010
0110
0000
0001
0100
0110
0000
,
2000
0000
0000
0000
0000
0000
3001
0010
0001
0000
0000
0100
0000
0000
1000
0000
,
0100
0000
2000
0000
3100
0001
0010
1000
,
0020
0000
0000
0031
0100
0001
1000
0100
,
1000
0000
0001
1000
0020
0000
0000
0000
0000
0000
2030
0000
0000
3002
0000
0000
,
0103
0000
0000
0010
0000
0000
1000
0000
0001
0000
0000
0010
0000
0000
0100
0000
1000
0000
0000
0000
0000
0000
0000
0000
0000
0000
0000
0000
0000
0000
0000
0000
1000
0000
0000
0000
0000
0000
0000
0000
0100
0000
0000
0000
0000
0000
0000
0000
0000
0000
0000
0000
0000
0000
0000
0000
0100
0000
0000
0000
0000
0000
0000
0000
,
0010
0000
0001
0000
0001
0100
0000
0100
,
0010
0000
1000
0000
1000
0001
0000
0001
,
0010
0000
0001
0000
0001
1000
0000
1000
,
0100
0000
1000
0000
0010
0100
0000
0010
,
0001
0000
0001
0000
0100
0010
0000
0100
,
1000
0000
1000
0000
0100
0001
0000
0010
,
0100
0000
0001
0000
0100
1000
0000
0010
,
0100
0000
0000
0000
0001
0100
0001
0100
0001
0100
0001
0100
0001
0100
0001
0100
,
0001
0100
0001
0000
0010
1000
0010
1000
0010
1000
0010
1000
0010
1000
0010
1000
,
0010
1000
0010
0000
0100
1000
0100
1000
0100
1000
0100
1000
0100
1000
0100
1000
,
0100
1000
0100
0000
0001
0010
0001
0010
0001
0010
0001
0010
0001
0010
0001
0010
,
0001
0010
0001
0010
0001
0000
0100
0000
0001
0100
0001
0000
1000
0000
0100
0000
,
1000
0100
1000
0000
0010
0000
1000
0000
0010
1000
0010
0000
0100
0000
0001
0000
,
0100
0001
0100
0000
1000
0000
0100
0000
0001
0000
0100
0000
1000
0000
0100
0000
,
0001
0100
0011
0100
1010
0100
0110
0001
,
0010
0100
1000
0001
1000
0000
0000
0000
2200
0000
0000
0000
3300
0000
1000
0000
,
1000
0001
1000
0001
0020
0000
0000
0000
0000
0000
0031
0100
0001
0000
0000
1100
,
0000
0101
0100
0000
0020
0000
0001
0000
,
1000
0000
0031
0000
0101
0000
0001
0100
,
0010
0000
1000
0000
0010
0000
0100
0001
0020
0000
0000
0000
0000
0000
0001
0000
,
0130
0000
1000
0000
0010
0000
0100
1000
0020
0000
0000
0000
0000
0000
1000
0000
,
0130
0001
1000
0000
0102
0000
1003
0010
,
1000
0100
0022
0033
0202
0303
2020
3030
,
2200
3300
0001
0000
0202
0000
0303
0001
,
0001
1000
0001
1000
0020
0000
0000
0000
0000
0000
1030
0100
1000
0000
0000
0101
,
0000
1100
1001
0000
0220
0000
0030
0001
,
0320
1000
0230
0000
0000
0301
1000
0010
,
0001
0000
0010
0000
1000
0000
0100
0001
0020
0000
0000
0000
0000
0000
0032
0000
,
0000
0000
0000
0000
2003
0000
0000
0000
0000
0000
0000
0000
0000
0000
0000
0000
3010
0000
0000
1000
0000
0000
0001
0000
0100
0000
0000
1000
0000
0000
0001
0000
0010
0000
0000
0000
0000
0000
0000
0000
0000
0000
0000
0000
0000
0000
0000
0000
0010
0000
0000
0000
0000
0000
0000
0000
0100
0000
0000
0000
0000
0000
0000
0000
,
0000
0100
1000
0000
0010
0000
0010
0100
,
0000
0100
0001
0000
0020
0000
0001
0000
,
0100
0001
0100
0001
,
0130
0000
0000
0000
1000
0000
0000
0000
0010
1000
0100
1000
0100
1000
0100
1000
,
0010
0000
0001
0000
0100
0000
0001
0000
0100
0000
0001
0000
0100
0000
0001
0000
1000
0010
1000
0010
1000
0010
1000
0010
1000
0010
1000
0010
1000
0010
1000
0000
,
0100
0001
0100
0001
0100
0001
0100
0001
0100
0001
0100
0001
0100
0001
0100
0000
0010
0001
0010
0001
0010
0001
0010
0001
0010
0001
0010
0001
0010
0001
0010
0000
,
1000
0100
1000
0100
1000
0100
1000
0100
1000
0100
1000
0100
1000
0100
1000
0000
0001
0000
1000
0000
0001
0000
1000
0000
0020
0000
0000
0000
0100
0000
0000
0030
,
0100
0010
0100
0010
2000
0000
3001
0000
0001
0000
1000
0000
0001
0000
1000
0000
,
0200
0000
0010
0000
1300
0000
0010
0100
,
0000
0001
1000
0001
1000
0000
0100
0000
,
0020
0000
0000
0000
0031
0010
0011
0000
,
1000
0010
1010
0000
0001
1000
0100
1000
,
0001
0000
0000
0100
0000
0000
1000
0000
0001
0000
0000
0000
0021
0000
0000
0000
,
0100
0000
1030
0000
0001
0010
0001
0100
,
1000
0000
0010
0000
1000
0000
0001
0000
0100
0000
0001
0010
0200
0000
0000
0000
,
0000
0000
1300
0000
1000
0000
0010
0000
0100
0000
1000
0010
0200
0000
0000
0000
,
0000
0301
0001
0010
0001
0000
2010
0000
,
3001
0010
0001
0100
0002
0000
0013
0000
,
1000
0001
1000
0001
1000
0000
0000
0000
0001
0000
0100
0000
0110
0000
0000
0000
,
1000
0000
0010
0000
0110
0000
0000
0000
0002
0000
0000
0000
0000
0000
1003
0100
,
1000
0000
0000
0010
0000
0000
0001
0000
0010
0000
0000
0000
0002
0000
0000
0000
,
0013
1000
0100
0001
0200
0000
0000
1300
,
0010
0000
1000
0000
0001
0000
0010
0000
0001
0000
1000
0001
0200
0000
0000
0000
,
0000
0000
0000
0000
0000
0000
0000
0000
0302
0000
0000
0000
0000
0000
0000
0000
0000
0000
0000
0000
2003
0000
0000
0000
0000
0000
0000
0000
0000
0000
0000
0000
3010
0000
0000
0100
0000
0000
0001
0000
1000
0000
0000
0100
0000
0000
0010
0000
0001
0000
0000
0000
0000
0000
0000
0000
0000
0000
0000
0000
0000
0000
0000
0000
,
0001
0100
0000
0100
0010
0000
1000
0000
,
1000
0100
0000
0100
0010
0000
0001
0000
,
0001
0010
0000
0010
0100
0000
1000
0000
,
1000
0010
0000
0010
0100
0000
0001
0000
,
0001
1000
0000
0100
0010
0000
1000
0000
,
1000
0001
0000
0100
0010
0000
0001
0000
,
0001
0010
0000
1000
0001
0000
1000
0100
,
0010
0001
0010
0100
1000
0000
2002
3003
;

//---------------dance-single - ----------------
#NOTES:
     dance-single:
     :
     Challenge:
     11:
     0.904274,2.139177,0.412993,0.333572,0.953062,797.000000,745.000000,52.000000,42.000000,0.000000,0.000000,0.904274,2.139177,0.412993,0.333572,0.953062,797.000000,745.000000,52.000000,42.000000,0.000000,0.000000:
1000
0000
0100
1000
0100
0000
1000
0100
1000
0000
0100
1000
0100
0000
1000
0100
,
0010
0000
0100
0010
0100
0000
0010
0100
0010
0000
0100
0010
0100
0000
0010
0100
,
0010
0000
0001
0010
0001
0000
0010
0001
0010
0000
0001
0010
0001
0000
0010
0001
,
0010
0000
0100
0010
0100
0000
0010
0100
0010
0000
0100
0010
0100
0000
0010
0100
,
1000
0000
0000
0000
0101
0000
0000
0000
1000
0000
0100
0000
1000
0001
0100
0001
,
0010
0000
0000
0010
0001
0000
0000
0001
1000
0000
0000
1000
0100
0000
0000
0000
,
0001
0000
0000
0000
1100
0000
0000
0000
0001
0000
0100
0000
0001
1000
0100
1000
,
0010
0000
1000
0100
0000
0001
0100
1000
0010
0000
0100
0000
2002
0000
3003
0000
,
1000
0100
1000
0100
0001
0000
0100
0000
0000
0000
0010
0000
0010
0001
1000
0000
,
0001
0100
0001
0100
1000
0000
0100
0000
0010
0000
0010
1000
0000
1000
0100
0000
,
1000
0000
0000
1000
0010
0000
0000
0010
0100
0000
0000
0100
0001
0000
0000
0001
,
1000
0000
0000
1000
0100
0000
0000
0100
0001
0000
0100
0000
0010
0000
0001
0000
,
1000
0000
0100
0001
0020
0000
0000
0000
0000
0000
0031
0000
0100
0000
1000
0000
,
0001
0000
0100
1000
0020
0000
0000
0000
0000
0000
1030
0000
0100
0000
0001
0100
,
0010
0000
1200
0000
0001
0000
1300
0001
,
0020
0000
0000
0000
0001
0000
0000
0000
1000
0000
0000
0000
0031
0100
0010
0100
,
0001
0010
0001
0010
1000
0000
0010
0000
0000
0000
0001
0000
1000
0100
0001
0000
,
0200
0000
0000
0000
1300
0000
0100
0010
0001
0000
0001
0100
0000
0100
1000
0000
,
0001
0000
0201
0000
0310
1000
0010
0100
,
0002
0000
0000
1003
0100
1000
0001
0100
,
0010
0000
0100
1000
0020
0000
0000
0000
0030
0000
1100
0000
0000
0101
0000
0000
,
0120
0000
0000
1000
0000
0000
0100
0000
0001
0000
0000
0100
0000
0000
1000
0000
0031
0000
0000
0000
0000
0000
0000
0000
0000
0000
0000
0000
0000
0000
0000
0000
0010
0000
0000
0000
0000
0000
0000
0000
0110
0000
0000
0000
0000
0000
0000
0000
0000
0000
0000
0000
0000
0000
0000
0000
0100
0000
0000
0000
0000
0000
0000
0000
,
1000
0000
1000
0000
0010
0110
0000
0100
,
0001
0000
0010
0000
0001
1001
0000
1000
,
0100
0000
0010
0000
1000
1001
0000
0001
,
0100
0000
0001
0000
0100
0110
0000
0010
,
1000
0000
1000
0000
0100
0110
0000
0010
,
0001
0000
0100
0000
0001
1001
0000
1000
,
0010
0000
0010
1000
0010
1000
0001
0010
,
0100
0000
0000
0000
1000
0100
0010
0100
1000
0100
0010
0100
1000
0100
0010
0100
,
1000
0100
0010
0100
1000
0001
0010
0001
1000
0001
0010
0001
1000
0001
0010
0001
,
1000
0001
0010
0001
0100
0010
1000
0010
0100
0010
1000
0010
0100
0010
1000
0010
,
0100
0010
1000
0010
0100
0001
1000
0001
0100
0001
1000
0001
0100
0001
1000
0001
,
0100
0001
1000
0001
1000
0100
1000
0100
0010
0001
0010
0000
0001
0100
0001
0100
,
0010
1000
0010
0000
1000
0100
0010
0001
0010
0100
1000
0000
0001
0100
0010
1000
,
0010
0100
0001
0000
0011
0000
0010
0000
0110
0000
0100
0000
1100
0000
1000
0000
,
1001
0001
0101
0010
1100
0010
1001
0100
,
0010
0001
1000
0100
0010
0001
0010
0001
1000
0000
1010
0000
0000
0000
0010
0000
,
0100
0001
0010
0000
0100
1000
0100
1000
0001
0000
0101
0000
0100
0000
0100
0010
,
0000
0010
1000
0000
0010
0000
0000
0010
1000
0000
0000
1000
0001
0000
0000
0001
,
0020
0000
0000
0030
1200
0000
0000
0000
0001
0000
0000
0000
2300
0000
0100
0000
,
3002
0000
0100
0000
1003
0000
0100
0001
0020
0000
0000
0000
0000
0000
0100
0000
,
0031
0000
1000
0000
0001
0000
0100
1000
0020
0000
0000
0000
0000
0000
0100
0000
,
1030
0000
0001
0000
0010
0000
0000
0000
1200
0000
0000
0000
0310
0000
0001
0010
,
0001
0100
2010
0000
3002
0000
0023
0000
,
0130
0010
0001
1000
0010
1000
0010
1000
0001
0000
0101
0000
0000
0000
0001
0000
,
0001
0010
0100
1000
0020
0000
0000
0000
0000
0000
0130
0001
1000
0000
0000
0011
,
0000
0000
0101
0000
1100
0000
0000
0100
1000
0000
0000
1000
0001
0000
0000
0001
,
0100
0001
0020
0000
0000
1000
0130
1000
,
0001
0000
0100
0000
0010
0000
0100
0001
0020
0000
0000
0000
0000
0000
0001
0000
,
0000
0000
0000
0000
1000
0000
0000
0000
0000
0000
0000
0000
0000
0000
0000
0000
0230
0000
0000
0001
0000
0000
0010
0000
1000
0000
0000
0010
0000
0000
0001
0000
0310
0000
0000
0000
0000
0000
0000
0000
0000
0000
0000
0000
0000
0000
0000
0000
1000
0000
0000
0000
0000
0000
0000
0000
0100
0000
0000
0000
0000
0000
0000
0000
,
0000
0100
0110
0000
0010
0000
0001
0100
,
0000
0100
0110
0000
0010
1000
0010
1000
,
0010
1000
0010
1000
0001
0100
0001
0100
,
0001
0000
0000
0000
0100
0000
0000
0000
0001
0000
0000
0000
0100
0000
0000
0000
0010
0000
1000
0010
1000
0000
0010
1000
0010
0000
1000
0010
0100
0010
0100
0010
,
0100
0000
0001
0100
0001
0000
0100
0001
0100
0000
0001
0100
0010
0100
0010
0000
0001
0100
0010
0100
0001
0100
0010
0100
0001
0100
0010
0100
0001
0100
0010
0100
,
0001
1000
0010
1000
0001
1000
0010
1000
0001
1000
0010
1000
0001
1000
0010
1000
0100
1000
0001
1000
0100
1000
0001
1000
0100
1000
0001
1000
0100
1000
0001
1000
,
0100
0010
0001
0010
0100
0010
0001
0010
0100
0010
0001
0010
0100
0010
0001
0010
0100
1000
0100
1000
0100
0010
0100
0000
0022
0000
0000
0000
0000
0000
0033
0000
,
0100
0001
0100
0001
0100
0010
0100
0000
2020
0000
0000
0000
0000
0000
3030
0000
1000
0000
0100
0000
1000
0000
0001
0000
0100
0000
0001
0000
0010
0000
0000
0000
,
2200
0000
0000
3300
0101
0000
0010
1000
,
0000
1000
0100
0010
0011
0000
0100
0000
,
1010
0000
0010
0000
0100
0000
0001
0000
0010
1000
0010
1000
0100
0000
1000
0000
,
0000
0000
0001
0000
0001
0100
0010
0000
0100
1000
0100
1000
0010
0000
1000
0000
,
0001
0000
0001
0010
0000
0010
1000
0000
0010
0000
0000
0010
0001
0000
0000
0001
,
1000
0000
0000
1000
0100
0000
0000
0100
0010
0000
0000
0010
1000
0000
0000
1000
,
0100
0000
1000
0000
0001
0000
0100
0000
0010
0000
1000
0100
0002
0000
0000
0000
,
0000
0000
0103
0000
1000
0000
0010
0000
0100
0000
1000
0010
0002
0000
0000
0000
,
0000
0000
0013
0000
1000
0000
0100
1000
0001
0000
0000
0000
2010
0000
0000
0000
,
0100
0000
3010
0100
0002
0000
0100
0000
,
0010
0000
0000
0000
0103
1000
0001
1000
0100
0001
0100
0001
0010
0000
0001
0000
,
0000
0000
0100
0000
0010
1000
0100
0000
2000
0000
0000
0000
3010
0000
1000
0001
,
0100
0000
0100
1000
0000
1000
0010
0000
0100
0000
0000
0000
2100
0000
0000
0000
,
3001
0010
0001
1000
0200
0000
0000
0310
,
1000
0000
0010
0000
0100
0000
1000
0000
0001
0000
1000
0010
0002
0000
0000
0000
,
0003
0000
0000
0000
0000
0000
0000
0000
1010
0000
0000
0000
0000
0000
0000
0000
0000
0000
0000
0000
1100
0000
0000
0000
0000
0000
0000
0000
0000
0000
0000
0000
1002
0000
0000
0010
0000
0000
1000
0000
0100
0000
0000
1000
0000
0000
0010
0000
0103
0000
0000
0000
0000
0000
0000
0000
0000
0000
0000
0000
0000
0000
0000
0000
,
0001
1001
0000
1000
0010
0000
0010
0000
,
0001
1001
0000
1000
0100
0000
0001
0000
,
0100
0110
0000
0010
1000
0000
0001
0000
,
0010
0110
0000
0100
1000
0000
0100
0000
,
1000
1001
0000
0001
0010
0000
0010
0000
,
1000
1001
0000
0001
0100
0000
1000
0000
,
0100
0110
0000
0010
0001
0000
0001
0010
,
0001
0010
0100
0001
1000
0000
2200
3300
;

//---------------dance-single - ----------------
#NOTES:
     dance-single:
     :
     Beginner:
     2:
     0.144094,0.197165,0.000000,0.158844,0.000000,127.000000,127.000000,0.000000,20.000000,0.000000,0.000000,0.144094,0.197165,0.000000,0.158844,0.000000,127.000000,127.000000,0.000000,20.000000,0.000000,0.000000:
// measure 0
0000
0000
0000
0000
,  // measure 1
0000
0000
0000
0000
,  // measure 2
0000
0000
0000
0000
,  // measure 3
0000
0000
0000
0000
,  // measure 4
1000
0000
0100
0000
,  // measure 5
1000
0000
0100
0000
,  // measure 6
0001
0000
0100
0000
,  // measure 7
0020
0000
0000
0030
,  // measure 8
1000
0000
0000
1000
,  // measure 9
0001
0000
0000
0001
,  // measure 10
1000
0000
0010
0000
,  // measure 11
0100
0000
0001
0000
,  // measure 12
0010
0000
0000
0010
,  // measure 13
0100
0000
0000
0100
,  // measure 14
0001
0000
1000
0000
,  // measure 15
0200
0000
0000
0300
,  // measure 16
1000
0000
0000
0010
,  // measure 17
0001
0000
0000
0010
,  // measure 18
1000
0000
0100
0000
,  // measure 19
0010
0000
0001
0000
,  // measure 20
0100
0000
0000
0010
,  // measure 21
1000
0100
0000
0000
,  // measure 22
0000
0010
0000
0000
,  // measure 23
0000
0100
0000
0000
,  // measure 24
0000
0010
0000
0000
,  // measure 25
0000
0001
0000
0000
,  // measure 26
0000
1000
0000
0000
,  // measure 27
0000
0001
0000
0000
,  // measure 28
0000
1000
0000
0000
,  // measure 29
0000
0020
0000
0000
,  // measure 30
0030
0200
0000
0000
,  // measure 31
0300
0002
0000
0000
,  // measure 32
0003
2000
0000
0000
,  // measure 33
3000
0200
0000
0000
,  // measure 34
0300
2000
0000
0000
,  // measure 35
3000
0002
0000
0000
,  // measure 36
0003
0010
0000
0010
,  // measure 37
0010
0010
0000
0000
,  // measure 38
0100
1000
0000
0000
,  // measure 39
0100
0001
0000
0100
,  // measure 40
0000
0010
0000
1000
,  // measure 41
0000
0010
0200
0000
,  // measure 42
0300
0001
2000
0000
,  // measure 43
3000
0100
0000
0010
,  // measure 44
0000
0001
0000
1000
,  // measure 45
0000
0010
0000
0000
,  // measure 46
0010
1000
0000
0000
,  // measure 47
1000
0001
0000
0000
,  // measure 48
0001
0010
0000
0100
,  // measure 49
0000
1000
0000
0000
,  // measure 50
0001
0100
0010
0000
,  // measure 51
0000
0000
1000
0000
,  // measure 52
0000
0000
0001
0000
,  // measure 53
0000
0000
0100
0000
,  // measure 54
0000
0000
0010
0000
,  // measure 55
0100
0000
0002
0003
,  // measure 56
2000
3000
0020
0030
,  // measure 57
0200
0300
2000
3000
,  // measure 58
0002
0003
0020
0000
,  // measure 59
0000
0030
0200
0000
,  // measure 60
0000
0000
0000
0000
,  // measure 61
0300
0000
0010
0000
,  // measure 62
0000
0010
0100
0000
,  // measure 63
0000
0100
0010
0000
,  // measure 64
0001
0000
1000
0000
,  // measure 65
0100
0000
0001
0000
,  // measure 66
0000
0001
1000
0000
,  // measure 67
0000
1000
0100
0000
,  // measure 68
0010
0000
2000
0000
,  // measure 69
0000
3000
0010
0000
,  // measure 70
0000
0001
0100
0000
,  // measure 71
0000
0001
0010
0000
,  // measure 72
1000
0000
0001
0000
,  // measure 73
0100
0000
1000
0000
,  // measure 74
0000
0001
0010
1000
,  // measure 75
0000
0000
0000
0001
,  // measure 76
0000
0000
0000
1000
,  // measure 77
0000
0000
0000
0001
,  // measure 78
0000
0000
0000
0100
,  // measure 79
0000
0000
0000
0010
,  // measure 80
0000
0000
0000
0100
,  // measure 81
0000
0000
0000
0010
,  // measure 82
0000
0000
0000
0001
;
