#TITLE:R U Still xxxx?;
#SUBTITLE:;
#ARTIST:かめりあ;
#TITLETRANSLIT:;
#SUBTITLETRANSLIT:;
#ARTISTTRANSLIT:Camellia;
#GENRE:;
#CREDIT:;
#BANNER:[You Won't See This in DDR IV] - R U Still xxxx.png;
#BACKGROUND:[You Won't See This in DDR IV] - R U Still xxxx-bg.png;
#LYRICSPATH:;
#CDTITLE:;
#MUSIC:[You Won't See This in DDR IV] - R U Still xxxx.ogg;
#OFFSET:-10.276000;
#SAMPLESTART:18.460825;
#SAMPLELENGTH:14.358973;
#SELECTABLE:YES;
#BPMS:0.000000=234.000000
,32.000000=117.000000
,36.000000=468.000000
,180.000000=234.000000
,216.000000=117.000000
,218.000000=468.000000
,374.000000=234.000000
,416.000000=117.000000
,420.000000=468.000000
,548.000000=117.000000
,556.000000=468.000000
;
#STOPS:
;
#BGCHANGES:;
#KEYSOUNDS:;
#ATTACKS:;

//---------------dance-single - xRGTMx-WTF----------------
#NOTES:
     dance-single:
     xRGTMx-WTF:
     Hard:
     14:
     0.954416,1.000000,0.618917,0.296741,0.067827,680.000000,73.000000,35.000000,0.000000,0.000000,0.000000,0.954416,1.000000,0.618917,0.296741,0.067827,680.000000,73.000000,35.000000,0.000000,0.000000,0.000000:
// measure 0
0000
0000
0000
0000
,  // measure 1
0000
0000
0000
0000
,  // measure 2
1001
0000
0000
1000
0100
0000
0000
0000
,  // measure 3
0011
0001
0000
0100
0010
0010
0100
0000
,  // measure 4
1001
0000
0000
0001
0100
0000
0000
0000
,  // measure 5
1010
1000
0000
1100
0100
0010
0100
0000
,  // measure 6
1001
0100
0000
0100
1001
1001
0000
0010
,  // measure 7
1001
1100
0000
0101
0000
0010
1001
0100
,  // measure 8
0220
0000
0000
0000
0000
0000
0000
0000
0000
0000
0000
0000
0000
0000
0000
0000
0000
0000
0000
0000
0000
0000
0000
0000
0000
0000
0000
0300
0030
0000
0000
0000
,  // measure 9
1001
0000
0000
0000
0101
0000
0001
0100
,  // measure 10
0010
0000
1000
0000
0001
0000
1000
0100
,  // measure 11
0010
0000
0001
0000
1000
0000
0010
0100
,  // measure 12
0001
0000
1000
0000
0100
0010
0001
0010
,  // measure 13
0100
0010
0100
0000
1000
0000
0001
0100
,  // measure 14
0001
0000
0010
0100
1000
0000
0001
0100
,  // measure 15
0020
1000
0100
0230
,  // measure 16
0001
0310
0110
0000
,  // measure 17
0110
0000
1001
0000
,  // measure 18
1001
1000
0100
0020
,  // measure 19
0031
0010
0001
0000
0100
0001
0100
0000
,  // measure 20
1010
1100
0101
0000
,  // measure 21
1001
0000
1000
0100
0010
0000
0001
0100
,  // measure 22
0010
1010
0101
0000
,  // measure 23
0001
0010
0010
0100
,  // measure 24
1001
0000
0000
1000
0001
0000
0010
0000
,  // measure 25
1001
0000
0101
0000
1001
0000
1000
0100
,  // measure 26
0010
0000
0001
0000
0010
0000
0100
1000
,  // measure 27
0001
0000
1000
0000
0010
0000
0100
0001
,  // measure 28
1000
0000
0100
0000
0010
0001
0010
0100
,  // measure 29
1000
0000
0001
0000
1000
0000
0001
0000
0000
0000
0000
0000
0100
0000
0000
0000
0000
0000
0001
0000
0000
1000
0000
0000
,  // measure 30
0010
0000
0100
0001
1000
0000
0100
0010
,  // measure 31
0001
0010
0100
1000
,  // measure 32
0010
0010
1001
0000
,  // measure 33
0001
1000
0010
1000
0100
0000
0010
0001
,  // measure 34
0100
0001
0100
0000
1001
0000
0000
0000
,  // measure 35
1000
0001
0010
0001
0100
0000
0010
1000
,  // measure 36
0100
1000
0100
0000
1001
0000
0000
0000
,  // measure 37
1000
0010
1000
0010
1000
0000
0001
0010
,  // measure 38
0001
0010
0001
0000
1000
0100
1000
0100
,  // measure 39
0020
0000
0031
1000
0200
0000
0310
0001
,  // measure 40
0100
0001
1000
0010
0200
0000
0310
0000
,  // measure 41
2002
0000
0000
0000
,  // measure 42
0000
0000
0000
0000
,  // measure 43
0000
0000
0000
0000
,  // measure 44
0000
0000
0000
0000
,  // measure 45
0000
0000
0000
0000
,  // measure 46
3003
0000
0000
0000
,  // measure 47
0010
0000
0100
0000
0010
0000
1001
0000
0000
0000
0000
0000
0100
0000
0000
0010
0000
0000
0100
0000
0000
0000
0000
0000
,  // measure 48
0110
0000
1001
0000
0100
0010
0110
0000
,  // measure 49
1000
0000
0001
0000
1000
0000
0110
0000
0000
0000
0000
0000
1000
0000
0000
0001
0000
0000
1000
0000
0000
0000
0000
0000
,  // measure 50
1001
0000
0110
0000
0001
1000
1001
0000
,  // measure 51
0001
0010
0001
0010
0100
1000
0100
1000
,  // measure 52
0001
0100
0010
1000
0001
0010
0100
1000
,  // measure 53
0010
0100
0010
0100
0010
0100
0010
0100
0001
1000
0001
1000
0001
1000
0001
1000
,  // measure 54
0200
0000
0000
0310
1001
0000
0001
0010
,  // measure 55
0001
0000
0100
0001
0100
0000
0010
1000
,  // measure 56
0010
0000
1000
0100
1000
0000
0001
0000
,  // measure 57
0100
0100
0010
1000
,  // measure 58
0100
1000
0001
1000
0100
0000
1000
0010
,  // measure 59
1000
0000
0001
0100
0001
0000
0010
0001
,  // measure 60
0010
0000
0100
1000
0100
0000
0010
0000
,  // measure 61
0001
0001
0010
0100
,  // measure 62
1000
0100
0010
0001
1000
0000
0001
0100
,  // measure 63
0001
0000
1000
0100
1000
0000
0010
1000
,  // measure 64
0010
0000
0100
0001
0100
0000
0010
0000
,  // measure 65
1000
1000
0010
0100
,  // measure 66
0001
1000
0100
1000
0001
0000
0010
0001
,  // measure 67
1000
0000
0100
1000
0001
0000
0100
0001
,  // measure 68
1000
0000
0010
1000
0100
1000
0100
0000
,  // measure 69
0010
0000
0000
0000
0001
0000
0000
0000
2000
0000
0000
0000
3020
0000
0000
0030
,  // measure 70
0110
0101
1001
1000
,  // measure 71
0100
0000
0010
0001
0010
0000
0100
0000
,  // measure 72
1000
0000
1000
0000
0001
0000
0100
0001
,  // measure 73
0100
0000
0010
1000
0001
0000
0010
0001
,  // measure 74
2000
0000
3010
1000
,  // measure 75
0100
0000
0010
0001
0010
0000
0100
0000
,  // measure 76
0100
0000
1000
0000
0001
0100
0001
0100
,  // measure 77
0010
0000
1000
0100
1000
0100
0010
0000
,  // measure 78
0001
0000
1000
0000
0020
0000
0000
0030
,  // measure 79
1001
0000
1000
0100
0010
0000
0001
0000
,  // measure 80
1000
0000
0010
0000
0200
0000
0000
0300
,  // measure 81
1001
0000
0001
0100
0010
0000
1000
0001
,  // measure 82
0010
0010
0200
0000
,  // measure 83
1300
0100
0010
0001
1000
0001
0100
0010
,  // measure 84
1000
0001
1000
0100
0010
0000
0001
0100
,  // measure 85
0000
0010
1000
0000
0001
0000
0010
0100
,  // measure 86
0000
1000
0001
0000
2002
0000
0000
0000
,  // measure 87
0000
0000
0000
0000
,  // measure 88
0000
0000
0000
0000
,  // measure 89
0000
0000
0000
0000
,  // measure 90
0000
0000
0000
0000
,  // measure 91
0000
0000
0000
0000
,  // measure 92
0000
0000
0000
0000
,  // measure 93
0000
0000
0000
0000
,  // measure 94
0000
0000
0000
0000
,  // measure 95
0000
0000
0000
0000
,  // measure 96
3003
0000
0000
0000
,  // measure 97
0000
0000
0000
0000
,  // measure 98
1001
0000
0000
0001
0100
0000
0000
0000
,  // measure 99
1010
1000
0000
0100
0020
0000
0000
0030
,  // measure 100
1001
0000
0000
1000
0010
0000
0000
0000
,  // measure 101
0101
1100
0000
1001
0020
0000
0000
0030
,  // measure 102
1001
0000
0000
0000
0000
0000
0000
0000
0000
1000
0000
0000
0100
0000
0010
0000
0100
0000
0010
0000
0000
0001
0000
0000
,  // measure 103
1001
0000
0000
0001
0200
0000
0310
0000
,  // measure 104
2002
0000
0000
0000
0000
0000
0000
0000
0000
0000
0000
0000
0000
0000
0000
0000
0000
0000
0000
0000
0000
0000
0000
0000
0000
0000
0000
0003
3000
0000
0000
0000
,  // measure 105
1001
0000
0001
0010
0100
0000
0100
0010
,  // measure 106
0001
0000
0001
1000
0010
0000
0010
1000
,  // measure 107
0001
0000
0001
1000
0100
0000
0100
1000
,  // measure 108
0010
0000
0010
0100
0000
0001
1000
0000
,  // measure 109
1001
0000
1000
0100
0010
0000
0010
0100
,  // measure 110
1000
0000
1000
0001
0100
0000
0100
0001
,  // measure 111
0010
0000
0010
0001
1000
0000
1000
0010
,  // measure 112
0100
0000
0100
0001
0020
0000
0130
0000
,  // measure 113
1001
0000
0001
0100
0010
0000
0010
1000
,  // measure 114
0100
0000
0100
1000
0010
0000
0010
0100
,  // measure 115
0001
0000
0001
0100
0010
0000
0010
1000
,  // measure 116
0001
0000
0010
0100
0000
0010
0100
0000
,  // measure 117
1001
0000
1000
0100
0010
0000
0010
0100
,  // measure 118
2000
3002
0203
0310
,  // measure 119
1010
0000
1010
1001
,  // measure 120
0000
1001
0110
0000
,  // measure 121
1001
0000
0001
0010
0100
0000
0100
0010
,  // measure 122
1000
0000
1000
0010
0100
0000
0100
0010
,  // measure 123
0001
0000
0001
1000
0010
0000
0010
0100
,  // measure 124
0002
0000
0000
0013
0100
0010
0100
0000
,  // measure 125
1001
0000
1000
0010
0100
0000
0100
0010
,  // measure 126
0001
0000
0001
0010
0100
0000
0100
0010
,  // measure 127
1000
0000
1000
0100
0010
0000
0010
0001
,  // measure 128
1000
1000
0110
0000
,  // measure 129
1001
0000
0001
1000
0010
0000
0100
0001
,  // measure 130
0020
0000
0000
0030
,  // measure 131
1001
0000
1000
0001
0010
0000
0100
1000
,  // measure 132
0020
0100
0130
0000
,  // measure 133
1000
0100
0010
0001
0100
0000
0001
0100
,  // measure 134
0010
1000
0100
0000
1000
0010
0100
0001
,  // measure 135
0010
0000
0001
0010
0100
1000
0010
0000
,  // measure 136
1000
0001
0010
0100
1000
0001
0100
0000
,  // measure 137
2002
0000
0000
0000
,  // measure 138
3003
0000
0000
0000
,  // measure 139
0001
0010
0001
0010
0100
1000
0100
1000
,  // measure 140
0001
0010
0100
1000
0100
0010
0001
1000
,  // measure 141
0010
1000
0010
1000
0001
0100
0001
0100
,  // measure 142
0010
1000
0010
0100
0001
0100
0010
1000
,  // measure 143
0001
0010
0001
0100
0010
1000
0100
1000
,  // measure 144
0001
0100
0010
1000
0001
0010
0001
1000
,  // measure 145
0010
0100
0001
1000
0100
1000
0010
0100
,  // measure 146
0001
1000
0100
0010
0001
1000
0010
0000
,  // measure 147
2002
0000
0000
0000
,  // measure 148
0000
0000
0000
0000
,  // measure 149
0000
0000
0000
0000
,  // measure 150
0000
0000
0000
0000
,  // measure 151
0000
0000
0000
0000
,  // measure 152
0000
0000
0000
0000
,  // measure 153
0000
0000
0000
0000
,  // measure 154
0000
0000
0000
0000
,  // measure 155
0000
0000
0000
0000
,  // measure 156
0000
0000
0000
0000
,  // measure 157
0000
0000
0000
0000
,  // measure 158
0000
0000
0000
0000
,  // measure 159
0000
0000
0000
0000
,  // measure 160
0000
0000
0000
0000
,  // measure 161
0000
0000
0000
0000
,  // measure 162
0000
0000
0000
0000
,  // measure 163
0000
0000
0000
0000
,  // measure 164
0000
0000
0000
0000
,  // measure 165
0000
0000
0000
0000
,  // measure 166
0000
0000
0000
0000
,  // measure 167
3003
0000
0000
0000
;

//---------------dance-single - xRGTMx-OMG----------------
#NOTES:
     dance-single:
     xRGTMx-OMG:
     Medium:
     11:
     0.729135,1.000000,0.288263,0.195001,0.025435,545.000000,34.000000,23.000000,0.000000,0.000000,0.000000,0.729135,1.000000,0.288263,0.195001,0.025435,545.000000,34.000000,23.000000,0.000000,0.000000,0.000000:
// measure 0
0000
0000
0000
0000
,  // measure 1
0000
0000
0000
0000
,  // measure 2
1001
0000
0000
1000
0100
0000
0000
0000
,  // measure 3
1001
0001
0000
0001
0100
0010
0100
0000
,  // measure 4
1001
0000
0000
0001
0010
0000
0000
0000
,  // measure 5
1001
1000
0000
0010
0000
0010
0100
0000
,  // measure 6
1001
0000
0000
0000
1100
1000
0000
0000
,  // measure 7
0101
0001
0000
0110
0000
1001
0100
0000
,  // measure 8
0220
0000
0000
0000
0000
0000
0000
0000
0000
0000
0000
0000
0000
0000
0000
0000
0000
0000
0000
0000
0000
0000
0000
0000
0000
0000
0000
0300
0030
0000
0000
0000
,  // measure 9
1001
0000
1000
0100
,  // measure 10
0100
0010
0001
1000
,  // measure 11
1000
0001
0100
0100
,  // measure 12
0010
1000
0001
0001
,  // measure 13
1000
1000
0100
0010
,  // measure 14
0001
1000
0001
0100
,  // measure 15
0010
1000
0010
1000
,  // measure 16
0002
0000
0013
0000
,  // measure 17
0110
0000
1001
0000
,  // measure 18
1000
0001
1000
0020
,  // measure 19
0130
0100
0010
0010
,  // measure 20
1000
0001
0010
0000
,  // measure 21
0001
0000
1000
0100
1000
0000
0001
0100
,  // measure 22
0001
1000
0100
0000
,  // measure 23
0010
0001
1000
0000
,  // measure 24
1010
0000
0000
0010
0100
0000
0001
0000
,  // measure 25
1000
0100
1000
0010
,  // measure 26
0010
0100
0001
0001
,  // measure 27
0010
0001
1000
0010
,  // measure 28
0010
0100
0001
0001
,  // measure 29
1000
0001
1000
0000
0100
0000
0010
0000
,  // measure 30
0010
0001
0100
0001
,  // measure 31
0010
0001
1000
0010
,  // measure 32
0100
0100
0010
0000
,  // measure 33
1000
0001
1000
0001
1000
0000
0001
1000
,  // measure 34
0001
1000
0001
0000
1000
0000
0000
0000
,  // measure 35
0010
0100
0010
0100
0010
0000
0100
0010
,  // measure 36
0100
0010
0100
0000
0010
0000
0000
0000
,  // measure 37
1000
0001
1000
0001
1000
0000
0001
1000
,  // measure 38
0001
1000
0001
0000
0100
0010
0100
0010
,  // measure 39
0100
0010
1000
0001
,  // measure 40
0010
0100
1000
0001
,  // measure 41
2002
0000
0000
0000
,  // measure 42
0000
0000
0000
0000
,  // measure 43
0000
0000
0000
0000
,  // measure 44
0000
0000
0000
0000
,  // measure 45
0000
0000
0000
0000
,  // measure 46
3003
0000
0000
0000
,  // measure 47
1001
1000
0100
0010
,  // measure 48
0001
1000
0010
0100
,  // measure 49
1001
0001
0100
0010
,  // measure 50
1000
0001
0010
0100
,  // measure 51
1000
0100
1000
0100
0010
0001
0010
0001
,  // measure 52
1000
0010
1000
0010
0100
0001
0100
0001
,  // measure 53
1000
0100
1000
0000
0001
0100
0001
0000
1000
0010
1000
0000
0001
0010
0001
0000
,  // measure 54
0200
0000
0000
0310
1000
0000
0000
1000
,  // measure 55
0010
0000
0000
0010
0100
0000
0000
0100
,  // measure 56
0001
0000
0000
0001
1000
0000
0000
0000
,  // measure 57
1000
0100
0000
1000
,  // measure 58
0010
0000
0100
0000
0001
0000
0000
0001
,  // measure 59
0010
0000
0000
0010
0100
0000
0000
0100
,  // measure 60
1000
0000
0000
1000
0001
0000
0000
0000
,  // measure 61
0010
0100
0000
1000
,  // measure 62
0001
0100
0001
0100
0010
0000
0000
0010
,  // measure 63
1000
0000
0000
1000
0001
0000
0000
0001
,  // measure 64
0010
0000
0000
0010
0100
0000
0000
0000
,  // measure 65
0100
1000
0000
1000
,  // measure 66
0010
0000
1000
0000
0001
0000
0000
0001
,  // measure 67
1000
0000
0000
1000
0100
0000
0000
0100
,  // measure 68
0010
0000
0000
0010
0001
0000
0010
0000
,  // measure 69
0100
1000
0002
0103
,  // measure 70
0010
0010
1001
1000
,  // measure 71
0100
0010
0010
0100
,  // measure 72
1000
0001
0100
0100
,  // measure 73
0010
0010
1000
0001
,  // measure 74
1000
0000
1000
0001
,  // measure 75
0100
0010
0010
0100
,  // measure 76
0001
1000
0100
0100
,  // measure 77
0010
0000
0010
0000
0001
1000
0001
0000
,  // measure 78
1000
0000
0100
0000
,  // measure 79
1001
1000
0100
0010
,  // measure 80
0001
1000
0010
0000
,  // measure 81
1001
0001
0100
0010
,  // measure 82
1000
0000
0001
0000
0020
0000
0000
0030
,  // measure 83
0001
0010
0001
0010
0100
1000
0100
1000
,  // measure 84
0001
0000
0010
0000
0100
0000
0100
1000
,  // measure 85
0000
1000
0001
0000
0001
0100
0000
0100
,  // measure 86
0010
0100
2002
0000
,  // measure 87
0000
0000
0000
0000
,  // measure 88
0000
0000
0000
0000
,  // measure 89
0000
0000
0000
0000
,  // measure 90
0000
0000
0000
0000
,  // measure 91
0000
0000
0000
0000
,  // measure 92
0000
0000
0000
0000
,  // measure 93
0000
0000
0000
0000
,  // measure 94
0000
0000
0000
0000
,  // measure 95
0000
0000
0000
0000
,  // measure 96
3003
0000
0000
0000
,  // measure 97
0000
0000
0000
0000
,  // measure 98
1001
0000
0000
0001
0010
0000
0000
0000
,  // measure 99
1001
1000
0000
0000
0200
0000
0000
0300
,  // measure 100
1001
0000
0000
1000
0100
0000
0000
0000
,  // measure 101
1001
0001
0000
0100
0020
0000
0000
0030
,  // measure 102
1001
0000
0000
0000
0000
0000
0000
0000
0000
0000
0000
0000
0100
0000
0010
0000
0100
0000
0010
0000
0000
0001
0000
0000
,  // measure 103
1001
0000
0000
0000
0000
0000
0000
0000
0200
0000
0000
0000
0320
0000
0000
0030
,  // measure 104
2002
0000
0000
0000
0000
0000
0000
0000
0000
0000
0000
0000
0000
0000
0000
0000
0000
0000
0000
0000
0000
0000
0000
0000
0000
0000
0000
3000
0003
0000
0000
0000
,  // measure 105
1000
0000
0000
0100
0010
0000
0000
0001
,  // measure 106
1000
0000
0000
0010
0100
0000
0000
0001
,  // measure 107
1000
0000
0000
0100
0010
0000
0001
1000
,  // measure 108
0001
0000
1000
0100
1000
0000
0001
0000
,  // measure 109
0100
0000
0000
0010
1000
0000
0000
0001
,  // measure 110
0010
0000
0000
0100
0010
0000
0000
0001
,  // measure 111
1000
0000
0000
0001
0100
0000
0010
1000
,  // measure 112
0010
0000
0100
0001
0100
0000
0000
0000
,  // measure 113
0001
0000
0000
0010
0100
0000
0000
1000
,  // measure 114
0001
0000
0000
0100
0010
0000
0000
1000
,  // measure 115
0001
0000
0000
0010
0100
0000
1000
0001
,  // measure 116
1000
0000
0001
0010
0000
0001
1000
0000
,  // measure 117
0010
0000
0000
0100
0001
0000
1000
0001
,  // measure 118
2000
0000
0000
3000
,  // measure 119
0110
0000
1001
1100
,  // measure 120
0000
0101
1001
0000
,  // measure 121
1000
0000
0000
0100
1000
0000
0001
1000
,  // measure 122
0001
0000
0000
0100
0001
0000
1000
0001
,  // measure 123
1000
0000
0000
0100
0010
0000
0001
1000
,  // measure 124
0002
0000
0103
0000
,  // measure 125
0001
0000
0000
0010
0001
0000
1000
0001
,  // measure 126
1000
0000
0000
0010
1000
0000
0001
1000
,  // measure 127
0001
0000
0000
0010
0100
0000
1000
0001
,  // measure 128
1000
0001
0101
0000
,  // measure 129
0001
0000
1000
0010
1000
0000
0100
1000
,  // measure 130
0200
0000
0000
0000
,  // measure 131
0310
0000
0001
0100
0001
0000
0100
0010
,  // measure 132
0100
0010
0020
0000
,  // measure 133
1030
0100
1000
0100
1000
0000
0001
0100
,  // measure 134
0001
0100
0001
0000
1000
0010
1000
0010
,  // measure 135
1000
0000
0001
0010
0001
0010
0001
0000
,  // measure 136
1000
0001
1000
0001
1000
0001
1000
0001
,  // measure 137
0200
0000
0000
0000
,  // measure 138
0300
0000
0000
0000
,  // measure 139
0010
1000
0100
0010
,  // measure 140
0001
0010
0100
1000
,  // measure 141
0001
0100
0010
1000
,  // measure 142
0001
0010
0001
1000
,  // measure 143
0010
1000
0010
0000
0100
0001
0100
0000
,  // measure 144
0001
0010
0001
0000
1000
0100
1000
0000
,  // measure 145
0001
0010
0001
0010
0100
0010
0100
0010
,  // measure 146
0100
1000
0100
1000
0001
1000
0001
0000
,  // measure 147
0020
0000
0000
0000
,  // measure 148
0000
0000
0000
0000
,  // measure 149
0000
0000
0000
0000
,  // measure 150
0000
0000
0000
0000
,  // measure 151
0000
0000
0000
0000
,  // measure 152
0000
0000
0000
0000
,  // measure 153
0000
0000
0000
0000
,  // measure 154
0000
0000
0000
0000
,  // measure 155
0000
0000
0000
0000
,  // measure 156
0000
0000
0000
0000
,  // measure 157
0000
0000
0000
0000
,  // measure 158
0000
0000
0000
0000
,  // measure 159
0000
0000
0000
0000
,  // measure 160
0000
0000
0000
0000
,  // measure 161
0000
0000
0000
0000
,  // measure 162
0000
0000
0000
0000
,  // measure 163
0000
0000
0000
0000
,  // measure 164
0000
0000
0000
0000
,  // measure 165
0000
0000
0000
0000
,  // measure 166
0000
0000
0000
0000
,  // measure 167
0030
0000
0000
0000
;

//---------------dance-single - xRGTMx-HUH----------------
#NOTES:
     dance-single:
     xRGTMx-HUH:
     Easy:
     9:
     0.552302,1.000000,0.559569,0.144131,0.008478,373.000000,66.000000,17.000000,0.000000,0.000000,0.000000,0.552302,1.000000,0.559569,0.144131,0.008478,373.000000,66.000000,17.000000,0.000000,0.000000,0.000000:
// measure 0
0000
0000
0000
0000
,  // measure 1
0000
0000
0000
0000
,  // measure 2
0110
0000
0000
0000
,  // measure 3
1000
0001
0000
0000
0000
0000
0000
0000
,  // measure 4
0110
0000
0000
0000
,  // measure 5
0001
1000
0000
0010
0000
0000
0000
0000
,  // measure 6
0110
0000
0000
0000
1000
0001
0000
0000
,  // measure 7
0010
0100
0000
0110
0000
1001
0000
0000
,  // measure 8
0020
0000
0000
0000
0000
0000
0000
0030
,  // measure 9
1001
0000
1000
0001
,  // measure 10
0100
0000
0010
1000
,  // measure 11
0100
0000
0010
0001
,  // measure 12
0100
0001
1000
0100
,  // measure 13
0010
0000
0001
1000
,  // measure 14
0010
0000
0100
0001
,  // measure 15
1000
0000
0100
0010
,  // measure 16
0000
0001
1000
0000
,  // measure 17
0010
0000
1001
0000
,  // measure 18
0001
0100
0010
0020
,  // measure 19
1030
0100
1000
0000
,  // measure 20
0001
0100
0100
0000
,  // measure 21
0110
0000
0010
0000
,  // measure 22
0010
0000
0010
0000
,  // measure 23
1000
0001
1000
0000
,  // measure 24
0010
0010
0010
0000
,  // measure 25
1001
1000
0100
0000
,  // measure 26
0010
0001
0000
1000
,  // measure 27
0001
1000
0000
0010
,  // measure 28
1000
0100
0010
0000
,  // measure 29
0000
0001
1000
0000
,  // measure 30
0001
0100
0000
0010
,  // measure 31
1000
0010
0000
0100
,  // measure 32
0001
1000
0100
0000
,  // measure 33
1001
0000
1000
0100
,  // measure 34
0000
0100
0010
0000
,  // measure 35
1001
0000
0001
0100
,  // measure 36
0000
0100
0010
0000
,  // measure 37
1000
0010
1000
0100
,  // measure 38
0010
0001
1000
0010
,  // measure 39
0100
0001
0100
0001
,  // measure 40
1000
0100
1000
0100
,  // measure 41
2002
0000
0000
0000
,  // measure 42
0000
0000
0000
0000
,  // measure 43
0000
0000
0000
0000
,  // measure 44
0000
0000
0000
0000
,  // measure 45
0000
0000
0000
0000
,  // measure 46
3003
0000
0000
0000
,  // measure 47
1001
1000
0010
0010
,  // measure 48
0100
0100
0001
0001
,  // measure 49
1001
1000
0100
0100
,  // measure 50
0010
0010
0001
0001
,  // measure 51
1000
0001
1000
0000
0001
0100
0001
0000
,  // measure 52
1000
0001
1000
0000
0100
1000
0100
0000
,  // measure 53
0010
0001
0100
0010
1000
0100
0010
0001
,  // measure 54
0200
0000
0000
0300
1001
0000
0000
0000
,  // measure 55
0101
0000
1001
0000
,  // measure 56
1100
0000
1001
0000
,  // measure 57
0001
0100
0000
1000
,  // measure 58
0100
0000
1001
0000
,  // measure 59
1010
0000
1001
0000
,  // measure 60
0011
0000
1001
0000
,  // measure 61
1000
0010
0000
0001
,  // measure 62
0010
0000
1010
0000
,  // measure 63
1100
0000
0011
0000
,  // measure 64
0101
0000
1001
0000
,  // measure 65
0001
0010
0000
0100
,  // measure 66
1000
0000
0011
0000
,  // measure 67
1010
0000
1100
0000
,  // measure 68
0101
0000
0001
1000
,  // measure 69
0001
0010
0100
1000
,  // measure 70
0010
0000
0100
0001
,  // measure 71
0100
0001
1000
0100
,  // measure 72
0010
0001
1000
0010
,  // measure 73
1000
0001
0010
0100
,  // measure 74
0010
0000
0100
1000
,  // measure 75
0100
1000
0001
0100
,  // measure 76
0010
1000
0001
0010
,  // measure 77
0001
0010
0100
1000
,  // measure 78
0001
0000
0100
0000
,  // measure 79
0001
0010
0100
1000
,  // measure 80
0010
0000
0100
0000
,  // measure 81
0001
0010
0100
1000
,  // measure 82
0010
0000
0200
0000
,  // measure 83
0301
1000
0001
1000
,  // measure 84
0100
0000
0010
0000
0001
0000
0000
0001
,  // measure 85
0000
0000
0100
0000
0010
0000
0000
1000
,  // measure 86
0000
0001
2002
0000
,  // measure 87
0000
0000
0000
0000
,  // measure 88
0000
0000
0000
0000
,  // measure 89
0000
0000
0000
0000
,  // measure 90
0000
0000
0000
0000
,  // measure 91
0000
0000
0000
0000
,  // measure 92
0000
0000
0000
0000
,  // measure 93
0000
0000
0000
0000
,  // measure 94
0000
0000
0000
0000
,  // measure 95
0000
0000
0000
0000
,  // measure 96
3003
0000
0000
0000
,  // measure 97
0000
0000
0000
0000
,  // measure 98
0110
0000
0000
0000
,  // measure 99
1000
0001
0000
0000
0000
0000
0000
0000
,  // measure 100
0110
0000
0000
0000
,  // measure 101
0001
1000
0000
1000
0020
0000
0000
0030
,  // measure 102
1001
0000
0000
0000
0000
0000
1000
0001
1000
0001
0000
0000
,  // measure 103
1001
0000
0000
0000
0020
0000
0000
0030
,  // measure 104
2002
0000
0000
0000
0000
0000
0000
0000
0000
0000
0000
0000
0000
0000
0000
0000
0000
0000
0000
0000
0000
0000
0000
0000
0000
0000
0000
0003
3000
0000
0000
0000
,  // measure 105
0001
0000
0101
0000
,  // measure 106
1100
0000
1010
0000
,  // measure 107
0011
0000
1001
0000
,  // measure 108
1000
0001
1000
0000
,  // measure 109
0010
0000
1010
0000
,  // measure 110
1100
0000
0101
0000
,  // measure 111
0011
0000
1010
0000
,  // measure 112
1000
0001
0010
0000
,  // measure 113
0100
0000
1100
0000
,  // measure 114
0101
0000
0011
0000
,  // measure 115
1010
0000
1001
0000
,  // measure 116
0001
0000
0000
1000
0000
0000
0010
0000
,  // measure 117
0100
0000
1001
0000
,  // measure 118
0020
0000
0000
0030
,  // measure 119
1001
0000
1000
0001
,  // measure 120
0000
0001
1000
0000
,  // measure 121
1000
0010
0000
0110
,  // measure 122
0000
0101
0000
1100
,  // measure 123
0000
1001
0000
0001
,  // measure 124
0020
0000
0000
0030
,  // measure 125
0010
0100
0000
1100
,  // measure 126
0000
1010
0000
0011
,  // measure 127
0000
1001
0000
0001
,  // measure 128
0100
0010
0100
0000
,  // measure 129
0001
1000
0010
1000
,  // measure 130
1200
0000
0000
0000
,  // measure 131
0310
0001
0100
0001
,  // measure 132
0011
0010
0100
0000
,  // measure 133
1000
0100
0100
0001
,  // measure 134
0100
0100
1000
0010
,  // measure 135
0010
0001
0010
0010
,  // measure 136
1000
0001
1000
0001
,  // measure 137
0020
0000
0000
0000
,  // measure 138
0030
0000
0000
0000
,  // measure 139
0001
0010
0001
0010
,  // measure 140
0100
1000
0100
1000
,  // measure 141
0001
0100
0001
0100
,  // measure 142
0010
1000
0010
1000
,  // measure 143
0100
0010
0100
0010
,  // measure 144
0001
1000
0001
1000
,  // measure 145
0010
0100
0010
0100
,  // measure 146
0001
1000
0001
1000
,  // measure 147
0200
0000
0000
0000
,  // measure 148
0000
0000
0000
0000
,  // measure 149
0000
0000
0000
0000
,  // measure 150
0000
0000
0000
0000
,  // measure 151
0000
0000
0000
0000
,  // measure 152
0000
0000
0000
0000
,  // measure 153
0000
0000
0000
0000
,  // measure 154
0000
0000
0000
0000
,  // measure 155
0000
0000
0000
0000
,  // measure 156
0000
0000
0000
0000
,  // measure 157
0000
0000
0000
0000
,  // measure 158
0000
0000
0000
0000
,  // measure 159
0000
0000
0000
0000
,  // measure 160
0000
0000
0000
0000
,  // measure 161
0000
0000
0000
0000
,  // measure 162
0000
0000
0000
0000
,  // measure 163
0000
0000
0000
0000
,  // measure 164
0000
0000
0000
0000
,  // measure 165
0000
0000
0000
0000
,  // measure 166
0000
0000
0000
0000
,  // measure 167
0300
0000
0000
0000
;

//---------------dance-single - xRGTMx-WHY----------------
#NOTES:
     dance-single:
     xRGTMx-WHY:
     Beginner:
     5:
     0.268884,0.747787,0.152610,0.076305,0.000000,197.000000,18.000000,9.000000,0.000000,0.000000,2.000000,0.268884,0.747787,0.152610,0.076305,0.000000,197.000000,18.000000,9.000000,0.000000,0.000000,2.000000:
// measure 0
0000
0000
0000
0000
,  // measure 1
0000
0000
0000
0000
,  // measure 2
1001
0000
0000
0000
,  // measure 3
0100
0000
0000
0000
,  // measure 4
1001
0000
0000
0000
,  // measure 5
0010
0000
0000
0000
,  // measure 6
1000
0000
0001
0000
,  // measure 7
1000
0000
0001
0000
,  // measure 8
0200
0000
0000
0000
0000
0000
0000
0300
,  // measure 9
0100
0000
0000
0000
,  // measure 10
0001
0000
0000
0000
,  // measure 11
1000
0000
0000
0000
,  // measure 12
0100
0000
0000
0000
,  // measure 13
0100
0000
0000
0000
,  // measure 14
1000
0000
0000
0000
,  // measure 15
0001
0000
0000
0000
,  // measure 16
0100
0000
0100
0000
,  // measure 17
0001
0000
0010
0000
,  // measure 18
0000
0000
0100
0000
,  // measure 19
0100
0000
0000
0000
,  // measure 20
1000
0000
0001
0000
,  // measure 21
1000
0000
0000
0000
,  // measure 22
0010
0000
0010
0000
,  // measure 23
0100
0000
0000
0000
,  // measure 24
0010
0000
1001
0000
,  // measure 25
1000
0000
0001
0000
,  // measure 26
1000
0000
0001
0000
,  // measure 27
0000
0000
0010
0000
,  // measure 28
0000
0000
0010
0000
,  // measure 29
0001
0000
1000
0000
,  // measure 30
0001
0000
1000
0000
,  // measure 31
0000
0000
0010
0000
,  // measure 32
0000
0000
0010
0000
,  // measure 33
1000
0000
0100
0000
,  // measure 34
0010
0000
0010
0000
,  // measure 35
0001
0000
0100
0000
,  // measure 36
0010
0000
0010
0000
,  // measure 37
1000
0000
1000
0000
,  // measure 38
0001
0000
0001
0000
,  // measure 39
0010
0000
0100
0000
,  // measure 40
0010
0000
0000
0000
,  // measure 41
1001
0000
0000
0000
,  // measure 42
0000
0000
0000
0000
,  // measure 43
0000
0000
0000
0000
,  // measure 44
0000
0000
0000
0000
,  // measure 45
0000
0000
0000
0000
,  // measure 46
0000
0000
0000
0000
,  // measure 47
1000
1000
1000
1000
,  // measure 48
1000
1000
1000
0000
,  // measure 49
0001
0001
0001
0001
,  // measure 50
0001
0001
0001
0000
,  // measure 51
0100
0000
0010
0000
,  // measure 52
0100
0000
0010
0000
,  // measure 53
1000
0001
1000
0001
,  // measure 54
0020
0000
0000
0030
0001
0000
0000
0000
,  // measure 55
0000
0000
0010
0000
,  // measure 56
0000
0000
0100
0000
,  // measure 57
0000
0000
1000
0000
,  // measure 58
0000
0000
0001
0000
,  // measure 59
0000
0000
1000
0000
,  // measure 60
0000
0000
0010
0000
,  // measure 61
0100
0000
0010
0000
,  // measure 62
0000
0000
1000
0000
,  // measure 63
0000
0000
0001
0000
,  // measure 64
0000
0000
1000
0000
,  // measure 65
0000
0000
0100
0000
,  // measure 66
0000
0000
0010
0000
,  // measure 67
0000
0000
0001
0000
,  // measure 68
0000
0000
0100
0000
,  // measure 69
0010
0000
0100
0000
,  // measure 70
0000
0000
0001
0000
,  // measure 71
0001
0000
1000
0000
,  // measure 72
0000
0000
1000
0000
,  // measure 73
1000
0000
0001
0000
,  // measure 74
0000
0000
0010
0000
,  // measure 75
0010
0000
0100
0000
,  // measure 76
0000
0000
0100
0000
,  // measure 77
0100
0000
0010
0000
,  // measure 78
0000
0000
0001
0000
,  // measure 79
0100
0000
0010
0000
,  // measure 80
0010
0000
1000
0000
,  // measure 81
0100
0000
0010
0000
,  // measure 82
0010
0000
0001
0000
,  // measure 83
1000
0000
0001
0000
,  // measure 84
1000
0000
0010
0000
,  // measure 85
0000
0010
0000
0000
,  // measure 86
0100
0000
1001
0000
,  // measure 87
0000
0000
0000
0000
,  // measure 88
0000
0000
0000
0000
,  // measure 89
0000
0000
0000
0000
,  // measure 90
0000
0000
0000
0000
,  // measure 91
0000
0000
0000
0000
,  // measure 92
0000
0000
0000
0000
,  // measure 93
0000
0000
0000
0000
,  // measure 94
0000
0000
0000
0000
,  // measure 95
0000
0000
0000
0000
,  // measure 96
0000
0000
0000
0000
,  // measure 97
0000
0000
0000
0000
,  // measure 98
1001
0000
0000
0000
,  // measure 99
0100
0000
0020
0030
,  // measure 100
1001
0000
0000
0000
,  // measure 101
0010
0000
0200
0300
,  // measure 102
1001
0000
0020
0030
,  // measure 103
1001
0000
0020
0030
,  // measure 104
2002
0000
0000
0000
0000
0000
0000
0000
0000
0000
0000
0000
0000
0000
0000
0000
0000
0000
0000
0000
0000
0000
0000
0000
0000
0000
0000
3000
0003
0000
0000
0000
,  // measure 105
1000
0000
1000
0000
,  // measure 106
1000
0000
1000
0000
,  // measure 107
0001
0000
0001
0000
,  // measure 108
1000
0000
1000
0000
,  // measure 109
0001
0000
0001
0000
,  // measure 110
0001
0000
0001
0000
,  // measure 111
1000
0000
1000
0000
,  // measure 112
0001
0000
0001
0000
,  // measure 113
0100
0000
0100
0000
,  // measure 114
0100
0000
0100
0000
,  // measure 115
0010
0000
0010
0000
,  // measure 116
0100
0000
0100
0000
,  // measure 117
0010
0000
0010
0000
,  // measure 118
0020
0000
0000
0000
,  // measure 119
0130
0000
0000
0010
,  // measure 120
0000
0000
1001
0000
,  // measure 121
1000
0000
0100
0000
,  // measure 122
0010
0000
0001
0000
,  // measure 123
0010
0000
0100
0000
,  // measure 124
1000
0000
1000
0000
,  // measure 125
0001
0000
0100
0000
,  // measure 126
0010
0000
1000
0000
,  // measure 127
0010
0000
0100
0000
,  // measure 128
0001
0000
0001
0000
,  // measure 129
1000
0000
0100
0000
,  // measure 130
0010
0000
0000
0000
,  // measure 131
0001
0000
0010
0000
,  // measure 132
0100
0000
0000
0000
,  // measure 133
1100
0000
0000
0101
,  // measure 134
0000
0000
1010
0000
,  // measure 135
0000
0011
0000
0000
,  // measure 136
0110
0000
0000
0000
,  // measure 137
1001
0000
0000
0000
,  // measure 138
0000
0000
0000
0000
,  // measure 139
4004
0000
0000
0000
,  // measure 140
0000
0000
0000
0000
,  // measure 141
0000
0000
0000
0000
,  // measure 142
0000
0000
0000
0000
,  // measure 143
0000
0000
0000
0000
,  // measure 144
0000
0000
0000
0000
,  // measure 145
0000
0000
0000
0000
,  // measure 146
0000
0000
0000
0000
,  // measure 147
3003
0000
0000
0000
;
