#VERSION:0.83;
#TITLE:Larryboy Theme Song;
#SUBTITLE:;
#ARTIST:Nicole Mullen & the Big Band;
#TITLETRANSLIT:;
#SUBTITLETRANSLIT:;
#ARTISTTRANSLIT:;
#GENRE:;
#ORIGIN:;
#CREDIT:;
#BANNER:[You Won't See This In DDR IV] - Larryboy Theme Song-bn.png;
#BACKGROUND:[You Won't See This In DDR IV] - Larryboy Theme Song-bg.png;
#PREVIEWVID:;
#JACKET:[You Won't See This In DDR IV] - Larryboy Theme Song-jacket.png;
#CDIMAGE:;
#DISCIMAGE:;
#LYRICSPATH:;
#CDTITLE:;
#MUSIC:[You Won't See This In DDR IV] - Larryboy Theme Song.mp3;
#OFFSET:-0.090000;
#SAMPLESTART:9.930000;
#SAMPLELENGTH:12.000000;
#SELECTABLE:YES;
#BPMS:0.000=96.750,
127.500=48.625,
129.500=96.750,
130.000=120.000,
132.000=123.000,
134.000=126.000,
136.000=129.000,
138.000=131.200,
194.000=142.500;
#STOPS:;
#DELAYS:;
#WARPS:;
#TIMESIGNATURES:0.000=4=4;
#TICKCOUNTS:0.000=4;
#COMBOS:0.000=1;
#SPEEDS:0.000=1.000=0.000=0;
#SCROLLS:0.000=1.000;
#FAKES:;
#LABELS:0.000=Song Start;
#LASTSECONDHINT:116.800003;
#BGCHANGES:;
#KEYSOUNDS:;
#ATTACKS:
;

//---------------dance-single - ----------------
#NOTEDATA:;
#CHARTNAME:;
#STEPSTYPE:dance-single;
#DESCRIPTION:;
#CHARTSTYLE:;
#DIFFICULTY:Easy;
#METER:2;
#RADARVALUES:0.147771,0.190424,0.042744,0.145329,0.000000,121.000000,116.000000,5.000000,17.000000,0.000000,0.000000,0.000000,19.000000,0.000000,0.147771,0.190424,0.042744,0.145329,0.000000,121.000000,116.000000,5.000000,17.000000,0.000000,0.000000,0.000000,19.000000,0.000000;
#CREDIT:;
#NOTES:
// measure 0
0000
0000
0000
0000
,  // measure 1
0000
0000
0000
0000
,  // measure 2
0000
0000
0000
0000
,  // measure 3
0000
0000
0000
0000
,  // measure 4
1000
1000
0000
0000
,  // measure 5
0001
0001
0000
0000
,  // measure 6
0010
00L0
0100
0L00
,  // measure 7
0001
0001
0000
0000
,  // measure 8
1000
1000
0000
0000
,  // measure 9
0100
0L00
0010
00L0
,  // measure 10
1000
0001
0000
0001
,  // measure 11
0000
1000
0000
1001
,  // measure 12
0010
00L0
0010
00L0
,  // measure 13
0100
0100
0200
0300
,  // measure 14
1000
L000
1000
L000
,  // measure 15
0001
0001
0002
0003
,  // measure 16
0020
0030
0002
0003
,  // measure 17
2000
3000
0200
0300
,  // measure 18
0010
00L0
0010
00L0
,  // measure 19
0100
0100
0100
0000
,  // measure 20
2000
3000
0002
0003
,  // measure 21
0010
0010
0010
0010
,  // measure 22
0200
0300
0L00
0000
0000
0000
0000
0000
,  // measure 23
0020
0030
00L0
0000
0000
0000
0000
0000
,  // measure 24
2000
3000
L000
0000
0002
0003
000L
0000
,  // measure 25
0200
0300
0L00
0000
0000
0000
0000
0000
,  // measure 26
0020
0030
00L0
0000
0000
0000
0000
0000
,  // measure 27
0002
0003
000L
0000
2000
3000
L000
0000
,  // measure 28
0100
0000
0100
0000
,  // measure 29
0010
0000
0010
0000
,  // measure 30
0001
0001
0100
0100
,  // measure 31
1000
0000
1000
0000
0100
0000
0000
0200
,  // measure 32
0000
0000
0000
0300
0010
0000
0000
0000
,  // measure 33
0010
0000
0100
0000
,  // measure 34
0100
0000
0001
0000
,  // measure 35
1000
0000
1000
0000
,  // measure 36
0001
0000
1000
0000
,  // measure 37
0100
0000
0010
0000
,  // measure 38
0001
0000
0100
0000
,  // measure 39
0010
0000
1000
0000
,  // measure 40
0001
0000
1000
0000
,  // measure 41
1001
0000
0001
0000
,  // measure 42
1001
0000
0010
0000
,  // measure 43
0110
0000
0100
0000
,  // measure 44
0110
0000
0001
0000
,  // measure 45
0100
0000
1000
0000
,  // measure 46
0010
0000
1000
0000
,  // measure 47
0100
0000
0001
0000
,  // measure 48
0010
0000
0000
0000
0100
0000
0000
0100
,  // measure 49
0000
0100
0L00
0000
;

//---------------dance-single - ----------------
#NOTEDATA:;
#CHARTNAME:;
#STEPSTYPE:dance-single;
#DESCRIPTION:;
#CHARTSTYLE:;
#DIFFICULTY:Hard;
#METER:8;
#RADARVALUES:0.593528,0.615244,0.632608,0.624060,0.671078,486.000000,412.000000,74.000000,73.000000,0.000000,0.000000,0.000000,49.000000,0.000000,0.593528,0.615244,0.632608,0.624060,0.671078,486.000000,412.000000,74.000000,73.000000,0.000000,0.000000,0.000000,49.000000,0.000000;
#CREDIT:;
#NOTES:
0000
0000
0000
0000
,
0000
0000
0000
0000
,
0000
0000
0000
0000
,
0000
0000
0000
0000
0000
0000
0000
0000
0000
0000
0000
0000
0000
0000
0000
0000
0000
0000
0000
0000
0000
0000
0000
0000
0000
0000
0000
0000
0000
0000
1000
0000
0010
0000
1000
0000
0010
0000
0000
0100
0000
0000
0001
0000
0000
0100
0000
0000
,
0002
0000
0003
000L
0001
0000
0000
0000
1000
0000
0100
0000
0001
0000
0100
0000
,
2000
0000
3000
L000
1000
0000
0000
0000
0001
0000
0010
0000
1000
0010
0000
0000
,
0202
0003
030L
0L10
1000
0000
0000
0000
2200
3000
L300
0L10
0001
0000
0000
0000
,
0022
0000
0033
00LL
0011
0000
0000
0000
1000
0100
0010
0000
0001
0100
0000
0000
,
2020
0000
3030
L0L0
1010
0000
0000
0000
1000
0000
0100
0000
0010
0000
0001
0000
,
0202
0300
0L03
100L
0010
0000
0000
0000
2200
0300
3L00
L001
0010
0000
0000
0000
,
2002
0003
300L
L100
0010
0000
0000
0000
0001
0010
0001
0010
0100
1000
0001
0100
,
0010
0000
1000
0010
0100
0000
0001
0010
0100
0000
0010
0000
0100
0010
0100
0000
,
0002
0000
0020
0033
00LL
0000
0100
1000
0100
0000
0000
0000
1001
0000
0000
0000
,
2000
0000
3020
0000
0032
0000
0023
0000
2030
0000
0000
3000
L001
0000
0000
0000
,
2000
0000
0200
3300
LL00
0000
0010
0001
0010
0000
0000
0000
1001
0000
0000
0000
,
0002
0000
0203
0000
2300
0000
3200
0000
0302
0000
0000
0003
100L
0000
0000
0000
,
0200
0000
1300
0100
0020
0000
0031
0010
2000
0000
3010
0100
0002
0000
0103
0010
,
0002
0000
0013
0100
2000
0000
3010
0100
0000
0000
0001
1000
0001
1000
0000
0020
,
0000
0000
0200
0330
0LL0
0000
1000
0010
0001
0000
0010
0000
0100
0L00
0000
0000
,
2000
0000
3020
0000
0032
0000
0023
0000
2030
0000
0000
0002
0000
0000
3003
0000
,
0010
0000
0001
0000
0010
0000
1000
0010
0000
0100
0010
0000
0000
0000
0000
0000
,
0001
000L
0100
1000
L000
0100
0001
000L
0100
1000
L000
0000
,
2020
0000
0030
3010
10L0
0000
0000
0001
0000
0100
0000
1000
0000
0100
0000
0000
,
0022
0000
0030
0013
00L1
0000
0000
0001
0000
0010
0000
1000
0000
0000
0000
0000
,
0022
0030
00L3
100L
0100
0000
0000
0000
2020
0030
30L0
L001
0100
0000
0000
0000
,
2200
0000
3000
1300
L100
0000
0000
1000
0000
0100
0000
0001
0000
0010
0000
0000
,
0202
0000
0003
0301
010L
0000
0000
0001
0000
0010
0000
1000
0000
0000
0000
0000
,
2020
3000
L030
01L0
0001
0000
0000
0000
0022
0003
003L
01L0
1000
0000
0000
0000
,
2002
0003
300L
L010
0100
0000
0000
0000
1000
0100
0010
0001
0010
0000
0001
0010
,
0100
0000
1000
0000
0100
0000
1000
0000
0000
0100
0000
0000
0010
0000
0000
0001
0000
0000
0100
0000
0000
0001
0000
0000
0000
0000
0000
0001
0000
0000
0100
0000
0000
1000
0000
0000
0100
0000
0000
0001
0000
0000
0000
0000
0000
0000
0000
0000
,
2000
3100
0012
0103
2010
3100
0012
0103
,
2100
3010
0102
0013
1100
0010
0101
0210
,
0010
0010
0010
0010
0010
0010
0310
0000
0010
0000
0000
1000
0010
0000
0100
0000
,
0001
0010
0000
1000
0010
0000
0100
0000
0010
0000
0001
0010
0000
0100
0000
1000
,
0010
0000
0001
0000
0010
0100
0000
0001
0100
0010
1000
0000
0020
0000
0000
0130
,
0000
0000
0001
0010
1000
0000
0010
0100
0000
1000
0100
0001
0000
0100
0010
0100
,
0020
0000
0030
0000
1001
0000
1001
0000
1000
0000
0100
0000
0010
0001
0000
0010
,
0000
0100
0000
1000
0010
0000
1001
0000
0001
0000
0100
0000
0010
1000
0000
0000
,
0010
0000
0100
0001
0010
0001
0000
1000
0000
0000
0100
1000
0100
1000
0000
1010
,
0000
0000
0100
0001
0100
0001
0010
0100
1000
0000
0001
0100
0010
1000
0000
0001
,
0000
1000
0001
1000
0001
0010
0100
1000
0001
0010
0000
0011
0000
0000
0011
0000
,
1000
0010
0000
1010
0000
0000
1010
0000
1000
0100
0000
1100
0000
0000
1100
0000
,
0001
0100
0000
0101
0000
0000
0101
0000
0001
0010
0000
0100
1000
0000
0110
0000
,
2000
0000
0000
3001
0000
0000
1001
0000
0001
0100
0000
0010
1000
0010
0000
0100
,
1000
0100
0000
0001
0010
0001
0000
1000
0000
0000
0000
0100
0001
0000
0110
0000
,
1001
0000
0000
0100
1000
0000
0110
0000
1001
0000
0000
1000
0100
0000
0010
0001
,
0000
0001
0100
0000
0010
1000
0001
1000
0001
0000
0000
1000
0100
0000
1000
0001
,
0020
1000
0100
0001
0100
1000
0130
0010
,
0001
1000
0001
1000
0001
1000
0001
0000
1100
LL00
0000
0000
0000
0000
0101
0L0L
,
0000
0000
0000
0000
0110
0LL0
0000
0000
1001
0000
0000
0000
0000
0000
0000
0000
,
0100
0000
0000
0000
0000
0000
0000
0000
0000
0000
0000
0000
0000
0000
0000
0100
0000
0000
0000
0000
0000
0000
0000
0000
0000
0000
0000
0000
0000
0000
0100
0000
,
0000
0000
0000
0000
0000
0000
0000
0000
0000
0000
0000
0000
0000
0100
0000
0000
0000
0000
0000
0000
0000
0000
0000
0000
0000
0000
0000
0000
0000
0000
0000
0000
;

//---------------dance-single - ----------------
#NOTEDATA:;
#CHARTNAME:;
#STEPSTYPE:dance-single;
#DESCRIPTION:;
#CHARTSTYLE:;
#DIFFICULTY:Challenge;
#METER:8;
#RADARVALUES:0.547121,0.615244,0.401792,0.624060,0.671078,448.000000,401.000000,47.000000,73.000000,0.000000,0.000000,0.000000,0.000000,0.000000,0.547121,0.615244,0.401792,0.624060,0.671078,448.000000,401.000000,47.000000,73.000000,0.000000,0.000000,0.000000,0.000000,0.000000;
#CREDIT:;
#NOTES:
0000
0000
0000
0000
,
0000
0000
0000
0000
,
0000
0000
0000
0000
,
0000
0000
0000
0000
0000
0000
0000
0000
0000
0000
0000
0000
0000
0000
0000
0000
0000
0000
0000
0000
0000
0000
0000
0000
0000
0000
0000
0000
0000
0000
1000
0000
0010
0000
1000
0000
0010
0000
0000
0100
0000
0000
0001
0000
0000
0100
0000
0000
,
0002
0000
0003
1000
0001
0000
0000
0000
1000
0000
0100
0000
0001
0000
0100
0000
,
2000
0000
3000
0001
1000
0000
0000
0000
0001
0000
0010
0000
1000
0010
0000
0000
,
0202
0000
0003
0310
1000
0000
0000
0000
2200
0000
3000
0310
0001
0000
0000
0000
,
0022
0000
0033
1000
0010
0000
0000
0000
1000
0100
0010
0000
0001
0100
0000
0000
,
2020
0000
3030
0001
0010
0000
0000
0000
1000
0000
0100
0000
0010
0000
0001
0000
,
0202
0000
0300
1003
0010
0000
0000
0000
2200
0000
0300
3001
0010
0000
0000
0000
,
2002
0000
0003
3100
0010
0000
0000
0000
0001
0010
0001
0010
0100
1000
0001
0100
,
0010
0000
1000
0010
0100
0000
0001
0010
0100
0000
0010
0000
0100
0010
0100
0000
,
0002
0000
0020
0033
1001
0000
0100
1000
0100
0000
0000
0000
0110
0000
0000
0000
,
2000
3020
0032
0023
2030
0000
3001
0000
,
2000
0000
0200
3300
1001
0000
0010
0001
0010
0000
0000
0000
0110
0000
0000
0000
,
0002
0203
2300
3200
0302
0000
1003
0000
,
0200
0000
1300
0100
0020
0000
0031
0010
2000
0000
3010
0100
0002
0000
0103
0010
,
0002
0000
0013
0100
2000
0000
3010
0100
0000
0000
0001
1000
0001
1000
0000
0020
,
0000
0000
0000
0030
0001
0000
1000
0010
0001
0000
0010
0000
0100
0100
0000
0000
,
2000
0000
3020
0000
0032
0000
0023
0000
2030
0000
0000
0002
0000
0000
3003
0000
,
0010
0000
0001
0000
0010
0000
1000
0010
0000
0100
0010
0000
0000
0000
0000
0000
,
0001
0100
0100
1000
0100
0100
0001
0100
0100
1000
0100
0000
,
2020
0000
0030
3010
1000
0000
0000
0001
0000
0100
0000
1000
0000
0100
0000
0000
,
0022
0000
0030
0013
0001
0000
0000
0001
0000
0010
0000
1000
0000
0000
0000
0000
,
0022
0000
0030
1003
0100
0000
0000
0000
2020
0000
0030
3001
0100
0000
0000
0000
,
2200
0000
3000
1300
0100
0000
0000
1000
0000
0100
0000
0001
0000
0010
0000
0000
,
0202
0000
0003
0301
0100
0000
0000
0001
0000
0010
0000
1000
0000
0000
0000
0000
,
2020
0000
3000
0130
0001
0000
0000
0000
0022
0000
0003
0130
1000
0000
0000
0000
,
2002
0000
0003
3010
0100
0000
0000
0000
1000
0100
0010
0001
0010
0000
0001
0010
,
0100
0000
1000
0000
0100
0000
1000
0000
0000
0100
0000
0000
0010
0000
0000
0001
0000
0000
0100
0000
0000
0001
0000
0000
0000
0000
0000
0001
0000
0000
0100
0000
0000
1000
0000
0000
0100
0000
0000
0001
0000
0000
0000
0000
0000
0000
0000
0000
,
2000
3100
0012
0103
2010
3100
0012
0103
,
2100
3010
0102
0013
1100
0010
0101
0210
,
0010
0010
0010
0010
0010
0010
0310
0000
0010
0000
0000
1000
0010
0000
0100
0000
,
0001
0010
0000
1000
0010
0000
0100
0000
0010
0000
0001
0010
0000
0100
0000
1000
,
0010
0000
0001
0000
0010
0100
0000
0001
0100
0010
1000
0000
0020
0000
0000
0130
,
0000
0000
0001
0010
1000
0000
0010
0100
0000
1000
0100
0001
0000
0100
0010
0100
,
0020
0000
0030
0000
1001
0000
1001
0000
1000
0000
0100
0000
0010
0001
0000
0010
,
0000
0100
0000
1000
0010
0000
1001
0000
0001
0000
0100
0000
0010
1000
0000
0000
,
0010
0000
0100
0001
0010
0001
0000
1000
0000
0000
0100
1000
0100
1000
0000
1010
,
0000
0000
0100
0001
0100
0001
0010
0100
1000
0000
0001
0100
0010
1000
0000
0001
,
0000
1000
0001
1000
0001
0010
0100
1000
0001
0010
0000
0011
0000
0000
0011
0000
,
1000
0010
0000
1010
0000
0000
1010
0000
1000
0100
0000
1100
0000
0000
1100
0000
,
0001
0100
0000
0101
0000
0000
0101
0000
0001
0010
0000
0100
1000
0000
0110
0000
,
2000
0000
0000
3001
0000
0000
1001
0000
0001
0100
0000
0010
1000
0010
0000
0100
,
1000
0100
0000
0001
0010
0001
0000
1000
0000
0000
0000
0100
0001
0000
0110
0000
,
1001
0000
0000
0100
1000
0000
0110
0000
1001
0000
0000
1000
0100
0000
0010
0001
,
0000
0001
0100
0000
0010
1000
0001
1000
0001
0000
0000
1000
0100
0000
1000
0001
,
0020
1000
0100
0001
0100
1000
0130
0010
,
0001
1000
0001
1000
0001
1000
0001
0000
1000
0100
0000
0000
0000
0000
0001
0100
,
0000
0000
0000
0000
0010
0100
0000
0000
1002
0000
0000
0000
0000
0000
0000
0000
,
0100
0000
0000
0000
0000
0000
0000
0000
0000
0000
0000
0000
0000
0000
0000
0100
0000
0000
0000
0000
0000
0000
0000
0000
0000
0000
0000
0000
0000
0000
0100
0000
,
0000
0000
0000
0000
0000
0000
0000
0000
0000
0000
0000
0000
0000
0103
0000
0000
0000
0000
0000
0000
0000
0000
0000
0000
0000
0000
0000
0000
0000
0000
0000
0000
;

//---------------dance-single - ----------------
#NOTEDATA:;
#CHARTNAME:;
#STEPSTYPE:dance-single;
#DESCRIPTION:;
#CHARTSTYLE:;
#DIFFICULTY:Medium;
#METER:5;
#RADARVALUES:0.373703,0.444536,0.111134,0.256463,0.089762,306.000000,293.000000,13.000000,30.000000,0.000000,0.000000,0.000000,42.000000,0.000000,0.373703,0.444536,0.111134,0.256463,0.089762,306.000000,293.000000,13.000000,30.000000,0.000000,0.000000,0.000000,42.000000,0.000000;
#CREDIT:;
#NOTES:
0000
0000
0000
0000
,
0000
0000
0000
0000
,
0000
0000
0000
0000
,
0000
0000
0000
0000
0000
1000
0100
0010
,
0002
0000
0003
000L
0001
0000
0000
0000
0100
0000
0010
0000
0100
0000
0000
0000
,
2000
0000
3000
L000
1000
0000
0000
0000
0100
0000
0010
0000
0100
0000
0000
0000
,
0020
0000
0030
00L0
0010
0000
0000
0000
0200
0000
0300
0L00
0100
0000
0000
0000
,
2000
0000
3000
L000
1000
0000
0000
0000
0010
0000
0100
0000
0010
0000
0000
0000
,
0002
0000
0003
000L
0001
0000
0000
0000
0100
0000
0010
0000
0100
0000
0000
0000
,
0020
0000
0030
00L0
1000
0000
0000
0000
0200
0000
0300
0L00
0001
0000
0000
0000
,
2000
0000
3000
L000
0001
0000
0000
0000
1000
0000
0100
0000
0010
0000
0001
0000
,
1000
0000
0001
0010
0100
1000
0001
0000
,
1000
0100
0001
0100
2000
3000
L000
0000
,
0001
0100
1000
0100
0002
0003
000L
0000
,
1000
0100
0010
1000
0020
0030
00L0
0000
,
0001
0010
0100
0001
0200
0300
0L00
0000
,
1000
L000
0010
00L0
0001
000L
0010
00L0
,
1000
L000
0010
00L0
0002
0000
0103
0010
,
1000
0100
0010
0001
0200
0300
0L00
0000
,
0001
0010
0100
1000
0020
0030
00L0
0000
,
1000
0100
0010
0001
0001
0100
0010
1000
,
0201
000L
1000
L000
0001
000L
1300
0000
,
0020
0000
0030
00L0
0010
0000
0000
0000
1000
0000
0001
0000
0010
0000
0000
0000
,
0200
0000
0300
0L00
0100
0000
0000
0000
0001
0000
1000
0000
0100
0000
0000
0000
,
2000
0000
3000
L000
1000
0000
0000
0000
0002
0000
0003
000L
0001
0000
0000
0000
,
0200
0000
0300
0L00
1000
0000
0000
0000
0001
0000
1000
0000
0100
0000
0000
0000
,
0020
0000
0030
00L0
0001
0000
0000
0000
1000
0000
0001
0000
0010
0000
0000
0000
,
2200
0000
3300
LL00
0011
0000
0000
0000
0202
0000
0303
0L0L
1010
0000
0000
0000
,
0002
0000
0003
000L
1000
0000
0000
0000
1000
0000
0100
0000
0010
0000
0001
0000
,
0100
0001
0010
0100
1000
0001
1000
0001
,
0010
00L0
0001
000L
0100
0L00
0001
000L
,
0010
00L0
1000
L000
0100
0L00
1000
0020
,
0000
0100
0000
0100
0000
0130
0000
0000
0100
0000
0000
0000
0010
0000
1000
0000
,
0010
0001
0010
0000
0100
0001
0100
1000
,
0100
0000
1001
0000
1000
0100
0010
1000
,
0010
0100
1000
0000
0001
0100
0010
0001
,
0010
0000
1100
0000
1000
0100
0001
0100
,
0010
0001
1000
0000
0001
0100
1000
0100
,
0010
1000
0001
0000
0001
0010
1000
0010
,
0100
1000
0001
0000
1000
0010
0001
0010
,
0100
0001
1000
0000
1000
0100
1000
0000
,
0001
0100
0001
0000
1000
0010
0001
0000
,
0001
0010
1000
0000
0001
0010
0001
0000
,
1000
0010
1000
0000
0001
0100
1000
0000
,
1000
0100
0001
0000
1000
0100
0010
0000
,
0001
0010
1000
0000
0001
0010
0100
0000
,
1000
0100
0001
0000
0100
1000
0010
0000
,
0100
0001
0010
0000
0001
1000
0100
0000
,
0010
1000
0001
0000
1100
0000
0000
0101
,
0000
1100
0201
0000
,
0000
0000
0000
0000
,
0000
0000
0000
0000
,
0300
0000
0000
0000
;
