#TITLE:I LOVE HORSES;
#SUBTITLE:;
#ARTIST:McMaNGOS;
#TITLETRANSLIT:;
#SUBTITLETRANSLIT:;
#ARTISTTRANSLIT:;
#CREDIT:;
#BANNER:I LOVE HORSES.png;
#BACKGROUND:I LOVE HORSES-bg.png;
#LYRICSPATH:;
#CDTITLE:;
#MUSIC:I LOVE HORSES.mp3;
#OFFSET:-5.370;
#SAMPLESTART:0.020;
#SAMPLELENGTH:10.690;
#SELECTABLE:YES;
#DISPLAYBPM:180.000;
#BPMS:0.000=180.000,76.000=162.000,76.500=147.000,77.000=127.000,77.500=106.000,78.000=103.000,78.500=93.000,79.000=71.000,80.000=114.000,80.750=134.000,81.500=172.000,82.500=226.000,83.500=335.999,85.000=583.996,87.000=621.995,91.000=63.000,92.000=65.500,99.000=203.500,100.000=180.000,210.000=185.000,211.000=186.000,228.000=193.000,229.000=180.000,232.000=211.000,233.000=184.000,241.000=186.000,246.000=165.000,246.333=180.000,248.333=151.000,249.000=181.000,257.000=191.000,260.000=186.000,264.000=208.000,265.000=134.000,265.500=109.000,266.000=125.000,266.500=156.000,267.000=120.000,267.500=106.000,268.000=131.000,268.500=154.000,269.000=104.000,269.500=121.000,270.000=111.000,271.000=148.000,272.000=264.000,274.000=241.000,278.000=415.998,284.000=179.999;
#STOPS:;
#BGCHANGES:92.000=whitney-1.png=1.000=0=0=1,
96.000=whitney-2.png=1.000=0=0=1,
100.000=I LOVE HORSES-bg.png=1.000=0=0=1,
163.000=woo.PNG=1.000=0=0=1,
164.000=I LOVE HORSES-bg.png=1.000=0=0=1,
165.000=woo.PNG=1.000=0=0=1,
166.000=I LOVE HORSES-bg.png=1.000=0=0=1,
167.000=woo.PNG=1.000=0=0=1,
168.000=I LOVE HORSES-bg.png=1.000=0=0=1,
169.000=woo.PNG=1.000=0=0=1,
170.000=I LOVE HORSES-bg.png=1.000=0=0=1,
171.000=woo.PNG=1.000=0=0=1,
172.000=I LOVE HORSES-bg.png=1.000=0=0=1,
173.000=woo.PNG=1.000=0=0=1,
174.000=I LOVE HORSES-bg.png=1.000=0=0=1,
175.000=woo.PNG=1.000=0=0=1,
176.000=I LOVE HORSES-bg.png=1.000=0=0=1,
177.000=woo.PNG=1.000=0=0=1,
178.000=I LOVE HORSES-bg.png=1.000=0=0=1,
179.000=woo.PNG=1.000=0=0=1,
180.000=I LOVE HORSES-bg.png=1.000=0=0=1,
181.000=woo.PNG=1.000=0=0=1,
182.000=I LOVE HORSES-bg.png=1.000=0=0=1,
183.000=woo.PNG=1.000=0=0=1,
184.000=I LOVE HORSES-bg.png=1.000=0=0=1,
185.000=woo.PNG=1.000=0=0=1,
186.000=I LOVE HORSES-bg.png=1.000=0=0=1,
187.000=woo.PNG=1.000=0=0=1,
188.000=I LOVE HORSES-bg.png=1.000=0=0=1,
189.000=woo.PNG=1.000=0=0=1,
190.000=I LOVE HORSES-bg.png=1.000=0=0=1,
191.000=woo.PNG=1.000=0=0=1,
192.000=I LOVE HORSES-bg.png=1.000=0=0=1,
193.000=woo.PNG=1.000=0=0=1,
194.000=I LOVE HORSES-bg.png=1.000=0=0=1,
195.000=minaj-1.PNG=1.000=0=0=1,
196.000=woo.PNG=1.200=0=0=1,
196.500=minaj-1.PNG=1.000=0=0=1,
197.000=I LOVE HORSES-bg.png=1.000=0=0=1,
198.000=woo.PNG=1.000=0=0=1,
199.000=minaj-1.PNG=1.000=0=0=1,
200.000=woo.PNG=1.000=0=0=1,
200.500=minaj-1.PNG=1.000=0=0=1,
201.000=I LOVE HORSES-bg.png=1.000=0=0=1,
202.000=woo.PNG=1.000=0=0=1,
203.000=minaj-1.PNG=1.000=0=0=1,
204.000=woo.PNG=1.000=0=0=1,
204.500=minaj-1.PNG=1.000=0=0=1,
205.000=I LOVE HORSES-bg.png=1.000=0=0=1,
206.000=woo.PNG=1.000=0=0=1,
207.000=minaj-2.png=1.000=0=0=1,
208.000=woo.PNG=1.000=0=0=1,
208.500=minaj-2.png=1.000=0=0=1,
209.000=I LOVE HORSES-bg.png=1.000=0=0=1,
211.000=green-day-1.png=1.000=0=0=1,
217.000=I LOVE HORSES-bg.png=1.000=0=0=1,
218.000=green-day-1.png=1.000=0=0=1,
227.000=green-day-2.png=1.000=0=0=1,
229.000=I LOVE HORSES-bg.png=1.000=0=0=1,
232.000=green-day-2.png=1.000=0=0=1,
241.000=green-day-3.png=1.000=0=0=1,
246.333=I LOVE HORSES-bg.png=1.000=0=0=1,
248.333=green-day-3.png=1.000=0=0=1,
257.000=green-day-1.png=1.000=0=0=1,
261.500=green-day-4.PNG=1.000=0=0=1,
274.000=green-day-1.png=1.000=0=0=1,
274.500=woo.PNG=1.000=0=0=1,
275.000=green-day-1.png=1.000=0=0=1,
275.500=woo.PNG=1.000=0=0=1,
276.000=green-day-1.png=1.000=0=0=1,
276.500=woo.PNG=1.000=0=0=1,
277.000=green-day-1.png=1.000=0=0=1,
277.500=woo.PNG=1.000=0=0=1,
278.000=green-day-3.png=1.000=0=0=1,
278.500=woo.PNG=1.000=0=0=1,
279.000=green-day-3.png=1.000=0=0=1,
279.500=woo.PNG=1.000=0=0=1,
280.000=green-day-3.png=1.000=0=0=1,
280.500=woo.PNG=1.000=0=0=1,
281.000=green-day-3.png=1.000=0=0=1,
281.500=woo.PNG=1.000=0=0=1,
282.000=green-day-3.png=1.000=0=0=1,
282.500=woo.PNG=1.000=0=0=1,
283.000=green-day-3.png=1.000=0=0=1,
283.500=woo.PNG=1.000=0=0=1,
284.000=I LOVE HORSES-bg.png=1.000=0=0=1,
285.000=green-day-1.png=1.000=0=0=1,
286.000=I LOVE HORSES-bg.png=1.000=0=0=1,
287.000=green-day-1.png=1.000=0=0=1,
288.000=I LOVE HORSES-bg.png=1.000=0=0=1,
289.000=green-day-1.png=1.000=0=0=1,
290.000=I LOVE HORSES-bg.png=1.000=0=0=1,
291.000=green-day-1.png=1.000=0=0=1,
292.000=I LOVE HORSES-bg.png=1.000=0=0=1,
293.000=green-day-3.png=1.000=0=0=1,
294.000=I LOVE HORSES-bg.png=1.000=0=0=1,
295.000=green-day-3.png=1.000=0=0=1,
296.000=I LOVE HORSES-bg.png=1.000=0=0=1,
297.000=green-day-3.png=1.000=0=0=1,
298.000=I LOVE HORSES-bg.png=1.000=0=0=1,
299.000=green-day-3.png=1.000=0=0=1,
300.000=I LOVE HORSES-bg.png=1.000=0=0=1,
301.000=green-day-1.png=1.000=0=0=1,
302.000=I LOVE HORSES-bg.png=1.000=0=0=1,
303.000=green-day-1.png=1.000=0=0=1,
304.000=I LOVE HORSES-bg.png=1.000=0=0=1,
305.000=green-day-1.png=1.000=0=0=1,
306.000=I LOVE HORSES-bg.png=1.000=0=0=1,
307.000=green-day-1.png=1.000=0=0=1,
308.000=I LOVE HORSES-bg.png=1.000=0=0=1,
309.000=green-day-3.png=1.000=0=0=1,
310.000=I LOVE HORSES-bg.png=1.000=0=0=1,
311.000=green-day-3.png=1.000=0=0=1,
312.000=I LOVE HORSES-bg.png=1.000=0=0=1,
313.000=green-day-3.png=1.000=0=0=1,
314.000=I LOVE HORSES-bg.png=1.000=0=0=1,
315.000=green-day-3.png=1.000=0=0=1,
316.000=I LOVE HORSES-bg.png=1.000=0=0=1,
317.000=minaj-1.PNG=1.000=0=0=1,
318.000=I LOVE HORSES-bg.png=1.000=0=0=1,
319.000=minaj-1.PNG=1.000=0=0=1,
320.000=I LOVE HORSES-bg.png=1.000=0=0=1,
321.000=minaj-1.PNG=1.000=0=0=1,
322.000=I LOVE HORSES-bg.png=1.000=0=0=1,
323.000=minaj-1.PNG=1.000=0=0=1,
324.000=I LOVE HORSES-bg.png=1.000=0=0=1,
325.000=minaj-1.PNG=1.000=0=0=1,
326.000=I LOVE HORSES-bg.png=1.000=0=0=1,
327.000=minaj-1.PNG=1.000=0=0=1,
328.000=I LOVE HORSES-bg.png=1.000=0=0=1,
328.750=minaj-2.png=1.000=0=0=1,
329.500=I LOVE HORSES-bg.png=1.000=0=0=1,
99999=-nosongbg-=1.000=0=0=0 // don't automatically add -songbackground-
;

//---------------dance-single - ----------------
#NOTES:
     dance-single:
     :
     Hard:
     9:
     0.700,0.718,0.689,0.332,0.075: // measure 1
1000
0100
1000
0000
0001
0100
0001
0000
,  // measure 2
1000
0100
0010
0001
0100
0010
1000
0000
,  // measure 3
0001
0100
0001
0000
1000
0100
1000
0000
,  // measure 4
0001
0000
0000
1000
0000
0000
0001
0000
0010
0000
0000
0000
1100
0000
0000
0000
,  // measure 5
1001
0000
0001
0201
0000
0310
0100
1000
,  // measure 6
0100
0010
1000
0100
0010
0001
2000
0000
,  // measure 7
3001
0000
0101
0200
0000
0310
1000
0100
,  // measure 8
0010
0000
0000
0011
0000
0000
1001
0000
0000
0000
1000
0000
0100
0000
0000
0000
,  // measure 9
1000
0100
1000
0100
0001
0100
0001
0100
,  // measure 10
0010
0001
0100
0010
1000
0010
0100
0000
,  // measure 11
0001
0100
0001
0100
1000
0100
1000
0100
,  // measure 12
0010
0000
0000
1000
0000
0000
0001
0000
0000
0000
0000
0000
1000
0001
1000
0001
,  // measure 13
1000
0100
1000
0001
0100
0001
0101
0000
,  // measure 14
0001
0100
0010
0100
0010
1000
1001
0000
,  // measure 15
0001
0010
0001
1000
0100
1000
1100
0000
,  // measure 16
0011
0000
0000
1100
0000
0000
1001
0000
0000
0000
0010
0000
0100
0000
0010
0000
,  // measure 17
1000
0100
0001
0100
1000
0100
0010
0100
,  // measure 18
1000
0010
0100
1000
0100
0010
0100
0001
,  // measure 19
1000
0001
0010
0100
0001
0100
1000
0001
,  // measure 20
0200
0320
2030
0002
,  // measure 21
0000
0000
0000
0000
,  // measure 22
0000
0000
0000
0000
,  // measure 23
0000
0000
0000
3003
,  // measure 24
0201
0000
0000
0000
1000
0000
0000
0000
0010
0000
0000
0000
0301
0000
1000
0100
,  // measure 25
0020
0000
0000
0000
0031
0000
0100
0000
0010
0000
1000
0010
0100
0000
0000
0000
,  // measure 26
1001
0000
0101
0000
0110
0000
1000
0100
,  // measure 27
0010
0001
0100
0010
1000
0000
0101
0001
,  // measure 28
1000
0000
0100
0000
1000
0000
0001
0000
0010
0000
0000
0000
0101
0000
0000
1010
,  // measure 29
0000
0102
0000
1000
1003
0000
0101
0000
,  // measure 30
1100
0000
0011
0000
1010
0000
0001
1000
,  // measure 31
0100
0010
0100
1000
0001
0000
0011
0000
,  // measure 32
1010
0000
0000
0000
0101
0000
0000
0000
1100
0000
0000
0000
1000
0000
0000
0100
,  // measure 33
0010
0001
1000
0000
0110
0000
1001
0001
,  // measure 34
0100
0100
0010
0100
0001
0100
1000
0100
,  // measure 35
0010
0100
0001
0010
0100
1000
0100
0100
,  // measure 36
1000
1000
0010
1000
0001
1000
0100
1000
,  // measure 37
0010
1000
0100
0010
0001
0100
1010
0000
,  // measure 38
0101
0000
0000
0000
1001
0000
0000
0001
0000
1000
0001
0000
0110
0000
0110
0000
,  // measure 39
0110
0000
0000
0000
1010
0000
0000
1100
0000
0000
0011
0000
1001
0000
0000
0000
,  // measure 40
0011
0000
0000
0000
1001
0000
0000
0000
1010
0000
0010
0000
1000
0100
1000
0000
,  // measure 41
0001
0010
0100
0010
0001
1000
0002
0000
,  // measure 42
0103
0010
2000
0000
3100
0010
0002
0000
,  // measure 43
0103
0010
1000
0100
0010
0000
0200
0000
,  // measure 44
0310
0001
0200
0000
0310
1000
0002
0000
,  // measure 45
1003
0100
0010
0001
0100
0010
2000
0000
,  // measure 46
3010
0100
0020
0000
1030
0001
0020
0000
,  // measure 47
0031
0100
0010
1000
0100
0001
0200
0000
,  // measure 48
0310
0001
2000
0000
3001
0100
0020
0000
,  // measure 49
1030
0010
0100
0001
0100
0000
0001
1000
,  // measure 50
0001
1000
0110
0000
0001
0000
1000
0001
,  // measure 51
1000
0001
0110
0000
1000
0000
0001
0100
,  // measure 52
0010
1000
0101
0000
0001
0000
0010
0001
,  // measure 53
1000
0100
0011
0000
0110
0000
1002
0000
,  // measure 54
1000
1000
1000
1000
,  // measure 55
2000
0000
3003
0000
0110
0000
0001
0100
,  // measure 56
0010
2000
0000
3001
0010
0200
0000
0310
,  // measure 57
0001
0000
0011
0000
1100
0000
1000
0001
,  // measure 58
0100
0010
1010
0000
0101
0000
2002
0000
,  // measure 59
3003
0000
1000
0100
0010
0200
0000
0310
,  // measure 60
0001
0200
0000
0310
1000
0000
0101
0000
,  // measure 61
1001
2010
0010
0010
,  // measure 62
0010
0000
0000
0020
0000
0000
3030
1001
0000
0000
0110
0000
,  // measure 63
0000
0000
1001
0000
0000
0000
1000
0000
0000
0100
0000
0000
1000
0000
0000
0002
0000
0000
0000
0000
0000
0103
0000
0000
,  // measure 64
0001
2000
0000
3010
0100
0001
0010
0000
,  // measure 65
2200
3300
0000
0000
,  // measure 66
0000
0000
0000
1001
0000
0001
0100
0010
,  // measure 67
1001
0000
1000
0100
0010
0002
0000
0103
,  // measure 68
0010
2000
0000
3001
1000
0000
0220
0000
,  // measure 69
0000
0000
0000
0000
,  // measure 70
0000
0000
0000
0000
,  // measure 71
0000
0000
0000
0330
,  // measure 72
1000
0100
0001
0100
1000
0100
0001
0100
,  // measure 73
1000
0010
0100
0001
0100
0010
1001
0000
,  // measure 74
0011
0011
0101
0101
,  // measure 75
1010
1010
1100
1100
,  // measure 76
1000
0010
0001
0010
0100
0001
1000
0100
,  // measure 77
0001
0100
1000
0001
0100
0010
1000
0000
,  // measure 78
0001
0001
0001
0001
1000
1000
1000
1000
,  // measure 79
0010
0010
0010
0010
0110
0000
1001
0000
,  // measure 80
1000
0100
0100
0100
0010
0001
1000
0001
,  // measure 81
0100
0010
1000
0010
0100
0001
1000
0001
,  // measure 82
1100
0011
0101
1010
,  // measure 83
0110
0000
0000
1001
0000
0000
0110
0000
0000
0000
0000
0000
0000
0000
0000
0000
;

//---------------dance-single - ----------------
#NOTES:
     dance-single:
     :
     Medium:
     7:
     0.549,0.615,0.598,0.257,0.042: // measure 1
1000
0100
0001
0100
,  // measure 2
1000
0001
1000
0000
0001
0100
0001
0000
,  // measure 3
1000
0010
0001
0010
,  // measure 4
0100
0000
0010
0000
1000
0010
1000
0000
,  // measure 5
0001
0010
0001
1000
,  // measure 6
0010
1000
0010
0000
0100
0001
0100
0000
,  // measure 7
0001
1000
0100
1000
,  // measure 8
0001
0000
0000
0001
0000
0000
0002
0000
0000
0000
0000
0000
0003
0000
0000
0000
,  // measure 9
1000
0010
0100
0000
0010
0100
0001
0000
,  // measure 10
1000
0000
0001
0000
0010
0001
0100
0000
,  // measure 11
0001
0100
0010
0000
1000
0001
1000
0000
,  // measure 12
0100
0000
0000
0100
0000
0000
0200
0000
0000
0000
0000
0000
0310
0000
0001
0000
,  // measure 13
1000
0000
1000
0000
0001
0100
0001
0000
,  // measure 14
0101
0000
1001
0000
1000
0001
1000
0000
,  // measure 15
0110
0000
1001
0000
0100
0001
0100
0000
,  // measure 16
0010
0000
0000
1000
0000
0000
0002
0000
0000
0000
0000
0000
1003
0000
0000
0000
,  // measure 17
0110
1010
1001
0011
,  // measure 18
0010
0001
0100
0000
0010
1000
0001
0000
,  // measure 19
1001
1010
1100
1001
,  // measure 20
0020
0230
0302
2000
,  // measure 21
0000
0000
0000
0000
,  // measure 22
0000
0000
0000
0000
,  // measure 23
0000
0000
0000
3003
,  // measure 24
1002
0000
1000
0000
0100
0000
0103
0001
,  // measure 25
2000
0000
3010
1000
0001
0000
1000
0000
,  // measure 26
1001
0000
0110
0000
1001
0000
0001
0100
,  // measure 27
0001
0100
0001
0000
1000
0000
0011
0000
,  // measure 28
0011
0000
0000
0000
1100
0000
0000
0000
1100
0000
0000
0000
1000
0000
0000
0001
,  // measure 29
0000
0200
0000
0000
0300
0000
1010
0000
,  // measure 30
1010
0000
0101
0000
0101
0000
0001
1000
,  // measure 31
0001
1000
0100
0000
0010
0000
0011
0000
,  // measure 32
0011
0000
0000
0000
1100
0000
0000
0000
1100
0000
0000
0000
0001
0000
0000
1000
,  // measure 33
0000
0002
0000
0000
0103
0000
2001
0000
,  // measure 34
0000
0010
0000
0001
0000
0010
0000
0001
,  // measure 35
0000
0100
0000
3001
0000
1000
0002
1000
,  // measure 36
0000
0100
0000
0100
0000
0010
0000
0010
,  // measure 37
0000
1000
0000
0010
0000
1003
0100
0000
,  // measure 38
0011
0000
1100
0000
1001
0000
0001
1000
,  // measure 39
0100
0000
0000
0000
0010
0000
0000
0001
0000
0000
2000
0000
0100
0000
0000
0000
,  // measure 40
0100
0000
0100
0000
3100
1000
0100
0010
,  // measure 41
0001
1000
0001
0000
1000
0000
0001
0100
,  // measure 42
0001
0000
1000
0100
1000
0000
0001
0010
,  // measure 43
0001
0000
1000
0010
1000
0000
0010
0100
,  // measure 44
0001
0000
0010
0100
1000
0000
0001
0010
,  // measure 45
0001
0010
0100
1000
0100
0000
1000
0010
,  // measure 46
1000
0000
0001
0100
1000
0000
0001
0010
,  // measure 47
0001
0000
1000
0100
0001
0000
0100
0010
,  // measure 48
0001
0000
0100
0010
1000
0000
0001
1000
,  // measure 49
0001
1000
0010
0100
0010
0000
1010
0000
,  // measure 50
0101
2002
3003
0011
,  // measure 51
1100
2002
3003
0110
,  // measure 52
1001
0220
0330
1010
,  // measure 53
0101
2002
3003
0210
,  // measure 54
0010
0010
0010
0010
,  // measure 55
0020
0330
0110
0001
,  // measure 56
1000
0100
0000
0100
1000
0000
0001
0000
,  // measure 57
0100
0001
0020
0100
,  // measure 58
0100
0130
0110
2002
,  // measure 59
3003
0000
0001
0000
1000
0001
0000
0001
,  // measure 60
1000
0001
0100
0010
,  // measure 61
1000
1002
1000
1000
,  // measure 62
1000
0000
0000
1003
0000
0000
0000
0110
0000
0000
0110
0000
,  // measure 63
0000
0000
0110
0000
0000
0000
1000
0000
0000
0000
0000
0000
0001
0000
0000
0100
0000
0000
0000
0000
0000
0100
0000
0000
,  // measure 64
0001
1000
0100
0010
,  // measure 65
0002
1003
0000
0000
,  // measure 66
0000
0000
0000
1001
0000
0000
0001
0000
,  // measure 67
0101
0000
0001
0000
1000
0001
0000
0001
,  // measure 68
1000
0010
0000
0010
0100
0000
2002
0000
,  // measure 69
3003
0000
0000
0000
,  // measure 70
0000
0000
0000
0000
,  // measure 71
0000
0000
0000
0000
,  // measure 72
1100
1100
0011
0011
,  // measure 73
0001
1000
0001
0000
0100
0010
0100
0000
,  // measure 74
0110
1001
0110
1001
,  // measure 75
0001
0010
0001
0000
1000
0010
0100
0000
,  // measure 76
0101
1010
1100
0011
,  // measure 77
0010
0001
1000
0000
0001
0100
0010
0000
,  // measure 78
1010
0101
0011
1100
,  // measure 79
1000
0001
1000
0001
0010
0000
0100
0000
,  // measure 80
0010
0001
0100
0000
0010
1000
0001
0000
,  // measure 81
1000
0100
0010
0001
0100
0000
0001
0000
,  // measure 82
1000
0010
1000
0000
0001
0100
0001
0000
,  // measure 83
0100
0000
0000
0010
0000
0000
0110
0000
0000
0000
0000
0000
0000
0000
0000
0000
;

//---------------dance-single - ----------------
#NOTES:
     dance-single:
     :
     Easy:
     5:
     0.357,0.410,0.199,0.149,0.008: // measure 1
1000
0100
1000
0001
,  // measure 2
0100
0010
0100
0000
,  // measure 3
0001
0010
0001
1000
,  // measure 4
0001
1000
0110
0000
,  // measure 5
0010
1000
0100
0010
,  // measure 6
0001
0100
0010
0000
,  // measure 7
0001
0100
0001
1000
,  // measure 8
0100
0010
0001
0000
,  // measure 9
1000
1000
0100
0100
,  // measure 10
1000
1000
0001
0001
,  // measure 11
0100
0100
0001
0001
,  // measure 12
0100
0010
1000
0000
,  // measure 13
0001
1000
0001
1000
,  // measure 14
0001
0100
0010
0100
,  // measure 15
1000
0100
0010
0100
,  // measure 16
0001
0010
0100
0000
,  // measure 17
0010
0001
1000
0100
,  // measure 18
0001
0100
1000
0001
,  // measure 19
1000
0010
0100
0001
,  // measure 20
2002
0000
0000
0000
,  // measure 21
0000
0000
0000
0000
,  // measure 22
0000
0000
0000
0000
,  // measure 23
0000
0000
0000
3003
,  // measure 24
1001
0000
0001
0100
,  // measure 25
0001
0000
1000
1000
,  // measure 26
1000
0001
0100
0001
,  // measure 27
1000
0100
0010
0100
,  // measure 28
0100
0010
0010
0001
,  // measure 29
1000
0001
0000
1000
,  // measure 30
0010
0100
0001
0100
,  // measure 31
1000
0100
0001
0010
,  // measure 32
0001
0100
0010
1000
,  // measure 33
0100
1000
0000
1001
,  // measure 34
0001
1001
1000
0010
,  // measure 35
0100
0001
0100
0110
,  // measure 36
0010
0110
0100
0001
,  // measure 37
1000
0100
0010
1001
,  // measure 38
0100
1001
0010
1000
,  // measure 39
0010
0100
0001
0110
,  // measure 40
1000
0110
0001
1000
,  // measure 41
0100
1000
0001
1000
,  // measure 42
1000
0100
0100
0001
,  // measure 43
0001
0100
0100
0010
,  // measure 44
0001
0100
1000
0100
,  // measure 45
0010
1000
0001
0100
,  // measure 46
0100
1000
1000
0100
,  // measure 47
0100
0010
0010
1000
,  // measure 48
0010
1000
0001
0100
,  // measure 49
0001
0010
0001
1000
,  // measure 50
0100
1100
1000
0001
,  // measure 51
0100
0101
0001
1000
,  // measure 52
0001
1001
1000
0100
,  // measure 53
0010
0220
0330
2002
,  // measure 54
0000
0000
0000
0000
,  // measure 55
0000
3003
1001
0001
,  // measure 56
0100
0001
1000
0100
,  // measure 57
1000
0010
0200
0300
,  // measure 58
0000
0110
0110
2002
,  // measure 59
3003
0001
0000
1000
,  // measure 60
0000
0001
0100
0010
,  // measure 61
2000
3000
0000
0000
,  // measure 62
0000
0000
0000
0000
0000
0000
0000
1001
0000
0000
2002
0000
,  // measure 63
0000
3003
0000
0001
0000
0000
0000
0000
0000
1000
0000
0000
,  // measure 64
0000
0001
0010
0001
,  // measure 65
1000
0002
0000
0000
,  // measure 66
0000
0000
0000
0003
0000
0000
1000
0000
,  // measure 67
2002
3003
0000
0001
,  // measure 68
0000
1000
0000
0020
,  // measure 69
0030
0000
0000
0000
,  // measure 70
0000
0000
0000
0000
,  // measure 71
0000
0000
0000
0000
,  // measure 72
0100
0000
0001
0000
,  // measure 73
1000
0000
0001
0000
,  // measure 74
1000
0001
1000
0100
,  // measure 75
0010
0001
0100
0010
,  // measure 76
1000
1000
0001
0001
,  // measure 77
0100
0001
0100
0001
,  // measure 78
1000
0100
0001
0100
,  // measure 79
1000
0001
0100
1000
,  // measure 80
0100
0100
0010
0010
,  // measure 81
1000
0010
1000
0001
,  // measure 82
0100
0001
1000
0100
,  // measure 83
0220
0000
0000
0330
0000
0000
0000
0000
;

//---------------dance-single - ----------------
#NOTES:
     dance-single:
     :
     Beginner:
     3:
     0.164,0.204,0.033,0.000,0.000: // measure 1
1000
0000
0100
0000
,  // measure 2
1000
0000
1000
0000
,  // measure 3
0001
0000
0100
0000
,  // measure 4
0001
0000
0000
0000
,  // measure 5
1000
0000
0001
0000
,  // measure 6
0010
0000
0010
0000
,  // measure 7
0100
0000
0010
0000
,  // measure 8
0001
0000
0000
0000
,  // measure 9
1000
0000
0100
0000
,  // measure 10
0010
0000
0001
0000
,  // measure 11
0100
0000
0010
0000
,  // measure 12
1000
0000
0001
0000
,  // measure 13
1000
0000
0001
0000
,  // measure 14
0100
0000
0010
0000
,  // measure 15
0100
0000
0001
0000
,  // measure 16
1000
0000
0000
0000
,  // measure 17
0001
0000
0001
0000
,  // measure 18
0010
0000
0010
0000
,  // measure 19
0001
0000
1000
0000
,  // measure 20
1001
0000
0000
0000
,  // measure 21
0000
0000
0000
0000
,  // measure 22
0000
0000
0000
0000
,  // measure 23
0000
0000
0000
0000
,  // measure 24
0001
0000
0000
0000
,  // measure 25
1000
0000
0001
0000
,  // measure 26
0000
0000
0000
0001
,  // measure 27
0000
1000
0000
0100
,  // measure 28
0000
0100
0000
0010
,  // measure 29
0000
0001
0000
1000
,  // measure 30
0000
0001
0000
0100
,  // measure 31
0000
0100
0000
0010
,  // measure 32
0010
0010
0010
0010
,  // measure 33
0000
0000
0000
0100
,  // measure 34
0000
0001
0000
1000
,  // measure 35
0000
0001
0000
0010
,  // measure 36
0000
0100
0000
0010
,  // measure 37
0000
0000
0000
0001
,  // measure 38
0000
0010
0000
0001
,  // measure 39
0000
1000
0000
0100
,  // measure 40
0000
1000
0000
0001
,  // measure 41
0000
0000
0000
1000
,  // measure 42
0000
0001
0000
1000
,  // measure 43
0000
0001
0000
0100
,  // measure 44
0000
0010
0000
0100
,  // measure 45
0000
0010
0000
1000
,  // measure 46
0000
0010
0000
0100
,  // measure 47
0000
0001
0000
1000
,  // measure 48
0000
0100
0000
0010
,  // measure 49
0000
0001
0000
1000
,  // measure 50
0000
1000
0000
0001
,  // measure 51
0000
0001
0000
0100
,  // measure 52
0000
0100
0000
0010
,  // measure 53
0000
0010
0000
1001
,  // measure 54
0000
0000
0000
0000
,  // measure 55
0000
0000
0000
1000
,  // measure 56
0000
0001
0000
1000
,  // measure 57
0000
0001
0000
0100
,  // measure 58
0000
0000
0000
0000
,  // measure 59
0000
0100
0000
0010
,  // measure 60
0000
1000
0000
0001
,  // measure 61
0000
1000
0000
0000
,  // measure 62
0000
0000
0000
0000
,  // measure 63
0000
0001
0000
1000
,  // measure 64
0000
0001
0000
0010
,  // measure 65
0000
0100
0000
0000
,  // measure 66
0000
0000
0000
0000
,  // measure 67
0000
1001
0000
0000
,  // measure 68
0000
0000
0000
0000
,  // measure 69
0000
0000
0000
0000
,  // measure 70
0000
0000
0000
0000
,  // measure 71
0000
0000
0000
0000
,  // measure 72
1000
0000
0001
0000
,  // measure 73
0100
0000
0001
0000
,  // measure 74
1000
0000
0100
0000
,  // measure 75
0010
0010
0010
0000
,  // measure 76
0001
0000
1000
0000
,  // measure 77
0001
0000
0100
0000
,  // measure 78
0010
0000
1000
0000
,  // measure 79
0001
0001
0001
0000
,  // measure 80
1000
0000
1000
0000
,  // measure 81
0100
0000
0100
0000
,  // measure 82
0010
0000
0010
0000
,  // measure 83
1001
0000
0000
0000
;
