#VERSION:0.83;
#TITLE:Banana Song (I'm A Banana);
#SUBTITLE:;
#ARTIST:Onision;
#TITLETRANSLIT:;
#SUBTITLETRANSLIT:;
#ARTISTTRANSLIT:;
#GENRE:BANANA TECHNO;
#ORIGIN:;
#CREDIT:;
#BANNER:[You Won't See This In DDR IV] - Banana Song (I'm A Banana).png;
#BACKGROUND:[You Won't See This In DDR IV] - Banana Song (I'm A Banana)-bg.png;
#PREVIEWVID:;
#JACKET:[You Won't See This In DDR IV] - Banana Song (I'm A Banana)-jacket.png;
#CDIMAGE:;
#DISCIMAGE:;
#LYRICSPATH:;
#CDTITLE:cdtitle.png;
#MUSIC:[You Won't See This In DDR IV] - Banana Song (I'm A Banana).ogg;
#OFFSET:-0.620000;
#SAMPLESTART:13.540546;
#SAMPLELENGTH:14.403078;
#SELECTABLE:YES;
#BPMS:0.000=130.000;
#STOPS:104.000=1.385,
117.000=1.385,
130.000=1.385,
175.000=1.385;
#DELAYS:;
#WARPS:;
#TIMESIGNATURES:0.000=4=4;
#TICKCOUNTS:0.000=4;
#COMBOS:0.000=1;
#SPEEDS:0.000=1.000=0.000=0;
#SCROLLS:0.000=1.000,
203.500=8.000;
#FAKES:;
#LABELS:0.000=Song Start;
#BGCHANGES:0.000=[You Won't See This In DDR IV] - Banana Song (I'm A Banana).avi=1.000=0=0=0=StretchNoLoop==CrossFade_Fastest==,
99999=-nosongbg-=1.000=0=0=0 // don't automatically add -songbackground-
;
#KEYSOUNDS:;
#ATTACKS:
;

//---------------dance-single - ----------------
#NOTEDATA:;
#CHARTNAME:;
#STEPSTYPE:dance-single;
#DESCRIPTION:;
#CHARTSTYLE:;
#DIFFICULTY:Hard;
#METER:8;
#RADARVALUES:0.485346,0.609509,0.144776,0.193035,0.197861,352.000000,337.000000,15.000000,20.000000,34.000000,0.000000,0.000000,0.000000,0.000000,0.485346,0.609509,0.144776,0.193035,0.197861,352.000000,337.000000,15.000000,20.000000,34.000000,0.000000,0.000000,0.000000,0.000000;
#CREDIT:;
#NOTES:
0000
0000
0000
0000
,
0000
0000
0000
0000
,
0000
0000
0000
0000
,
0000
0000
0000
0000
,
0000
0000
0000
0000
,
0000
0000
0000
0000
,
0000
0000
0000
0000
,
1000
0100
1000
0020
0000
0000
0130
0000
,
0001
0100
0001
0020
0000
0000
0130
0000
,
1000
0010
1000
0200
0000
0000
0310
0000
,
0001
0010
1000
0000
0010
0000
1001
1001
,
0001
0100
0010
2000
0000
3000
1100
0000
,
1000
0100
0010
0002
0000
0003
0101
0000
,
0001
0010
0100
0020
0000
0030
1001
0000
,
1000
0100
0001
0000
0100
0000
1001
1001
,
1000
0010
0100
0020
0000
0130
0000
0001
,
0010
0100
0010
0002
0000
1003
0000
0001
,
0100
0000
0000
1000
0000
0000
0100
0000
0000
0020
0000
0000
0000
0000
0000
1030
0000
0000
0001
0000
1000
0000
0001
0000
,
1000
0000
0100
1000
0100
1000
0010
0100
0001
0010
0002
0000
0000
0000
1003
0000
,
0100
0000
0100
0000
1000
0000
0010
0000
1000
0001
1000
0000
0100
0000
0010
0000
,
0001
0000
0001
0000
0100
0000
0010
0000
1000
0100
1000
0001
1000
0000
0001
0000
,
0100
0000
0100
0000
0010
0000
1000
0000
0001
0010
0100
0010
0002
0000
0000
0000
,
1003
0000
0010
0000
0001
0000
0000
0000
0010
0100
0010
0100
0010
0100
0010
0100
,
0010
1000
0100
0010
0100
1000
0010
0100
,
0100
0000
0001
0000
0010
0000
1000
0000
0010
0000
0001
0000
0100
0010
0100
0010
,
1000
0100
0001
0100
1000
0010
0100
0001
,
1001
0000
0000
0000
1000
0000
1000
0000
0010
0000
0100
0000
0001
0010
0001
0000
,
1000
0000
0010
0000
1000
0000
1000
0000
0100
0000
0001
0000
0100
1000
0100
1000
,
0010
0000
0100
0000
0001
0000
0001
0000
0010
0000
0100
0000
1000
0010
1000
0010
,
0100
0001
1001
0000
1000
1000
0001
0010
,
0100
0010
0100
0000
0010
0000
0001
0000
0100
0000
0100
0000
0010
0000
1000
0000
,
0001
0010
0001
0010
0100
0000
1000
0000
0001
0000
0001
0000
0100
0000
1000
0000
,
0100
0010
0100
0010
1000
0000
0001
0000
1001
0000
0000
0000
1000
0000
0100
0000
,
0010
1000
0010
0001
0100
0010
1000
0010
,
0100
1000
0100
0001
0010
0100
1000
0010
,
0001
0010
1000
0100
0010
0001
1000
0010
,
0001
1000
0100
0001
2000
0000
3001
0001
,
0010
0010
0100
0100
1000
0000
0010
0000
,
1000
0000
1000
0000
0100
0000
0100
0000
1000
0010
1000
0010
1000
0000
0001
0000
,
0010
0100
0010
0000
0001
0000
0001
0000
1000
0000
0100
0010
0100
0010
0100
0000
,
1000
0000
0000
0000
0001
0000
0000
0000
1000
0000
0000
0000
0001
0000
0000
0000
0010
0000
0000
0000
0100
0000
0000
0000
0010
0000
0000
0001
0000
0000
0010
0000
0000
0000
0000
0000
0001
0000
0000
0000
0000
0000
0100
0000
0000
0000
0000
0000
,
1000
0200
0000
0310
1000
0000
0001
0010
,
1000
0020
0000
0130
1000
0000
0001
0100
,
0010
2000
0000
3100
0010
0000
1001
0000
,
1000
1000
0010
0010
0100
0100
0001
0001
,
1000
0100
0001
0100
1000
0100
0001
0000
,
1000
1000
0100
0100
0010
0010
0001
0001
,
1000
0010
0002
0000
0023
0000
2030
0000
,
3001
0001
0100
0010
1000
0100
0110
0000
,
1000
1000
0100
0010
0001
0100
0110
0000
,
0001
0001
0010
1000
0010
0001
1001
0220
,
0000
0000
0000
0000
,
0000
0000
M33M
MMMM
MMMM
MMMM
MMMM
MMMM
MMMM
MMMM
MMMM
0000
0000
0000
0000
0000
;

//---------------dance-single - ----------------
#NOTEDATA:;
#CHARTNAME:;
#STEPSTYPE:dance-single;
#DESCRIPTION:;
#CHARTSTYLE:;
#DIFFICULTY:Medium;
#METER:6;
#RADARVALUES:0.319887,0.381848,0.028955,0.106169,0.000000,232.000000,229.000000,3.000000,11.000000,0.000000,0.000000,0.000000,0.000000,0.000000,0.319887,0.381848,0.028955,0.106169,0.000000,232.000000,229.000000,3.000000,11.000000,0.000000,0.000000,0.000000,0.000000,0.000000;
#CREDIT:;
#NOTES:
0000
0000
0000
0000
,
0000
0000
0000
0000
,
0000
0000
0000
0000
,
0000
0000
0000
0000
,
0000
0000
0000
0000
,
0000
0000
0000
0000
,
0000
0000
0000
0000
,
1000
0000
0001
0200
0000
0000
0310
0000
,
1000
0000
0100
0020
0000
0000
0031
0000
,
0100
0000
0010
2000
0000
0000
3001
0000
,
0010
0100
0010
0000
0001
0000
1000
1000
,
0001
0000
0100
0010
0100
0000
0010
0000
,
1000
0000
0100
0010
0100
0000
1000
0000
,
0001
0000
0100
0010
0100
0000
0001
0000
,
1000
0100
0010
0000
0100
0000
1000
1000
,
0001
1000
0000
0010
0000
0100
0000
0001
,
0010
0001
0000
0100
0000
0010
0000
1000
,
0100
1000
0000
0010
0000
0100
0001
1000
,
0001
0010
0001
0010
0100
1000
0000
0001
,
1000
1000
0100
0000
1000
0010
1000
0000
,
0001
0001
0010
0000
0001
0100
0001
0000
,
1000
1000
0001
0000
0010
0100
0010
0000
,
0001
0100
0001
0000
2000
0000
3200
0000
,
0310
0000
0001
0000
0100
0000
0010
1000
,
0010
0000
1000
0000
0100
0000
1000
0010
,
1000
0000
0001
0000
0100
0000
0001
0010
,
0001
0000
1000
1000
0100
0000
1000
0010
,
1000
0000
0001
0001
0100
0000
0001
0010
,
0001
0000
1000
1000
0010
0000
1000
0100
,
1000
0000
1001
0000
0001
0001
0010
0000
,
0001
0100
0001
0000
1000
1000
0010
0000
,
1000
0100
1000
0000
0001
0001
0100
0000
,
0001
0010
0001
0000
1001
0000
1000
0000
,
1000
0010
0100
0001
,
0001
0010
0100
1000
,
1000
0100
0010
0001
,
0001
0100
0010
1000
,
0100
1000
0010
0100
,
0001
1000
0001
1000
0200
0000
0310
0001
,
0010
0001
1000
0000
0100
1000
0100
1000
,
0001
0100
0020
1030
,
0100
0010
0000
0010
0100
0000
1000
0000
,
0001
0010
0000
0010
0100
0000
1000
0000
,
0010
0100
0000
0100
0001
0000
1001
0000
,
1000
0100
1000
0000
0001
0100
0001
0000
,
1000
0010
1000
0000
0001
0010
0001
0000
,
1000
0100
0010
0000
0001
0100
0010
0000
,
1000
0010
0100
0000
0001
0000
0010
0000
,
0001
0000
1000
0200
0000
0000
0310
0000
,
0001
0000
1000
0020
0000
0000
0130
0000
,
0001
0000
0010
0200
0000
0000
1300
0020
,
0000
0000
0000
0000
,
0000
0000
0000
0030
;

//---------------dance-single - ----------------
#NOTEDATA:;
#CHARTNAME:;
#STEPSTYPE:dance-single;
#DESCRIPTION:;
#CHARTSTYLE:;
#DIFFICULTY:Easy;
#METER:3;
#RADARVALUES:0.239915,0.245517,0.086866,0.000000,0.000000,174.000000,165.000000,9.000000,0.000000,0.000000,0.000000,0.000000,0.000000,0.000000,0.239915,0.245517,0.086866,0.000000,0.000000,174.000000,165.000000,9.000000,0.000000,0.000000,0.000000,0.000000,0.000000,0.000000;
#CREDIT:;
#NOTES:
// measure 0
0000
0000
0000
0000
,  // measure 1
0000
0000
0000
0000
,  // measure 2
0000
0000
0000
0000
,  // measure 3
0000
0000
0000
0000
,  // measure 4
0000
0000
0000
0000
,  // measure 5
0000
0000
0000
0000
,  // measure 6
0000
0000
0000
0000
,  // measure 7
1000
1000
0001
0001
,  // measure 8
1000
1000
0001
0001
,  // measure 9
1000
1000
0001
0001
,  // measure 10
1000
0100
0010
0001
,  // measure 11
1000
1010
0000
0010
,  // measure 12
0100
0101
0000
0001
,  // measure 13
0010
0110
0000
0100
,  // measure 14
1000
1000
0010
0010
,  // measure 15
1000
0100
0010
0001
,  // measure 16
1000
0010
0100
0001
,  // measure 17
1000
0100
0010
0100
,  // measure 18
1000
0010
0100
0010
,  // measure 19
1000
0001
0000
0100
,  // measure 20
0001
0010
0000
0001
,  // measure 21
1000
0010
0000
0100
,  // measure 22
0010
0000
0000
0000
1000
0001
1000
0000
,  // measure 23
0001
0010
0100
1000
,  // measure 24
0001
0100
0010
1000
,  // measure 25
0001
0010
0100
0010
,  // measure 26
0001
1000
1000
0010
,  // measure 27
0100
0001
0001
0010
,  // measure 28
0100
1000
1000
0100
,  // measure 29
0010
0001
1000
1000
,  // measure 30
0010
0100
0001
0001
,  // measure 31
0010
0100
1000
1000
,  // measure 32
0100
0010
0001
1000
,  // measure 33
1000
0010
0010
0100
,  // measure 34
0100
0001
0001
0010
,  // measure 35
0010
0100
0100
1000
,  // measure 36
1000
0010
0010
1000
,  // measure 37
0100
0010
0001
0100
,  // measure 38
0010
1000
0001
0010
,  // measure 39
0100
1000
0010
0100
,  // measure 40
0001
0010
0100
1000
,  // measure 41
1010
0000
0010
0100
,  // measure 42
0101
0000
0001
0010
,  // measure 43
0110
0000
0100
1000
,  // measure 44
0001
0001
0100
0100
,  // measure 45
0010
0010
1000
1000
,  // measure 46
0100
0100
0010
0010
,  // measure 47
0001
0001
1000
0010
,  // measure 48
1000
1100
0000
0100
,  // measure 49
0010
0011
0000
0001
,  // measure 50
0100
0000
0110
0000
0000
0000
0010
1000
;
