#TITLE:Pełnia;
#SUBTITLE:;
#ARTIST:Donatan i Maryla Rodowicz;
#TITLETRANSLIT:Pelnia;
#SUBTITLETRANSLIT:;
#ARTISTTRANSLIT:;
#CREDIT:Lisek;
#BANNER:[Unenglish] - Pelnia.png;
#BACKGROUND:[Unenglish] - Pelnia-bg.png;
#LYRICSPATH:;
#CDTITLE:cdtitle.png;
#MUSIC:[Unenglish] - Pelnia.ogg;
#OFFSET:-0.080;
#SAMPLESTART:9.680;
#SAMPLELENGTH:19.120;
#SELECTABLE:YES;
#BPMS:0.000=100.000,80.000=50.000,84.000=100.000,92.000=50.000,100.000=100.000;
#STOPS:;
#BGCHANGES:0.000=[Unenglish] - Pelnia.avi=1.000=0=0=1,
192.000=[Unenglish] - Pelnia-bg.png=1.000=1=0=1,
99999=-nosongbg-=1.000=0=0=0 // don't automatically add -songbackground-
;

//---------------dance-single - Lisek----------------
#NOTES:
     dance-single:
     Lisek:
     Hard:
     7:
     0.415,0.418,0.240,0.208,0.216: // measure 1
0000
0000
0000
0000
,  // measure 2
0000
0000
0000
0000
,  // measure 3
0000
0000
0000
0000
,  // measure 4
0000
0000
0000
0000
,  // measure 5
0101
0000
0000
0000
1010
0000
0000
0000
1000
0100
0010
0000
0011
0000
0000
0000
,  // measure 6
0100
0010
1000
0000
0100
0000
0010
0000
0200
0000
0010
0000
1300
0000
0000
0000
,  // measure 7
0011
0000
0000
0000
1100
0000
0000
0000
0001
0100
0010
0000
1010
0000
0001
0000
,  // measure 8
0010
0100
0010
0000
0001
0000
1000
0000
0200
0000
1000
0000
0310
0000
0000
0000
,  // measure 9
1001
0000
0000
0000
0110
0000
0000
0000
0010
1000
0001
0000
0101
0000
0000
0000
,  // measure 10
0001
0010
0100
0000
0010
0000
0001
0000
2000
0000
0100
0000
3001
0000
0000
0000
,  // measure 11
0110
0000
0000
0000
1001
0000
0000
0000
0001
1000
0010
0000
0110
0000
0001
0000
,  // measure 12
1000
0010
1000
0000
0001
0000
0100
0000
0002
0000
0100
0000
1003
0000
0000
0000
,  // measure 13
0001
0000
0000
0100
0000
0000
1000
0000
0000
0000
0100
0000
0001
1000
0001
0000
,  // measure 14
1000
0000
0000
0100
0001
0000
0100
0000
0000
0000
1000
0000
0001
1000
0001
0000
,  // measure 15
1010
0000
0000
0010
0100
0000
0001
0000
0000
0000
1000
0000
0010
1000
0010
0000
,  // measure 16
0101
0000
0000
0001
0100
0000
0010
0000
0000
0000
1000
0000
0001
1000
0001
0000
,  // measure 17
1000
1000
0010
0010
0100
0100
0010
0010
,  // measure 18
1000
0001
1000
0000
0010
0000
0100
0000
,  // measure 19
0001
0001
1000
1000
0010
0010
0100
0100
,  // measure 20
0001
1000
0001
0000
0100
0000
0010
0000
,  // measure 21
1000
0010
0001
0100
1000
0001
1000
0000
,  // measure 22
0001
0100
1000
0100
0010
0100
0001
1000
,  // measure 23
0100
0010
0001
0000
1000
0000
0010
0000
,  // measure 24
0100
0000
0000
0100
0010
0100
0001
0100
0010
0000
0000
0100
0001
0100
0010
0100
,  // measure 25
0001
0000
0000
0100
0001
0100
0010
0100
2000
0000
3200
0000
0301
1000
0000
0000
,  // measure 26
1010
0000
0000
0000
0101
0000
0000
0000
0001
0010
0100
0000
1100
0000
0000
0000
,  // measure 27
0010
0100
0001
0000
0010
0000
0100
0000
0020
0000
0001
0000
0130
0000
0000
0000
,  // measure 28
1100
0000
0000
0000
0011
0000
0000
0000
1000
0001
0010
0000
0110
0000
0010
0000
,  // measure 29
0001
1000
0010
0000
0100
0000
0010
0000
0200
0000
0001
0000
0310
0000
0000
0000
,  // measure 30
0110
0000
0000
0000
1001
0000
0000
0000
0001
1000
0010
0000
0110
0000
0000
0000
,  // measure 31
0010
1000
0100
0000
0010
0000
0001
0000
2000
0000
0001
0000
3010
0000
0000
0000
,  // measure 32
1001
0000
0000
0000
0110
0000
0000
0000
0010
1000
0001
0000
0101
0000
0010
0000
,  // measure 33
1000
0001
1000
0000
0001
0000
0010
0000
0002
0000
0100
0000
1003
0000
0000
0000
,  // measure 34
1010
0000
0000
0010
0001
0000
0010
0000
0000
0000
0100
0000
0001
0010
0100
0000
,  // measure 35
1100
0000
0000
0100
0001
0000
0100
0000
0000
0000
1000
0000
0001
1000
0001
0000
,  // measure 36
0101
0000
0000
0100
1000
0000
0100
0000
0000
0000
0001
0000
0100
0001
0010
0000
,  // measure 37
0011
0000
0000
0010
1000
0000
0010
0000
0000
0000
0001
0000
0100
0010
1000
0000
,  // measure 38
0002
0000
0000
0000
0203
0000
0000
0000
0310
0100
0001
0000
1000
0000
0000
0000
,  // measure 39
0100
0010
0001
0000
1000
0000
0010
0000
0200
0000
0000
0000
0301
0100
0010
0100
,  // measure 40
0002
0000
2003
0000
3010
0100
0001
0000
,  // measure 41
1000
0010
0100
0000
0001
0000
0010
0000
0200
0000
0000
0000
1300
0000
0000
0000
,  // measure 42
0020
0000
0000
0000
0230
0000
0000
0000
0301
0010
0001
0000
1000
0000
0000
0000
,  // measure 43
0010
0100
0001
0000
1000
0000
0100
0000
0020
0000
0000
0000
0031
0010
0100
1000
,  // measure 44
0002
0000
2003
0000
3010
0100
0001
0000
,  // measure 45
1000
0010
0100
0000
0001
0000
0010
0000
0200
0000
0000
0000
2300
0000
0000
0000
,  // measure 46
3002
0000
0000
0000
,  // measure 47
0003
0000
0000
2000
0000
0000
0000
0000
0000
0000
0000
0000
0000
0000
3000
0000
,  // measure 48
0010
0000
0000
0020
0000
0000
0000
0000
0030
0000
0000
0000
0000
0000
0000
0000
;

//---------------dance-single - Lisek----------------
#NOTES:
     dance-single:
     Lisek:
     Medium:
     5:
     0.333,0.342,0.128,0.328,0.048:
0000
0000
0000
0000
,
0000
0000
0000
0000
,
0000
0000
0000
0000
,
0000
0000
0000
0000
,
1001
0000
1001
0000
1000
0001
0100
0000
,
0001
0010
0100
1000
0002
0000
1003
0000
,
1010
0000
1010
0000
1000
0001
0100
0010
,
0100
0001
1000
0100
0020
0000
0031
0000
,
0101
0000
0101
0000
0100
0010
1000
0000
,
0100
0010
0001
0010
0200
0000
1300
0000
,
0110
0000
0110
0000
0010
0001
1000
0000
,
0010
0100
0001
1000
0002
0000
1003
0000
,
0001
0000
0000
1000
0000
0000
0001
0000
0000
0000
2000
0000
0000
0000
3000
0000
,
0010
0000
0000
0100
0000
0000
0010
0000
0000
0000
0200
0000
0000
0000
0300
0000
,
0001
0000
0000
0010
0000
0000
0001
0000
0000
0000
0020
0000
0000
0000
0030
0000
,
0100
0000
0000
1000
0000
0000
0100
0000
0000
0000
2000
0000
0000
0000
3001
0000
,
0010
0100
1000
0001
0010
0100
1000
0001
,
0010
0100
1000
0000
0001
0000
0100
0001
,
0100
0010
1000
0001
0100
0010
1000
0001
,
0100
0010
1000
0000
0001
0000
0100
0000
,
0001
0000
1000
0000
0001
0000
1000
0000
0010
0100
0002
0000
1003
0000
0000
0000
,
0001
0010
0100
0010
0001
1000
0001
0100
,
0010
1000
0001
0000
1000
0000
0001
0000
,
2000
0000
3002
0100
0103
0000
2000
0100
,
3100
0000
0000
0000
0002
0000
0103
0000
2000
0000
3100
0000
0001
0100
0000
0000
,
1001
0000
1001
0000
0001
0100
0010
0000
,
1000
0010
0100
0001
2000
0000
3010
0000
,
0101
0000
0101
0000
0001
1000
0100
0010
,
0001
0010
0100
0010
0002
0000
1003
0000
,
0110
0000
0110
0000
0100
0001
1000
0000
,
0010
1000
0001
0100
0002
0000
0103
0000
,
1010
0000
1010
0000
1000
0001
0100
0010
,
1000
0100
0010
0001
2000
0000
3001
0000
,
1000
0000
0000
0100
0000
0000
1000
0000
0000
0000
0200
0000
0000
0000
0300
0000
,
0010
0000
0000
0001
0000
0000
0010
0000
0000
0000
0002
0000
0000
0000
0003
0000
,
0100
0000
0000
0010
0000
0000
0100
0000
0000
0000
0020
0000
0000
0000
0030
0000
,
1000
0000
0000
0001
0000
0000
1000
0000
0000
0000
0002
0000
0000
0000
0003
0000
,
2000
3002
0203
0320
,
0130
0001
1000
0100
0010
0001
0100
0001
,
0200
0320
2030
3002
,
1003
0100
0010
0001
1000
0010
0100
0000
,
0002
2003
3020
0230
,
0310
1000
0100
0010
0001
0100
0010
0100
,
0020
2030
3002
0203
,
0301
1000
0001
0010
0100
1000
0001
0000
,
2000
0000
0000
0000
,
3000
0000
0000
0002
0000
0000
0000
0000
0000
0000
0000
0000
0000
0000
0003
0000
,
1000
0000
0000
2000
0000
0000
0000
0000
3000
0000
0000
0000
0000
0000
0000
0000
;

//---------------dance-single - Lisek----------------
#NOTES:
     dance-single:
     Lisek:
     Beginner:
     1:
     0.049,0.070,0.000,0.016,0.000:
0000
0000
0000
0000
,
0000
0000
0000
0000
,
0000
0000
0000
0000
,
0000
0000
0000
0000
,
1000
0000
0000
0000
,
0001
0000
0000
0000
,
1000
0000
0000
0000
,
0001
0000
0000
0000
,
0100
0000
0000
0000
,
0010
0000
0000
0000
,
0100
0000
0000
0000
,
0010
0000
0000
0000
,
2000
0000
0000
0000
,
3000
0000
0000
0000
,
0002
0000
0000
0000
,
0003
0000
0000
0000
,
1000
0000
0000
0000
,
0010
0000
0000
0000
,
0100
0000
0000
0000
,
0001
0000
0000
0000
,
1000
0000
0000
0000
,
0001
0000
0000
0000
,
1000
0000
0000
0000
,
0001
0000
0001
0000
,
1000
0000
1000
0000
,
0001
0000
0000
0000
,
0010
0000
0000
0000
,
0001
0000
0000
0000
,
0010
0000
0000
0000
,
0100
0000
0000
0000
,
1000
0000
0000
0000
,
0100
0000
0000
0000
,
1000
0000
0000
0000
,
0001
0000
0000
0000
,
0100
0000
0000
0000
,
0010
0000
0000
0000
,
1000
0000
0000
0000
,
0001
0000
0000
0000
,
0010
0000
0000
0000
,
0100
0000
0000
0000
,
1000
0000
0000
0000
,
0100
0000
0000
0000
,
0010
0000
0000
0000
,
0001
0000
0000
0000
,
1000
0000
0000
0000
;

//---------------dance-single - Lisek----------------
#NOTES:
     dance-single:
     Lisek:
     Easy:
     2:
     0.153,0.169,0.000,0.088,0.004:
0000
0000
0000
0000
,
0000
0000
0000
0000
,
0000
0000
0000
0000
,
0000
0000
0000
0000
,
1000
1000
0001
0100
,
0010
0100
0001
0000
,
0100
0100
0010
1000
,
0001
0010
0100
0000
,
0010
0010
0100
1000
,
0010
1000
0010
0000
,
0100
0100
0001
0100
,
0010
1000
0001
0000
,
2000
0000
3000
0000
,
0002
0000
0003
0000
,
0200
0000
0300
0000
,
0020
0000
0030
0000
,
1000
0100
0010
0001
,
1000
0100
0000
0000
,
0001
0010
0100
1000
,
0001
0010
0000
0000
,
0001
0001
1000
1000
,
0001
0100
0010
1000
,
0001
1000
0000
0000
,
0010
0010
0100
0100
,
0010
0010
0200
0300
,
0001
0001
0100
0010
,
1000
0100
0010
0000
,
0100
0100
1000
0010
,
0100
0001
0100
0000
,
0010
0010
0100
0001
,
1000
0100
0010
0000
,
0001
0001
0100
0010
,
1000
0100
0010
0000
,
0200
0000
0300
0000
,
0020
0000
0030
0000
,
0002
0000
0003
0000
,
2000
0000
3000
0000
,
0001
0100
0001
0100
,
0010
1000
0100
0000
,
1000
0010
1000
0010
,
0100
0001
0100
0000
,
0001
0010
0001
0010
,
0100
1000
0010
0000
,
1000
0100
1000
0100
,
0010
0001
0100
0000
,
0002
0000
0000
0000
,
0003
0000
0000
2000
0000
0000
0000
0000
0000
0000
0000
0000
0000
0000
3000
0000
;
