#VERSION:0.81;
#TITLE:ニッポン饅頭;
#SUBTITLE:;
#ARTIST:LADYBABY;
#TITLETRANSLIT:Nippon Manju;
#SUBTITLETRANSLIT:;
#ARTISTTRANSLIT:;
#GENRE:;
#ORIGIN:;
#CREDIT:;
#BANNER:Nippon Manju-bn.png;
#BACKGROUND:Nippon Manju-bg.png;
#PREVIEWVID:;
#JACKET:Nippon Manju-jacket.png;
#CDIMAGE:;
#DISCIMAGE:;
#LYRICSPATH:;
#CDTITLE:;
#MUSIC:Nippon Manju.ogg;
#OFFSET:0.522870;
#SAMPLESTART:43.348610;
#SAMPLELENGTH:12.000000;
#SELECTABLE:YES;
#BPMS:0.000=186.000,
310.000=181.000,
312.000=186.000;
#STOPS:;
#DELAYS:;
#WARPS:;
#TIMESIGNATURES:0.000=4=4;
#TICKCOUNTS:0.000=4;
#COMBOS:0.000=1;
#SPEEDS:0.000=1.000=0.000=0;
#SCROLLS:0.000=1.000,
72.000=0.750,
104.000=1.000,
128.000=0.500,
132.500=1.000,
249.000=0.000,
250.000=1.000,
251.000=0.000,
252.000=1.000,
257.000=0.000,
258.000=1.000,
259.000=0.000,
260.000=1.000,
264.000=0.750,
280.000=1.000,
310.000=0.000,
311.000=1.000,
390.000=0.000,
391.000=1.000;
#FAKES:;
#LABELS:0.000=Song Start;
#BGCHANGES:1.833=Nippon Manju.mp4=1.000=0=0=0=StretchNoLoop====,
99999=-nosongbg-=1.000=0=0=0 // don't automatically add -songbackground-
;
#KEYSOUNDS:;
#ATTACKS:
;

//---------------dance-single - ----------------
#NOTEDATA:;
#CHARTNAME:;
#STEPSTYPE:dance-single;
#DESCRIPTION:;
#CHARTSTYLE:;
#DIFFICULTY:Hard;
#METER:10;
#RADARVALUES:0.815506,0.942796,0.391908,0.103523,0.425183,705.000000,53.000000,14.000000,0.000000,0.000000,0.000000,0.000000,0.000000,0.815506,0.942796,0.391908,0.103523,0.425183,705.000000,53.000000,14.000000,0.000000,0.000000,0.000000,0.000000,0.000000;
#CREDIT:;
#OFFSET:0.522870;
#BPMS:0.000000=186.000000
,310.000000=181.000000
,312.000000=186.000000
;
#STOPS:;
#DELAYS:;
#WARPS:;
#TIMESIGNATURES:0.000000=4=4
;
#TICKCOUNTS:0.000000=4
;
#COMBOS:0.000000=1
;
#SPEEDS:0.000000=1.000000=0.000000=0
;
#SCROLLS:0.000000=1.000000
,37.500000=0.000000
,39.500000=1.000000
,72.000000=0.750000
,104.000000=1.000000
,128.000000=0.500000
,132.500000=1.000000
,249.000000=0.000000
,250.000000=1.000000
,251.000000=0.000000
,252.000000=1.000000
,257.000000=0.000000
,258.000000=1.000000
,259.000000=0.000000
,260.000000=1.000000
,264.000000=0.750000
,280.000000=1.000000
,310.000000=0.000000
,311.000000=1.000000
,390.000000=0.000000
,391.000000=1.000000
;
#FAKES:;
#LABELS:0.000000=Song Start
;
#NOTES:
// measure 0
0000
0000
0000
0000
,  // measure 1
0000
0000
0000
0000
,  // measure 2
0000
0000
0000
0000
,  // measure 3
0000
0000
0000
0000
,  // measure 4
0000
0000
0000
0000
,  // measure 5
0000
0000
0000
0000
,  // measure 6
1000
1000
0001
0001
,  // measure 7
0100
0100
0010
0010
,  // measure 8
1000
0010
1000
0010
0100
0001
0100
0001
,  // measure 9
0010
0100
1000
0001
0000
0000
0000
0000
,  // measure 10
1000
0000
0100
0000
0010
0000
0100
1000
0100
0000
0010
0000
0001
0000
1000
0000
,  // measure 11
0000
0000
0001
0100
0001
0000
0100
0000
0010
0000
1000
0000
0100
0000
0010
0000
,  // measure 12
0001
0000
0100
0000
0010
0000
0100
0001
0100
0000
0010
0000
1000
0000
0001
0000
,  // measure 13
0000
0000
1000
0100
1000
0000
0100
0000
0010
0000
0001
0000
0100
0000
0010
0000
,  // measure 14
1000
0000
0001
0000
0010
0000
0100
0010
0100
0000
1000
0000
0001
0000
1000
0000
,  // measure 15
0000
0000
0010
0100
0010
0000
1000
0000
0001
0000
0010
0000
0100
0000
1000
0000
,  // measure 16
0001
0000
1000
0000
0010
0000
0100
0010
0100
0000
0001
0000
1000
0000
0001
0000
,  // measure 17
0010
0100
0010
0100
0010
0000
0100
1000
0100
1000
0100
0000
0010
0001
1000
0000
,  // measure 18
0001
0100
0001
0100
0001
0000
0000
0000
1000
0000
0010
0000
0000
0000
0200
0000
,  // measure 19
0000
0000
0301
1000
0001
0000
0010
0000
0100
0000
0010
0000
0001
0000
1000
0000
,  // measure 20
0001
0100
0001
0100
0001
0000
0000
0000
0100
0000
0010
0000
0000
0000
2000
0000
,  // measure 21
0000
0000
3001
1000
0001
0000
0100
0000
0010
0000
1000
0000
0100
0000
0010
0000
,  // measure 22
0100
1000
0100
1000
0100
0000
0000
0000
0010
0000
0001
0000
0000
0000
2000
0000
,  // measure 23
0000
0000
3001
0100
0001
0000
0100
0000
0010
0000
1000
0000
0100
0000
1000
0000
,  // measure 24
0001
1000
0001
1000
0001
0000
0000
0000
0100
0000
0010
0000
0000
0000
1000
0000
,  // measure 25
0001
0000
0010
0100
0010
0000
0001
0000
1000
0000
0001
0100
0001
0100
0001
0100
,  // measure 26
0010
1000
0100
0010
0001
0000
0001
0010
,  // measure 27
1000
0000
0010
0000
0001
0000
1000
0000
0000
0000
1000
0000
0010
0000
0010
0100
,  // measure 28
0001
1000
0001
0010
0100
1000
0001
0100
,  // measure 29
0010
0100
0010
0000
1000
0000
0001
0000
1000
0001
1000
0000
0200
0000
0000
0000
,  // measure 30
0310
0001
1000
0001
0100
0000
0100
0010
,  // measure 31
1000
0100
0010
0001
1000
0000
1001
0000
,  // measure 32
0001
0000
0000
0000
0010
0000
0000
0000
0100
0000
0000
1000
0000
0000
0010
0000
,  // measure 33
0000
0000
0100
0000
0000
0101
0000
0000
2002
0000
0000
0000
3003
0000
0000
0000
,  // measure 34
1000
0000
1100
0000
0001
1000
0100
1000
,  // measure 35
0010
0000
0101
0000
1000
0001
0100
0001
,  // measure 36
0010
1100
0010
0101
,  // measure 37
1000
0100
0110
1001
,  // measure 38
1000
0010
1000
0010
1000
0010
1000
0010
1000
0000
0000
0000
1010
0000
0000
0000
,  // measure 39
0001
0010
0001
0010
0001
0010
0001
0010
0001
0000
0000
0000
0011
0000
0000
0000
,  // measure 40
1000
0100
1000
0100
1000
0000
0000
0000
0001
0100
0001
0100
0001
0000
0000
0000
,  // measure 41
1000
0010
0100
0001
0100
0000
0110
0000
,  // measure 42
0001
0000
0101
0000
1000
0001
0010
0001
,  // measure 43
0100
0000
1010
0000
0001
1000
0010
1000
,  // measure 44
0100
0011
0100
1010
,  // measure 45
0001
0010
0110
1001
,  // measure 46
0001
0100
0001
0100
0001
0100
0001
0100
0001
0000
0000
0000
0101
0000
0000
0000
,  // measure 47
1000
0100
1000
0100
1000
0100
1000
0100
1000
0000
0000
0000
1100
0000
0000
0000
,  // measure 48
0001
0010
0001
0010
0001
0000
0000
0000
1000
0010
1000
0010
1000
0000
0000
0000
,  // measure 49
0001
0010
0100
1000
0100
0000
0110
0000
,  // measure 50
0001
0010
1000
0010
0100
0000
0100
1000
,  // measure 51
0001
0101
1000
1100
,  // measure 52
1000
0100
0001
0100
0010
0000
0010
0001
,  // measure 53
1000
0010
0202
0303
,  // measure 54
1000
0000
0100
0000
0010
0000
0100
1000
0100
0000
0010
0000
0001
0000
1000
0000
,  // measure 55
0000
0000
0001
0100
0001
0000
0100
0000
0010
0000
1000
0000
0100
0000
0010
0000
,  // measure 56
0001
0000
0100
0000
0010
0000
0100
0001
0100
0000
0010
0000
1000
0000
0001
0000
,  // measure 57
0000
0000
1000
0100
1000
0000
0100
0000
0010
0000
0001
0000
0100
0000
0010
0000
,  // measure 58
1000
0000
0001
0000
0010
0000
0100
0010
0100
0000
1000
0000
0001
0000
1000
0000
,  // measure 59
0000
0000
0010
0100
0010
0000
1000
0000
0001
0000
0010
0000
0100
0000
1000
0000
,  // measure 60
0001
0000
1000
0000
0010
0000
0100
0010
0100
0000
0001
0000
1000
0000
0001
0000
,  // measure 61
0010
0100
0010
0100
1000
0100
1000
0100
1000
0001
1000
0001
0100
0001
0100
0001
,  // measure 62
0100
0010
0100
0010
0100
0000
0000
0000
0000
0000
0001
1000
0001
0000
0000
0000
,  // measure 63
0000
0000
0010
0100
0010
0000
0001
0000
1000
0000
0001
0000
0100
0000
0010
0000
,  // measure 64
1000
0001
1000
0001
1000
0000
0000
0000
0000
0000
0100
0010
0100
0000
0000
0000
,  // measure 65
0000
0000
1000
0001
1000
0000
0010
0000
0100
0000
0010
0000
1000
0000
0001
0000
,  // measure 66
1000
0100
1000
0100
1000
0000
0000
0000
0001
0000
0010
0000
0001
0000
0100
0000
,  // measure 67
0000
0010
1000
0001
0000
0010
0100
0000
,  // measure 68
0010
0001
0010
0001
0010
0000
0000
0000
0100
0000
1000
0000
0001
0000
0100
0000
,  // measure 69
0000
0000
0010
1000
0010
0000
0100
0000
0001
0000
1000
0100
1000
0100
1000
0100
,  // measure 70
0010
0001
1000
0001
0100
0010
1000
0001
,  // measure 71
0010
0000
1000
0000
0010
0000
0001
0000
1000
0000
0000
0000
0100
0000
0100
1000
,  // measure 72
0001
0100
1000
0100
0010
1000
0100
0010
,  // measure 73
0001
0010
0001
0000
0010
0000
0001
0000
0100
0000
0001
0000
0010
0100
0010
0100
,  // measure 74
1000
0010
0001
0010
0100
0000
0110
0000
,  // measure 75
1000
0100
0010
0000
0001
0100
1000
0100
,  // measure 76
0010
1000
0100
0001
0100
0000
0010
0001
,  // measure 77
1000
1000
0001
1000
1001
0000
0000
0000
,  // measure 78
0001
0000
0011
0000
1000
0001
0100
0001
,  // measure 79
0010
0000
1100
0000
0001
1000
0100
1000
,  // measure 80
0010
0101
0010
1100
,  // measure 81
0001
0100
0110
1001
,  // measure 82
0001
0010
0001
0010
0001
0010
0001
0010
0001
0000
0000
0000
0011
0000
0000
0000
,  // measure 83
1000
0010
1000
0010
1000
0010
1000
0010
1000
0000
0000
0000
1010
0000
0000
0000
,  // measure 84
0001
0100
0001
0100
0001
0000
0000
0000
1000
0100
1000
0100
1000
0000
0000
0000
,  // measure 85
0001
0010
0100
1000
0100
0000
0110
0000
,  // measure 86
1000
0000
1010
0000
0001
1000
0100
1000
,  // measure 87
0010
0000
0101
0000
1000
0001
0100
0001
,  // measure 88
0010
1100
0010
0101
,  // measure 89
1000
0100
0110
1001
,  // measure 90
1000
0010
1000
0010
1000
0010
1000
0010
1000
0000
0000
0000
1010
0000
0000
0000
,  // measure 91
0001
0010
0001
0010
0001
0010
0001
0010
0001
0000
0000
0000
0011
0000
0000
0000
,  // measure 92
1000
0100
1000
0100
1000
0000
0000
0000
0001
0100
0001
0100
0001
0000
0000
0000
,  // measure 93
1000
0010
0100
0001
0100
0000
0110
0000
,  // measure 94
1001
0100
0010
0100
0001
0000
0001
0010
,  // measure 95
1000
1020
0031
0012
,  // measure 96
0103
1000
0100
0001
1000
0000
0100
0010
,  // measure 97
0001
1000
0110
0000
,  // measure 98
0001
0100
1000
0100
0010
1000
0100
0010
,  // measure 99
0012
1003
2010
3100
,  // measure 100
0001
0100
1000
0001
0100
1000
0100
0001
,  // measure 101
0011
0110
2002
0000
,  // measure 102
3003
0000
0000
0000
;

//---------------dance-single - ----------------
#NOTEDATA:;
#CHARTNAME:;
#STEPSTYPE:dance-single;
#DESCRIPTION:;
#CHARTSTYLE:;
#DIFFICULTY:Medium;
#METER:8;
#RADARVALUES:0.634869,0.603390,0.539797,0.170073,0.007394,505.000000,73.000000,23.000000,0.000000,0.000000,0.000000,0.000000,0.000000,0.634869,0.603390,0.539797,0.170073,0.007394,505.000000,73.000000,23.000000,0.000000,0.000000,0.000000,0.000000,0.000000;
#CREDIT:;
#NOTES:
// measure 0
0000
0000
0000
0000
,  // measure 1
0000
0000
0000
0000
,  // measure 2
0000
0000
0000
0000
,  // measure 3
0000
0000
0000
0000
,  // measure 4
0000
0000
0000
0000
,  // measure 5
0000
0000
0000
0000
,  // measure 6
1000
1100
1000
1010
,  // measure 7
0001
0011
1001
0101
,  // measure 8
0100
0110
0010
1010
,  // measure 9
1000
1001
1100
1001
,  // measure 10
1000
0100
0000
0010
0100
0010
0000
0001
,  // measure 11
0000
1000
0001
0000
0100
0001
0100
0000
,  // measure 12
0010
1000
0000
0001
1000
0001
0000
0010
,  // measure 13
0000
0100
0010
0000
0100
1000
0001
0100
,  // measure 14
0001
1000
0000
0100
0010
0100
0000
1000
,  // measure 15
0000
0001
1000
0000
0010
1000
0010
0000
,  // measure 16
0100
0001
0000
1000
0001
1000
0000
0100
,  // measure 17
0000
0010
0100
0000
0010
0001
1000
0010
,  // measure 18
0100
0010
0000
1000
0001
0000
1000
0000
,  // measure 19
0100
1000
0100
0000
0010
0002
0000
0000
,  // measure 20
1003
0010
0100
0010
0100
0000
0001
1000
,  // measure 21
0100
0010
0100
0000
0010
0200
0000
0000
,  // measure 22
1300
0002
0000
0103
0010
1000
0001
0000
,  // measure 23
0020
0000
0130
1000
0001
0000
0100
0010
,  // measure 24
0000
0100
0001
0010
0100
0000
1000
0000
,  // measure 25
0001
1000
0001
1001
,  // measure 26
0100
0000
0010
0000
0001
1000
0100
0000
,  // measure 27
0010
0000
0001
0000
0011
0000
1000
0010
,  // measure 28
0100
0000
0001
0000
0010
0100
1000
0000
,  // measure 29
0001
0100
0010
0000
1010
0000
0101
0001
,  // measure 30
1000
0000
0001
0000
1000
0001
0010
0000
,  // measure 31
0100
0010
0100
0010
0100
0000
1001
0000
,  // measure 32
0010
0000
0000
0000
0100
0000
0000
0000
1000
0000
0000
0001
0000
0000
1000
0000
,  // measure 33
0000
0000
0001
0000
0000
1000
0000
0000
2002
0000
0000
0000
3003
0000
0000
0000
,  // measure 34
0010
0000
0011
0000
0001
1000
0010
0000
,  // measure 35
0100
0000
0101
0000
0001
1000
0100
0000
,  // measure 36
0010
0011
1000
1010
,  // measure 37
0001
0100
0110
1001
,  // measure 38
0001
0010
0001
0010
0100
0000
0110
0000
,  // measure 39
1000
0010
1000
0010
0100
0000
0110
0000
,  // measure 40
0001
0010
0100
0000
1000
0100
0010
0000
,  // measure 41
0001
0000
0010
0100
0020
0000
0030
0000
,  // measure 42
0100
0000
1100
0000
1000
0001
0100
0000
,  // measure 43
0010
0000
1010
0000
1000
0001
0010
0000
,  // measure 44
0100
1100
0001
0101
,  // measure 45
1000
0010
0110
1001
,  // measure 46
1000
0100
1000
0100
0010
0000
0110
0000
,  // measure 47
0001
0100
0001
0100
0010
0000
0110
0000
,  // measure 48
1000
0010
0100
0000
0001
0100
0010
0000
,  // measure 49
1000
0010
0100
0001
0100
0000
0110
0000
,  // measure 50
0001
0010
0110
1100
,  // measure 51
0020
0100
2030
0100
,  // measure 52
3001
0010
0011
1001
,  // measure 53
0100
0010
2020
3030
,  // measure 54
0001
0010
0000
0100
0010
0100
0000
1000
,  // measure 55
0000
0001
1000
0000
0010
1000
0010
0000
,  // measure 56
0100
0001
0000
1000
0001
1000
0000
0100
,  // measure 57
0000
0010
0100
0000
0010
0001
1000
0010
,  // measure 58
1000
0100
0000
0010
0100
0010
0000
0001
,  // measure 59
0000
1000
0001
0000
0100
0001
0100
0000
,  // measure 60
0010
1000
0000
0001
1000
0001
0000
0010
,  // measure 61
0100
1000
0100
1000
0001
0100
0001
0100
,  // measure 62
0010
0100
0010
0000
0000
1000
0001
0000
,  // measure 63
0000
0010
0100
1000
0001
0100
0010
0000
,  // measure 64
0100
0010
0100
0000
0000
0001
1000
0000
,  // measure 65
0000
0100
0010
0001
1000
0000
0110
0000
,  // measure 66
0001
0010
0001
1000
0001
0100
0010
1000
,  // measure 67
0000
0001
0010
0100
0000
0010
0001
0000
,  // measure 68
0001
0010
0001
0010
0100
1000
0100
1000
,  // measure 69
0000
0001
0000
2000
0000
0000
0000
3000
,  // measure 70
0001
0000
0100
0000
0010
1000
0001
0000
,  // measure 71
0010
0001
0100
0000
1010
0000
0101
0001
,  // measure 72
1000
0000
0100
0000
0001
0100
1000
0000
,  // measure 73
1010
0000
0001
0010
0100
0010
0001
0000
,  // measure 74
1000
0110
0101
1100
,  // measure 75
0001
0000
0110
0000
0001
1000
0001
0100
,  // measure 76
0010
1010
0101
1100
,  // measure 77
1000
0001
1000
0001
2002
3003
0000
0000
,  // measure 78
0100
0000
1100
0000
1000
0001
0100
0000
,  // measure 79
0010
0000
1010
0000
1000
0001
0010
0000
,  // measure 80
0100
1100
0001
0101
,  // measure 81
1000
0010
0110
1001
,  // measure 82
1000
0100
1000
0100
0010
0000
0110
0000
,  // measure 83
0001
0100
0001
0100
0010
0000
0110
0000
,  // measure 84
1000
0100
0010
0000
0001
0010
0100
0000
,  // measure 85
1000
0100
0010
0001
0020
0000
0130
0000
,  // measure 86
0010
0000
0011
0000
0001
1000
0010
0000
,  // measure 87
0100
0000
0101
0000
0001
1000
0100
0000
,  // measure 88
0010
0011
1000
1010
,  // measure 89
0001
0100
0110
1001
,  // measure 90
0001
0010
0001
0010
0100
0000
0110
0000
,  // measure 91
1000
0010
1000
0010
0100
0000
0110
0000
,  // measure 92
0001
0100
0010
0000
1000
0010
0100
0000
,  // measure 93
0001
0100
0010
1000
0010
0000
0110
0000
,  // measure 94
1000
0100
1000
0001
1000
0010
1000
0001
,  // measure 95
1000
1200
0301
1020
,  // measure 96
0031
0100
0001
1000
0001
0100
0010
1000
,  // measure 97
0001
0000
1000
0000
2200
0000
0000
3300
,  // measure 98
1000
0001
0100
0001
1000
0001
0010
0100
,  // measure 99
1000
0201
1300
1200
,  // measure 100
0301
0100
0001
1000
0001
0010
0100
1000
,  // measure 101
0001
1000
2002
0000
,  // measure 102
3003
0000
0000
0000
;

//---------------dance-single - ----------------
#NOTEDATA:;
#CHARTNAME:;
#STEPSTYPE:dance-single;
#DESCRIPTION:;
#CHARTSTYLE:;
#DIFFICULTY:Challenge;
#METER:8;
#RADARVALUES:0.469021,0.527966,0.428880,0.347541,0.007394,339.000000,58.000000,47.000000,424.000000,0.000000,0.000000,0.000000,0.000000,0.469021,0.527966,0.428880,0.347541,0.007394,339.000000,58.000000,47.000000,424.000000,0.000000,0.000000,0.000000,0.000000;
#CREDIT:;
#NOTES:
// measure 0
0000
0000
0000
0000
,  // measure 1
0000
0000
0000
0000
,  // measure 2
0000
0000
0000
0000
,  // measure 3
0000
0000
0000
0000
,  // measure 4
0000
0000
0000
0000
,  // measure 5
0000
0000
0000
0000
,  // measure 6
MMMM
1100
MMMM
0101
,  // measure 7
MMMM
1100
0101
1100
,  // measure 8
MMMM
0011
MMMM
1010
,  // measure 9
MMMM
0011
1010
0011
,  // measure 10
1000
0000
0001
0000
1000
0001
0100
0000
,  // measure 11
0010
0000
1000
0000
0010
0100
0010
0100
,  // measure 12
0001
0000
1000
0000
0001
1000
0100
0000
,  // measure 13
0010
0000
0001
0000
0010
0100
0010
0100
,  // measure 14
2000
0000
0010
0000
3001
1000
0100
0000
,  // measure 15
0010
0000
0001
0000
1000
0001
1000
0001
,  // measure 16
0200
0000
0010
0000
0301
1000
0100
0000
,  // measure 17
0010
0001
0010
0001
1000
0001
1000
0001
,  // measure 18
0200
0000
0310
MMMM
,  // measure 19
0001
0000
1000
0000
0100
0010
0100
0000
,  // measure 20
0020
0000
0031
MMMM
,  // measure 21
0001
0000
0100
0000
0010
1000
0100
0010
,  // measure 22
0002
0000
1003
MMMM
,  // measure 23
0100
0000
0010
0000
1000
0100
0010
0001
,  // measure 24
2000
0000
3010
MMMM
,  // measure 25
0001
1000
2002
3003
,  // measure 26
0001
0010
1000
0010
,  // measure 27
0001
0011
1000
1010
,  // measure 28
1000
0100
0001
0100
,  // measure 29
1000
1010
0001
0011
,  // measure 30
1000
0010
0001
0010
,  // measure 31
1000
1010
0001
0011
,  // measure 32
1000
0000
0000
0000
0100
0000
0000
0000
0010
0000
0000
0001
0000
0000
1000
0000
,  // measure 33
MMMM
0000
0110
0000
0000
0110
0000
0000
2002
0000
0000
0000
3003
0000
0000
0000
,  // measure 34
MMMM
1MMM
MMMM
1MMM
,  // measure 35
MMMM
MMM1
MMMM
MMM1
,  // measure 36
2000
0100
3002
0100
,  // measure 37
2003
0100
3002
0100
,  // measure 38
2000
0000
0000
0000
0000
0003
000M
000M
,  // measure 39
0002
0000
0000
0000
0000
3000
M000
M000
,  // measure 40
2000
0003
000M
000M
0002
3000
M003
0000
,  // measure 41
0101
1100
0101
1100
,  // measure 42
MMMM
MMM1
MMMM
MMM1
,  // measure 43
MMMM
1MMM
MMMM
1MMM
,  // measure 44
0002
0100
2003
0100
,  // measure 45
3002
0100
2003
0100
,  // measure 46
0002
0000
0000
0000
0000
3000
M000
M000
,  // measure 47
2000
0000
0000
0000
0000
0003
000M
000M
,  // measure 48
0002
3000
M000
M000
2000
0003
300M
0000
,  // measure 49
0101
1100
0101
1100
,  // measure 50
1000
0001
1000
0001
,  // measure 51
0011
0011
1100
1100
,  // measure 52
0001
1000
0001
1000
,  // measure 53
1010
1010
0202
0303
,  // measure 54
1000
MMMM
1000
MMMM
0001
MMMM
0001
MMMM
,  // measure 55
1000
MMMM
0001
MMMM
1000
MMMM
1000
MMMM
,  // measure 56
0001
MMMM
0001
MMMM
1000
MMMM
1000
MMMM
,  // measure 57
0001
MMMM
1000
MMMM
0001
MMMM
0001
MMMM
,  // measure 58
1000
MMMM
1000
MMMM
0001
MMMM
0001
MMMM
,  // measure 59
1000
MMMM
0001
MMMM
1000
MMMM
1000
MMMM
,  // measure 60
0001
MMMM
0001
MMMM
1000
MMMM
1000
MMMM
,  // measure 61
0001
MMMM
1000
MMMM
0001
MMMM
0001
MMMM
,  // measure 62
0100
0110
0000
1001
,  // measure 63
0000
0110
1001
0110
,  // measure 64
1001
1001
0000
0110
,  // measure 65
0000
1001
0110
1001
,  // measure 66
0001
0010
0100
0000
,  // measure 67
1000
0000
0001
0000
0100
0001
0100
0001
,  // measure 68
1000
0100
0010
0000
,  // measure 69
0001
0000
1000
0000
0001
0100
0001
0100
,  // measure 70
0010
1000
0001
0000
,  // measure 71
0010
0000
0001
0000
0100
0010
0100
0010
,  // measure 72
1000
0010
0100
0000
,  // measure 73
0001
0000
1000
0001
1000
0001
0100
0000
,  // measure 74
0010
1000
0001
0000
,  // measure 75
0010
0000
0001
0000
0100
0010
0100
0010
,  // measure 76
1000
0001
1000
0100
,  // measure 77
1000
0001
1000
0001
2000
0000
3000
0000
,  // measure 78
MMMM
MMM1
MMMM
MMM1
,  // measure 79
MMMM
1MMM
MMMM
1MMM
,  // measure 80
0002
0100
2003
0100
,  // measure 81
3002
0100
2003
0100
,  // measure 82
0002
0000
0000
0000
0000
3000
M000
M000
,  // measure 83
2000
0000
0000
0000
0000
0003
000M
000M
,  // measure 84
0002
3000
M000
M000
2000
0003
300M
0000
,  // measure 85
1100
0101
1100
0101
,  // measure 86
MMMM
1MMM
MMMM
1MMM
,  // measure 87
MMMM
MMM1
MMMM
MMM1
,  // measure 88
2000
0100
3002
0100
,  // measure 89
2003
0100
3002
0100
,  // measure 90
2000
0000
0000
0000
0000
0003
000M
000M
,  // measure 91
0002
0000
0000
0000
0000
3000
M000
M000
,  // measure 92
2000
0003
000M
000M
0002
3000
M003
0000
,  // measure 93
1100
0101
1100
0101
,  // measure 94
1000
MMMM
0100
MMMM
0010
MMMM
0001
MMMM
,  // measure 95
1000
MMMM
0100
MMMM
0010
MMMM
0001
MMMM
,  // measure 96
1000
MMMM
0010
MMMM
0100
MMMM
0001
MMMM
,  // measure 97
1000
MMMM
0010
MMMM
0110
0000
0000
0000
,  // measure 98
0001
MMMM
0100
MMMM
0010
MMMM
1000
MMMM
,  // measure 99
0001
MMMM
0100
MMMM
0010
MMMM
1000
MMMM
,  // measure 100
0001
MMMM
0010
MMMM
0100
MMMM
1000
MMMM
,  // measure 101
1001
MMMM
0110
MMMM
2002
0000
0000
0000
,  // measure 102
3003
0000
0000
0000
;

//---------------dance-single - ----------------
#NOTEDATA:;
#CHARTNAME:;
#STEPSTYPE:dance-single;
#DESCRIPTION:;
#CHARTSTYLE:;
#DIFFICULTY:Easy;
#METER:4;
#RADARVALUES:0.361273,0.414830,0.096128,0.162679,0.000000,307.000000,13.000000,22.000000,0.000000,0.000000,0.000000,0.000000,0.000000,0.361273,0.414830,0.096128,0.162679,0.000000,307.000000,13.000000,22.000000,0.000000,0.000000,0.000000,0.000000,0.000000;
#CREDIT:;
#NOTES:
// measure 0
0000
0000
0000
0000
,  // measure 1
0000
0000
0000
0000
,  // measure 2
0000
0000
0000
0000
,  // measure 3
0000
0000
0000
0000
,  // measure 4
0000
0000
0000
0000
,  // measure 5
0000
0000
0000
0000
,  // measure 6
0000
1000
0000
0001
,  // measure 7
0000
1000
0001
1000
,  // measure 8
0000
0001
0000
1000
,  // measure 9
0000
0001
1000
0001
,  // measure 10
0020
0100
0000
0100
,  // measure 11
0000
0100
0000
0100
,  // measure 12
0032
1000
0000
1000
,  // measure 13
0000
1003
0001
1000
,  // measure 14
0020
0100
0000
0100
,  // measure 15
0000
0100
0000
0100
,  // measure 16
2030
0100
0000
3100
,  // measure 17
0010
0001
1000
0001
,  // measure 18
0100
0000
0010
0000
,  // measure 19
1000
0001
0100
0001
,  // measure 20
1000
0000
0100
0000
,  // measure 21
0010
0000
0001
1000
,  // measure 22
0010
0000
0100
0000
,  // measure 23
0001
1000
0100
1000
,  // measure 24
0001
0000
0010
0000
,  // measure 25
0100
0010
0110
0110
,  // measure 26
1000
0100
0010
0001
,  // measure 27
1000
0100
0010
0000
,  // measure 28
0001
0010
0100
1000
,  // measure 29
0001
0010
0100
0000
,  // measure 30
1000
0010
0100
0001
,  // measure 31
1000
0010
0100
0000
,  // measure 32
0001
1000
0001
1000
,  // measure 33
0000
0000
2002
3003
,  // measure 34
0001
0001
0000
1000
,  // measure 35
0100
0100
0000
0010
,  // measure 36
0001
0010
0100
1000
,  // measure 37
0000
0001
0100
0010
,  // measure 38
0100
0100
0100
0000
,  // measure 39
0001
0001
0001
0000
,  // measure 40
1000
1000
0001
0001
,  // measure 41
1000
0001
2002
3003
,  // measure 42
1000
0001
0000
1000
,  // measure 43
0100
0010
0000
0100
,  // measure 44
0010
0001
1000
0001
,  // measure 45
0000
0100
0010
1000
,  // measure 46
0001
0001
0001
0000
,  // measure 47
1000
1000
1000
0000
,  // measure 48
0100
0100
0010
0010
,  // measure 49
0001
1000
0001
1000
,  // measure 50
1001
0001
1000
0001
,  // measure 51
0200
0300
0020
0030
,  // measure 52
1000
0001
1000
0100
,  // measure 53
0010
0001
0022
0033
,  // measure 54
1000
0000
0001
0000
,  // measure 55
1000
0001
0100
0010
,  // measure 56
1000
0000
0001
0000
,  // measure 57
0100
0010
1000
0100
,  // measure 58
0010
0000
0001
0000
,  // measure 59
1000
1000
0001
0010
,  // measure 60
0100
0000
0010
0000
,  // measure 61
0001
1000
0001
1000
,  // measure 62
0010
0010
0000
0100
,  // measure 63
0000
0010
0100
0010
,  // measure 64
1000
1000
0000
0001
,  // measure 65
0000
1000
0001
1000
,  // measure 66
0020
0000
0230
0000
,  // measure 67
0301
1000
0100
1000
,  // measure 68
0020
0000
0230
0000
,  // measure 69
0301
1000
1100
0000
,  // measure 70
1000
0100
0010
0001
,  // measure 71
1000
0100
0010
0000
,  // measure 72
0001
0100
0010
1000
,  // measure 73
0001
0100
0100
0100
,  // measure 74
0010
1000
0100
0010
,  // measure 75
0001
1000
0100
0000
,  // measure 76
0010
0001
1000
0001
,  // measure 77
0100
0010
0110
0000
,  // measure 78
1000
1000
0000
0001
,  // measure 79
0010
0010
0000
0100
,  // measure 80
1000
0100
0010
0001
,  // measure 81
0000
1000
0010
0100
,  // measure 82
0010
0010
0010
0000
,  // measure 83
1000
1000
1000
0000
,  // measure 84
0001
0001
1000
1000
,  // measure 85
0001
1000
2002
3003
,  // measure 86
0001
1000
0000
0001
,  // measure 87
0010
0100
0000
0010
,  // measure 88
0100
1000
0001
1000
,  // measure 89
0000
0010
0100
0001
,  // measure 90
1000
1000
1000
0000
,  // measure 91
0001
0001
0001
0000
,  // measure 92
0010
0010
0100
0100
,  // measure 93
1000
0001
1000
0001
,  // measure 94
1001
0001
0100
0100
,  // measure 95
0020
1030
0002
1003
,  // measure 96
0100
0010
0001
1000
,  // measure 97
0010
0100
0110
0000
,  // measure 98
1000
0001
1000
0100
,  // measure 99
0010
0001
1000
0001
,  // measure 100
0100
0100
0010
0100
,  // measure 101
0010
0110
2002
0000
,  // measure 102
3003
0000
0000
0000
;
