#VERSION:0.83;
#TITLE:Lojetek Fel;
#SUBTITLE:;
#ARTIST:Leander Rising;
#TITLETRANSLIT:;
#SUBTITLETRANSLIT:;
#ARTISTTRANSLIT:;
#GENRE:;
#ORIGIN:;
#CREDIT:;
#BANNER:[Unenglish] - Lojetek Fel.png;
#BACKGROUND:[Unenglish] - Lojetek Fel-bg.png;
#PREVIEWVID:;
#JACKET:[Unenglish] - Lojetek Fel-jacket.png;
#CDIMAGE:;
#DISCIMAGE:;
#LYRICSPATH:;
#CDTITLE:;
#MUSIC:[Unenglish] - Lojetek Fel.ogg;
#OFFSET:-0.090000;
#SAMPLESTART:50.466999;
#SAMPLELENGTH:12.000000;
#SELECTABLE:YES;
#BPMS:0.000=138.000;
#STOPS:111.500=0.870;
#DELAYS:;
#WARPS:;
#TIMESIGNATURES:0.000=4=4;
#TICKCOUNTS:0.000=4;
#COMBOS:0.000=1;
#SPEEDS:0.000=1.000=0.000=0;
#SCROLLS:0.000=1.000;
#FAKES:;
#LABELS:0.000=Song Start;
#BGCHANGES:;
#KEYSOUNDS:;
#ATTACKS:
;

//---------------dance-single - ----------------
#NOTEDATA:;
#CHARTNAME:;
#STEPSTYPE:dance-single;
#DESCRIPTION:;
#CHARTSTYLE:;
#DIFFICULTY:Beginner;
#METER:1;
#RADARVALUES:0.121777,0.139563,0.009266,0.092656,0.000000,92.000000,91.000000,1.000000,10.000000,0.000000,0.000000,0.000000,0.000000,0.000000,0.121777,0.139563,0.009266,0.092656,0.000000,92.000000,91.000000,1.000000,10.000000,0.000000,0.000000,0.000000,0.000000,0.000000;
#CREDIT:;
#NOTES:
0000
0000
0000
0000
,
0000
0000
0000
0000
,
0000
0000
0000
0000
,
0000
0000
0000
0000
,
0000
0010
0000
0100
,
0000
0001
0000
0001
,
0000
1000
0000
0010
,
0000
0000
0100
0100
,
0000
0000
0000
0000
,
0000
0000
0000
0000
,
0010
0000
0000
0000
,
0100
0000
0000
0000
,
0001
0000
0000
0000
,
0000
0000
0000
0000
,
1000
0000
0000
0000
,
0010
0000
0000
0000
,
0100
0000
0100
0000
,
0010
0000
0010
0000
,
1000
0000
0001
0000
,
0100
0000
0001
0000
,
0010
0000
0001
0000
,
1000
0000
0100
0000
,
1000
0000
0010
0000
,
1000
0000
0001
0000
,
0100
0000
0000
0000
,
0010
0000
0000
0000
,
1000
0000
0000
0000
0000
0000
0000
1001
,
0000
0000
0000
0000
,
0000
0000
0100
0000
,
0010
0000
1000
0000
,
0100
0000
1000
0000
,
0001
0000
0010
0000
,
0001
0000
0100
0000
,
0001
0000
1000
0000
,
0100
0000
1000
0000
,
0010
0000
0100
0000
,
0001
0000
2000
0000
,
0000
3000
0002
0000
,
0000
0003
0020
0000
,
0000
0030
0200
0000
,
0000
0300
2000
0000
,
0000
3000
0020
0000
,
0000
0030
2000
0000
,
0000
3000
0001
0000
,
1000
0000
0100
0000
,
0100
0000
0010
0000
,
0010
0000
0001
0000
,
0001
0000
1000
0000
,
1000
0000
0100
0000
,
0100
0000
1000
0000
,
1000
0000
0010
0000
,
0010
0000
0100
0000
,
0100
0000
0001
0000
,
0001
0000
0001
0000
,
0200
0300
0100
0000
,
0100
0000
0100
0000
,
2000
3000
1000
0000
,
1000
0000
0001
0000
,
0020
0030
0010
0000
,
0100
0000
0100
0000
,
0001
0001
0000
0000
;

//---------------dance-single - ----------------
#NOTEDATA:;
#CHARTNAME:;
#STEPSTYPE:dance-single;
#DESCRIPTION:;
#CHARTSTYLE:;
#DIFFICULTY:Easy;
#METER:4;
#RADARVALUES:0.231640,0.279126,0.101922,0.203843,0.000000,175.000000,164.000000,11.000000,22.000000,0.000000,0.000000,0.000000,0.000000,0.000000,0.231640,0.279126,0.101922,0.203843,0.000000,175.000000,164.000000,11.000000,22.000000,0.000000,0.000000,0.000000,0.000000,0.000000;
#CREDIT:;
#NOTES:
// measure 0
0000
0000
0000
0000
,  // measure 1
0000
0000
0000
0000
,  // measure 2
0000
0000
0000
0000
,  // measure 3
0000
0000
0000
0000
,  // measure 4
0100
0100
0010
0010
,  // measure 5
1000
0100
2000
3000
,  // measure 6
0001
0100
0001
0010
,  // measure 7
0100
1000
0002
0003
,  // measure 8
0200
0000
0000
0000
,  // measure 9
0000
0000
0000
0300
,  // measure 10
0020
0000
0000
0030
,  // measure 11
2000
0000
0001
0000
,  // measure 12
3002
0000
0000
0000
,  // measure 13
0203
0000
0000
0000
,  // measure 14
0320
0000
0000
0000
,  // measure 15
2030
0000
0100
0000
,  // measure 16
3100
0010
0001
0100
,  // measure 17
0001
0010
0100
1000
,  // measure 18
0010
1000
0100
1000
,  // measure 19
0001
0100
0001
0010
,  // measure 20
0100
0010
0001
1000
,  // measure 21
0010
0100
0010
1000
,  // measure 22
0100
1000
0001
0100
,  // measure 23
0001
0010
0100
1000
,  // measure 24
1001
0000
0000
0001
0000
0000
0000
0001
,  // measure 25
0000
0000
0000
0100
,  // measure 26
0110
0000
0000
0100
0000
0000
0000
0200
,  // measure 27
0000
0000
0000
0000
0000
0000
0300
0010
,  // measure 28
0000
0000
0010
0100
,  // measure 29
0001
1000
0100
1000
,  // measure 30
0010
0100
0010
1000
,  // measure 31
0100
1000
0001
0100
,  // measure 32
0001
0010
0001
0100
,  // measure 33
0010
1000
0100
1000
,  // measure 34
0001
0100
0001
1000
,  // measure 35
0100
0010
0001
0100
,  // measure 36
0010
1000
0200
0000
,  // measure 37
2300
0000
3020
0000
,  // measure 38
0230
0000
0302
0000
,  // measure 39
2003
0000
3200
0000
,  // measure 40
2300
0000
3020
0000
,  // measure 41
0230
0000
0302
0000
,  // measure 42
2003
0000
3100
1000
,  // measure 43
0100
1000
0010
0010
,  // measure 44
0100
0100
0001
0000
,  // measure 45
1001
0000
0010
0000
,  // measure 46
0110
0000
0001
0000
,  // measure 47
0101
0000
1000
0000
,  // measure 48
1100
0000
0010
0000
,  // measure 49
0011
0000
0001
0000
,  // measure 50
0101
0000
0100
0000
,  // measure 51
1001
0000
1000
0000
,  // measure 52
1100
0100
0010
0001
,  // measure 53
0100
0001
0010
0100
,  // measure 54
1000
0010
1000
0001
,  // measure 55
0100
0001
1000
0100
,  // measure 56
1000
0010
0100
0001
,  // measure 57
0010
0100
1000
0100
,  // measure 58
0010
0001
0100
0001
,  // measure 59
1000
0100
0010
0001
,  // measure 60
1001
1000
0000
0000
;

//---------------dance-single - ----------------
#NOTEDATA:;
#CHARTNAME:;
#STEPSTYPE:dance-single;
#DESCRIPTION:;
#CHARTSTYLE:;
#DIFFICULTY:Medium;
#METER:6;
#RADARVALUES:0.361359,0.418690,0.101922,0.055594,0.004633,273.000000,262.000000,11.000000,6.000000,0.000000,0.000000,0.000000,0.000000,0.000000,0.361359,0.418690,0.101922,0.055594,0.004633,273.000000,262.000000,11.000000,6.000000,0.000000,0.000000,0.000000,0.000000,0.000000;
#CREDIT:;
#NOTES:
// measure 0
0000
0000
0000
0000
,  // measure 1
0000
0000
0000
0000
,  // measure 2
0000
0000
0000
0000
,  // measure 3
0000
0000
0000
0000
,  // measure 4
1000
0100
1000
0000
0001
0100
0001
0000
,  // measure 5
0010
0100
0010
0001
,  // measure 6
1000
0001
1000
0000
0010
0100
0010
0000
,  // measure 7
1000
0010
0100
0001
,  // measure 8
1000
0000
0000
0100
0000
0000
0010
0000
,  // measure 9
0000
0001
0000
0000
1000
0000
0000
0000
,  // measure 10
0002
0000
0000
0000
,  // measure 11
0203
0000
0010
0000
,  // measure 12
0320
0000
0000
0000
,  // measure 13
2030
0000
0000
0100
0000
0000
0000
0000
,  // measure 14
0002
3000
0000
0000
,  // measure 15
0100
0000
0100
0000
,  // measure 16
0103
0000
0010
0000
1000
0000
0100
1000
,  // measure 17
0100
0000
0010
0000
0001
0000
0100
0001
,  // measure 18
0100
0000
0010
0000
1000
0000
0100
1000
,  // measure 19
0100
0000
0010
0000
0001
0000
0100
0001
,  // measure 20
0100
0000
0010
0000
1000
0000
0100
1000
,  // measure 21
0010
0000
0100
0000
0001
0000
0100
0001
,  // measure 22
0010
0000
0100
0000
1000
0000
0010
1000
,  // measure 23
0100
0010
0001
0100
,  // measure 24
0001
0000
0000
1000
0000
0100
1000
0100
,  // measure 25
0000
0000
0010
0000
0100
0010
0010
0000
,  // measure 26
0001
0000
0010
0001
0010
0000
0001
0100
,  // measure 27
0000
0001
0100
0001
0100
0001
0100
0002
,  // measure 28
0103
0001
0100
0001
0100
0000
0010
1000
,  // measure 29
0000
0100
1000
0000
0100
0010
0000
0001
,  // measure 30
0000
0100
0001
0000
1000
0000
0100
1000
,  // measure 31
0000
0010
0000
0100
0000
0010
1000
0000
,  // measure 32
0001
0100
0001
0000
1000
0000
0100
0010
,  // measure 33
0001
0000
0100
0000
0001
0000
1000
0100
,  // measure 34
0000
1000
0000
0100
0010
0001
0000
0010
,  // measure 35
0001
0100
0010
1000
,  // measure 36
0010
0100
0001
1000
0001
0000
1000
0100
,  // measure 37
0010
0000
0100
0000
1000
0000
0001
0100
,  // measure 38
0001
0000
0010
0000
0100
0000
1000
0010
,  // measure 39
0100
0000
0010
0000
1000
0000
0001
0100
,  // measure 40
0001
0000
1000
0000
0100
0000
0010
0100
,  // measure 41
1000
0000
0010
0000
1000
0000
0001
0100
,  // measure 42
0001
0000
0010
0000
0100
0000
1000
0100
,  // measure 43
0010
0000
0001
0000
1000
1000
1000
0010
,  // measure 44
0010
0010
0100
0000
0001
0100
0001
0000
,  // measure 45
1000
0100
1000
0000
0100
0000
0010
0000
,  // measure 46
0011
0000
0100
0000
0001
1000
0100
0000
,  // measure 47
1000
0100
0010
0000
0001
0000
0010
0000
,  // measure 48
0110
0000
1000
0000
0100
1000
0010
0000
,  // measure 49
1000
0001
0100
0000
0001
0000
0010
0000
,  // measure 50
0011
0000
0100
0000
1000
0100
0010
0000
,  // measure 51
0001
1000
0010
0000
0100
0000
0010
0000
,  // measure 52
1010
0000
0100
0000
0001
1000
0100
0000
,  // measure 53
1000
0100
0010
0000
0000
0000
0011
0000
,  // measure 54
0010
0000
0110
0000
0100
1000
0010
0000
,  // measure 55
1000
0010
0100
0000
0001
0000
0101
0000
,  // measure 56
1000
0000
1100
0000
1000
0100
0010
0000
,  // measure 57
0001
0010
0100
0000
1000
0000
0001
0000
,  // measure 58
0101
0000
1000
0000
0100
1000
0010
0000
,  // measure 59
0100
0000
0001
0000
1000
0000
0000
0000
0001
0000
0000
1000
0000
0000
0001
0000
,  // measure 60
1001
1001
0000
0000
;

//---------------dance-single - ----------------
#NOTEDATA:;
#CHARTNAME:;
#STEPSTYPE:dance-single;
#DESCRIPTION:;
#CHARTSTYLE:;
#DIFFICULTY:Hard;
#METER:9;
#RADARVALUES:0.635356,0.699264,0.324296,0.157515,0.324296,480.000000,445.000000,35.000000,17.000000,0.000000,0.000000,0.000000,0.000000,0.000000,0.635356,0.699264,0.324296,0.157515,0.324296,480.000000,445.000000,35.000000,17.000000,0.000000,0.000000,0.000000,0.000000,0.000000;
#CREDIT:;
#NOTES:
// measure 0
0000
0000
0000
0000
,  // measure 1
0000
0000
0000
0000
,  // measure 2
0000
0000
0000
0000
,  // measure 3
0000
0000
0000
0000
,  // measure 4
1000
0100
0010
0000
0100
0000
1000
0000
0010
0100
0010
0000
1000
0000
0001
0000
,  // measure 5
0101
0000
0000
1100
0000
0000
0010
0000
0001
0000
1000
0000
0010
0000
0100
0000
,  // measure 6
0001
0010
0100
0000
1000
0000
0010
0000
0100
0010
1000
0000
0100
0000
0010
0000
,  // measure 7
0011
0000
0000
0110
0000
0000
0100
0000
1000
0000
0001
0000
0010
0001
0010
0000
,  // measure 8
0002
0000
0000
0203
0000
0000
0020
0300
,  // measure 9
0000
0000
2000
0000
0030
0000
0000
0000
0100
3000
0000
1000
0000
0000
0020
0000
,  // measure 10
0100
0000
0000
0000
0000
0000
0030
0100
,  // measure 11
0002
0000
0000
0000
0000
0000
1000
0000
0000
0000
0000
0000
0013
0000
0001
1000
,  // measure 12
0002
0000
0000
0000
,  // measure 13
0020
0003
0000
0000
0032
0000
0000
0023
0000
0000
0000
0000
0000
0230
0000
0000
,  // measure 14
2000
0000
0000
0000
0000
0000
3300
0010
,  // measure 15
2000
0000
3002
0000
0013
0100
1000
0000
,  // measure 16
1100
0000
0100
0000
1000
0000
0100
0000
1000
0000
0100
0000
1000
0100
1000
0100
,  // measure 17
0010
0000
0100
0000
0010
0000
0100
0000
0010
0000
0100
0000
0010
0100
0010
0100
,  // measure 18
1000
0000
0001
0000
1000
0000
0001
0000
1000
0000
0001
0000
1000
0001
1000
0001
,  // measure 19
0100
0000
0001
0000
0100
0000
0001
0000
0100
0000
0001
0000
0100
0001
0100
0001
,  // measure 20
1000
0000
0100
0000
1000
0000
0100
0000
1000
0000
0100
0000
1000
0100
1000
0100
,  // measure 21
0010
0000
0001
0000
0010
0000
0001
0000
0010
0000
0001
0000
0010
0001
0010
0001
,  // measure 22
1000
0000
0010
0000
1000
0000
0010
0000
1000
0000
0010
0000
1000
0010
1000
0010
,  // measure 23
0100
0101
0001
1001
1000
1010
1010
1000
,  // measure 24
0010
0000
1000
1010
0000
0010
0100
0101
,  // measure 25
1000
0100
0010
0001
1000
1001
1001
0000
,  // measure 26
0101
0000
0001
1001
0000
0010
0100
1200
,  // measure 27
0000
1000
1000
1000
1000
1000
1300
1200
,  // measure 28
1300
0100
0010
0001
0011
0010
0100
1000
,  // measure 29
0010
0100
0001
0100
0010
1000
0100
1000
,  // measure 30
0010
0100
0001
1000
0001
0010
0100
1000
,  // measure 31
0100
0010
0001
1000
0010
0100
0010
1000
,  // measure 32
0100
0010
0001
0100
0001
1000
0010
0100
,  // measure 33
0001
1000
0100
0010
0001
1000
0010
0100
,  // measure 34
0010
1000
0100
0010
0100
0200
0000
1000
,  // measure 35
1000
0300
0000
0000
1001
0000
0000
0000
0001
0000
0100
0000
0001
0000
1000
0000
,  // measure 36
0110
0110
0110
1000
0001
0100
0001
0010
,  // measure 37
0100
1000
0010
0100
0010
1000
0001
0100
,  // measure 38
0001
0000
1000
0000
0010
0100
0010
1000
0010
0000
0100
0000
0001
0000
1000
0000
,  // measure 39
0001
0010
0100
1000
0100
0010
0001
1000
,  // measure 40
0100
0000
0010
0000
0001
0010
0100
0010
0001
0000
0010
0000
0100
0000
1000
0000
,  // measure 41
0010
0100
0010
1000
0100
0010
0100
1000
,  // measure 42
0001
0000
0100
0000
0001
0010
0001
1000
0100
0000
0010
0000
0100
0000
1000
0000
,  // measure 43
0010
0000
0100
0000
0001
0000
1000
0000
0001
0100
0001
0100
0001
0000
1000
0010
,  // measure 44
1000
0010
1000
0000
0110
0000
0000
0000
0010
1000
0010
0000
0100
0000
0001
0000
,  // measure 45
0010
0100
1000
0000
0100
0000
0010
0000
0011
0000
0000
0110
0000
0000
1000
0000
,  // measure 46
0010
0000
0100
0000
0001
0000
1000
0000
0100
0010
0100
0000
1000
0000
0010
0000
,  // measure 47
0100
0001
1000
0000
0100
0000
0010
0000
1100
0000
0000
1010
0000
0000
1000
0000
,  // measure 48
0010
0000
0100
0000
0001
0000
0010
0000
0100
0010
0001
0000
1000
0000
0010
0000
,  // measure 49
0100
0010
1000
0000
0100
0000
0010
0000
1100
0000
0000
1001
0000
0000
0100
0000
,  // measure 50
0001
0000
0010
0000
0100
0000
1000
0000
0100
0010
0001
0000
1000
0000
0010
0000
,  // measure 51
0100
0010
1000
0000
0100
0000
0010
0000
0011
0000
0000
0110
0000
0000
1000
0000
,  // measure 52
0100
0000
0010
0000
0001
0000
1000
0000
0001
0100
0000
0001
0100
0000
0010
0000
,  // measure 53
1000
0100
0000
1000
0100
0000
0010
0000
0001
0010
0000
0001
0010
0000
0100
0000
,  // measure 54
1000
0000
0010
0000
0100
0000
0001
0000
1000
0100
0000
1000
0100
0000
0010
0000
,  // measure 55
0001
0010
0000
0001
0010
0000
0100
0000
0010
0100
0000
0010
0100
0000
1000
0000
,  // measure 56
0010
0000
1000
0000
0001
0000
0100
0000
0001
0010
0000
0001
0010
0000
0100
0000
,  // measure 57
1000
0010
0000
1000
0010
0000
0100
0000
0001
1000
0000
0001
1000
0000
0100
0000
,  // measure 58
0010
0000
0100
0000
1000
0000
0010
0000
0100
0001
0000
0100
0001
0000
1000
0000
,  // measure 59
0100
1000
0000
0100
1000
0000
0100
0000
0011
0000
0000
0110
0000
0000
1000
0000
,  // measure 60
1100
0010
1001
0001
0000
0000
0000
0000
;
