#VERSION:0.83;
#TITLE:Les Parfums de L'Amour;
#SUBTITLE:;
#ARTIST:naotyu- feat. Miyu;
#TITLETRANSLIT:;
#SUBTITLETRANSLIT:;
#ARTISTTRANSLIT:;
#GENRE:;
#ORIGIN:;
#CREDIT:;
#BANNER:[Unenglish] - Les Parfums de L'Amour.png;
#BACKGROUND:[Unenglish] - Les Parfums de L'Amour-bg.png;
#PREVIEWVID:;
#JACKET:[Unenglish] - Les Parfums de L'Amour-jacket.png;
#CDIMAGE:;
#DISCIMAGE:;
#LYRICSPATH:[Unenglish] - Les Parfums de L'Amour.lrc;
#CDTITLE:cdtitle.png;
#MUSIC:[Unenglish] - Les Parfums de L'Amour.ogg;
#OFFSET:0.000000;
#SAMPLESTART:52.620182;
#SAMPLELENGTH:15.999996;
#SELECTABLE:YES;
#BPMS:0.000=240.000,
180.000=224.000,
184.000=220.000,
188.000=180.000,
192.000=150.000,
196.000=133.000,
200.000=240.000,
393.000=215.000,
397.000=190.000,
401.000=154.000,
403.000=120.000,
404.000=240.000,
420.000=180.000;
#STOPS:328.000=0.750;
#DELAYS:;
#WARPS:;
#TIMESIGNATURES:0.000=4=4;
#TICKCOUNTS:0.000=4;
#COMBOS:0.000=1;
#SPEEDS:0.000=1.000=0.000=0;
#SCROLLS:0.000=1.000;
#FAKES:;
#LABELS:0.000=Song Start;
#BGCHANGES:0.000=[Unenglish] - Les Parfums de L'Amour-bg.png=1.000=0=0=1=====,
99999=-nosongbg-=1.000=0=0=0 // don't automatically add -songbackground-
;
#KEYSOUNDS:;
#ATTACKS:
;

//---------------dance-single - ----------------
#NOTEDATA:;
#CHARTNAME:C 02 - X 04;
#STEPSTYPE:dance-single;
#DESCRIPTION:;
#CHARTSTYLE:;
#DIFFICULTY:Beginner;
#METER:2;
#RADARVALUES:0.114564,0.226580,0.049605,0.148814,0.000000,97.000000,91.000000,6.000000,18.000000,0.000000,0.000000,0.000000,0.000000,0.000000,0.114564,0.226580,0.049605,0.148814,0.000000,97.000000,91.000000,6.000000,18.000000,0.000000,0.000000,0.000000,0.000000,0.000000;
#CREDIT:vincentw;
#NOTES:
// measure 0
0000
0000
0000
0000
,  // measure 1
0000
0000
0000
0000
,  // measure 2
0000
0000
0000
0000
,  // measure 3
0000
0000
0000
0000
,  // measure 4
0000
0000
0000
0000
,  // measure 5
0000
0000
0000
0000
,  // measure 6
0000
0000
0000
0000
,  // measure 7
0000
0000
0000
0000
,  // measure 8
0000
1001
0000
0000
,  // measure 9
0001
0000
0000
0000
,  // measure 10
0000
0000
0000
0000
,  // measure 11
1000
0000
0000
0000
,  // measure 12
0000
0000
0000
0000
,  // measure 13
0010
0000
0000
0000
,  // measure 14
0000
0000
0000
0000
,  // measure 15
0100
0000
0000
0000
,  // measure 16
0000
0000
0000
0000
,  // measure 17
0001
0000
0000
0000
,  // measure 18
0000
0000
0000
0000
,  // measure 19
1000
0000
0000
0000
,  // measure 20
0000
0000
0000
0000
,  // measure 21
0100
0000
0000
0000
,  // measure 22
0000
0000
0000
0000
,  // measure 23
0010
0000
0000
0000
,  // measure 24
0000
0110
0000
0000
,  // measure 25
0001
0000
0000
0000
,  // measure 26
0001
0000
0000
0000
,  // measure 27
1000
0000
0000
0000
,  // measure 28
1000
0000
0000
0000
,  // measure 29
0010
0000
0000
0000
,  // measure 30
0010
0000
0000
0000
,  // measure 31
0100
0000
0000
0100
,  // measure 32
0000
0000
0000
0000
,  // measure 33
0001
0000
0000
0000
,  // measure 34
0001
0000
0000
0000
,  // measure 35
0010
0000
0000
0000
,  // measure 36
0010
0000
0000
0000
,  // measure 37
0200
0000
0300
0000
,  // measure 38
0200
0000
0300
0000
,  // measure 39
1000
0000
1000
0000
,  // measure 40
1000
0000
0000
0000
,  // measure 41
0001
0000
0001
0000
,  // measure 42
0002
0000
0003
0000
,  // measure 43
0100
0000
0100
0000
,  // measure 44
0200
0000
0300
0000
,  // measure 45
0020
0000
0000
0030
,  // measure 46
2000
0000
3000
0000
,  // measure 47
0200
0000
0000
0300
,  // measure 48
0020
0000
0000
0000
,  // measure 49
0000
0000
0000
0030
,  // measure 50
0000
0000
0000
0000
,  // measure 51
0001
0000
0000
0000
,  // measure 52
1000
0000
0000
0000
,  // measure 53
0001
0000
0000
0000
,  // measure 54
1000
0000
0000
0000
,  // measure 55
0010
0000
0010
0000
,  // measure 56
0100
0000
0100
0000
,  // measure 57
0020
0000
0000
0030
,  // measure 58
0000
0110
0000
0000
,  // measure 59
1000
0000
0000
0000
,  // measure 60
0001
0000
0000
0000
,  // measure 61
1000
0000
0000
0000
,  // measure 62
0001
0000
0000
0000
,  // measure 63
0010
0000
0010
0000
,  // measure 64
0100
0000
0100
0000
,  // measure 65
0020
0000
0000
0000
,  // measure 66
0030
0000
0000
0000
,  // measure 67
0001
0000
0000
0000
,  // measure 68
0010
0000
0000
0000
,  // measure 69
0100
0000
0000
0000
,  // measure 70
2000
0000
0000
0000
0000
0000
0000
0000
0000
0000
0000
3000
,  // measure 71
0000
0000
0000
0000
,  // measure 72
0000
0000
0000
0000
,  // measure 73
0000
0000
0000
0000
,  // measure 74
0000
0000
0000
0000
,  // measure 75
1000
0000
0000
0000
,  // measure 76
0010
0000
0000
0000
,  // measure 77
0100
0000
0000
0000
,  // measure 78
0002
0000
0000
0000
0000
0000
0000
0000
0000
0000
0000
0003
,  // measure 79
0000
0000
0000
0000
,  // measure 80
0000
0000
0000
0000
,  // measure 81
0000
0000
0000
0000
,  // measure 82
0000
1001
0000
0000
,  // measure 83
0000
1000
0000
0000
,  // measure 84
0000
0010
0000
0000
,  // measure 85
0000
0100
0000
0100
,  // measure 86
0000
0001
0000
0000
,  // measure 87
0000
1000
0000
0000
,  // measure 88
0000
0100
0000
0000
,  // measure 89
0000
0010
0000
0010
,  // measure 90
0000
0001
0000
0000
,  // measure 91
0000
0000
0000
0002
0000
0000
0000
0000
0003
0000
0000
0000
,  // measure 92
0000
1000
0000
1000
,  // measure 93
0000
0000
0000
2000
0000
0000
0000
0000
0000
0000
0000
3000
,  // measure 94
0000
0010
0000
0000
,  // measure 95
0000
0100
0000
0100
,  // measure 96
0000
0002
0000
0000
,  // measure 97
0000
0003
1001
0000
,  // measure 98
0000
1000
0000
0000
,  // measure 99
0000
0002
0000
0000
,  // measure 100
0000
0000
0000
0003
,  // measure 101
0010
0000
0000
0000
,  // measure 102
0100
0000
0000
0000
,  // measure 103
1000
0000
0000
0000
,  // measure 104
0001
0000
0000
0000
,  // measure 105
0000
0000
2002
0000
,  // measure 106
0000
0000
0000
0000
,  // measure 107
0000
0000
0000
0000
,  // measure 108
3000
0000
0000
0000
,  // measure 109
0000
0000
0000
0000
0000
0003
0000
0000
;

//---------------dance-single - ----------------
#NOTEDATA:;
#CHARTNAME:C 05 - X 08;
#STEPSTYPE:dance-single;
#DESCRIPTION:;
#CHARTSTYLE:;
#DIFFICULTY:Easy;
#METER:5;
#RADARVALUES:0.204325,0.362529,0.099210,0.124012,0.086808,173.000000,161.000000,12.000000,15.000000,0.000000,0.000000,0.000000,0.000000,0.000000,0.204325,0.362529,0.099210,0.124012,0.086808,173.000000,161.000000,12.000000,15.000000,0.000000,0.000000,0.000000,0.000000,0.000000;
#CREDIT:vincentw;
#NOTES:
// measure 0
0000
0000
0000
0000
,  // measure 1
0000
0000
0000
0000
,  // measure 2
0000
0000
0000
0000
,  // measure 3
0000
0000
0000
0000
,  // measure 4
0000
0000
0000
0000
,  // measure 5
0000
0000
0000
0000
,  // measure 6
0000
0000
0000
0000
,  // measure 7
0000
0000
0000
0000
,  // measure 8
0000
1001
0000
0000
,  // measure 9
1000
0000
0000
0000
,  // measure 10
0001
0000
0000
0000
,  // measure 11
1000
0000
0000
0000
,  // measure 12
0001
0000
0000
0000
,  // measure 13
0010
0000
0000
0000
,  // measure 14
0100
0000
0000
0000
,  // measure 15
0010
0000
0000
0000
,  // measure 16
0100
0000
0000
0200
0000
0300
0000
0000
0000
0000
0000
0000
,  // measure 17
1000
0000
0000
0000
,  // measure 18
0010
0000
0000
0000
,  // measure 19
1000
0000
0010
0000
,  // measure 20
1000
0000
0010
0000
,  // measure 21
0200
0000
0000
0000
,  // measure 22
0300
0000
0001
0000
,  // measure 23
0002
0000
0000
0000
,  // measure 24
0003
0101
0000
0000
,  // measure 25
0100
0000
0010
0000
,  // measure 26
0100
0000
0000
0000
,  // measure 27
0001
0000
1000
0000
,  // measure 28
0001
0000
0000
0000
,  // measure 29
0010
0000
0100
0000
,  // measure 30
0010
0000
0100
0000
,  // measure 31
1000
0000
0000
0001
0000
0000
1000
0000
,  // measure 32
0000
0000
0000
0000
,  // measure 33
0001
0000
0010
0000
,  // measure 34
0001
0000
0010
0000
,  // measure 35
0100
0000
0010
0000
,  // measure 36
0100
0000
1000
0000
,  // measure 37
0100
0000
1000
0000
,  // measure 38
0010
0000
0100
0000
,  // measure 39
0001
0000
1000
0000
,  // measure 40
0001
0000
0000
0000
,  // measure 41
1000
0000
0010
0000
,  // measure 42
0100
0000
0010
0000
,  // measure 43
1000
0000
0001
0000
,  // measure 44
0010
0000
0001
0000
,  // measure 45
2000
0000
0000
0000
,  // measure 46
3020
0000
0230
0000
,  // measure 47
0302
0000
0000
0000
,  // measure 48
2003
0000
0000
0000
,  // measure 49
0000
0000
0000
0000
,  // measure 50
3000
0000
0000
0000
,  // measure 51
1000
0000
0100
0000
,  // measure 52
1000
0000
0000
0000
0000
0100
0000
0000
0000
0000
0000
0000
,  // measure 53
0010
0000
0001
0000
,  // measure 54
0010
0000
0000
0000
0000
0001
0000
0000
0000
0000
0000
0000
,  // measure 55
1000
0000
0010
0000
,  // measure 56
0100
0000
0001
0000
,  // measure 57
2000
0000
0000
0000
,  // measure 58
0000
3001
0000
0000
,  // measure 59
1000
0000
0010
0000
,  // measure 60
1000
0000
0000
0000
0000
0010
0000
0000
0000
0000
0000
0000
,  // measure 61
0100
0000
0001
0000
,  // measure 62
0100
0000
0000
0000
0000
0001
0000
0000
0000
0000
0000
0000
,  // measure 63
1000
0000
0100
0000
,  // measure 64
0010
0000
0001
0000
,  // measure 65
2000
0000
0000
0000
,  // measure 66
3000
0000
0000
0000
,  // measure 67
0001
0000
0010
0000
,  // measure 68
0001
0000
1000
0000
,  // measure 69
0001
0000
0100
0000
,  // measure 70
0001
0000
0000
0000
0000
0000
1000
0000
0000
0000
0000
1000
,  // measure 71
0000
0000
0000
0000
,  // measure 72
0000
0000
0000
0000
,  // measure 73
0000
0000
0000
0000
,  // measure 74
0000
0000
0000
0000
,  // measure 75
1001
0000
0000
0000
0000
0000
0001
0000
0000
0000
0000
0001
,  // measure 76
0000
0000
0000
0000
0000
0010
0000
0000
0000
0000
0000
0010
,  // measure 77
0000
0000
0000
0000
0000
0100
0000
0000
0000
0000
0000
0100
,  // measure 78
0000
0000
0000
0000
0000
1000
0000
0000
0000
0000
0000
1000
,  // measure 79
0000
0000
0000
0000
,  // measure 80
0000
0000
0000
0000
,  // measure 81
0000
0000
0000
0000
,  // measure 82
1001
1000
0000
0010
,  // measure 83
0000
1000
0010
1000
,  // measure 84
0000
0001
0000
0010
,  // measure 85
0000
0001
0010
0001
,  // measure 86
0010
0100
0000
1000
,  // measure 87
0000
0001
0100
0001
,  // measure 88
0000
1000
0000
0100
,  // measure 89
0000
0000
0000
1000
0000
0000
0100
0000
0000
0000
0000
1100
,  // measure 90
0000
0001
0000
0001
,  // measure 91
0000
0000
0000
0100
0000
0000
0000
0000
0100
0000
0000
0000
,  // measure 92
0000
0010
0000
0010
,  // measure 93
0000
0000
0000
1000
0000
0000
0000
0000
0010
0000
0000
1000
,  // measure 94
0000
0001
0000
0010
,  // measure 95
0000
0011
0000
0110
,  // measure 96
0000
0000
0000
0100
0000
0000
0000
0000
1000
0000
0000
0000
,  // measure 97
0001
0000
0020
0000
,  // measure 98
0030
0001
0010
0100
,  // measure 99
1000
0002
0000
0203
,  // measure 100
0000
0000
0000
0310
,  // measure 101
1000
0000
0000
0000
0000
1010
0000
0000
0000
0000
0000
0000
,  // measure 102
0001
0000
0000
0000
0000
0101
0000
0000
0000
0000
0000
0000
,  // measure 103
0010
0000
0000
0000
0000
0011
0000
0000
0000
0000
0000
0000
,  // measure 104
0100
0000
0000
0000
0000
1100
0000
0000
0000
0000
0000
0000
,  // measure 105
0000
0000
2002
0000
,  // measure 106
0000
0000
0000
0000
,  // measure 107
0000
0000
0000
0000
,  // measure 108
3000
0000
0000
0000
,  // measure 109
0000
0000
0000
0000
0000
0003
0000
0000
;

//---------------dance-single - ----------------
#NOTEDATA:;
#CHARTNAME:C 07 - X 10;
#STEPSTYPE:dance-single;
#DESCRIPTION:;
#CHARTSTYLE:;
#DIFFICULTY:Medium;
#METER:7;
#RADARVALUES:0.320069,0.498477,0.157082,0.248024,0.169483,271.000000,252.000000,19.000000,30.000000,0.000000,0.000000,0.000000,0.000000,0.000000,0.320069,0.498477,0.157082,0.248024,0.169483,271.000000,252.000000,19.000000,30.000000,0.000000,0.000000,0.000000,0.000000,0.000000;
#CREDIT:vincentw;
#NOTES:
// measure 0
0000
0000
0000
0000
,  // measure 1
0000
0000
0000
0000
,  // measure 2
0000
0000
0000
0000
,  // measure 3
0000
0000
0000
0000
,  // measure 4
0000
0000
0000
0000
,  // measure 5
0000
0000
0000
0000
,  // measure 6
0000
0000
0000
0000
,  // measure 7
0000
0000
0000
0000
,  // measure 8
0000
1001
0000
0001
,  // measure 9
1000
0000
0000
1000
,  // measure 10
0010
0000
0000
0010
,  // measure 11
0200
0000
0000
0000
,  // measure 12
0301
0002
0000
0000
,  // measure 13
1003
0000
0000
1000
,  // measure 14
0100
0000
0000
0100
,  // measure 15
0010
0000
0000
0000
0000
0001
0000
0000
0000
0000
0000
0000
,  // measure 16
0010
0000
0000
0001
0000
1000
0000
0000
0000
0000
0000
0000
,  // measure 17
0001
0100
0000
0001
,  // measure 18
1000
0010
0000
1000
,  // measure 19
0002
0000
0023
0000
,  // measure 20
2030
0000
3200
0000
,  // measure 21
0301
0000
0000
1000
0000
0001
0000
0000
0000
0010
0000
0000
,  // measure 22
0000
0100
0000
0010
,  // measure 23
0000
0000
0000
0001
0000
0010
0000
0000
0000
0001
0000
0000
,  // measure 24
0000
1001
0000
1000
,  // measure 25
0010
1000
0100
0000
,  // measure 26
0010
0001
0100
0000
,  // measure 27
0010
1000
0001
0000
,  // measure 28
0100
0001
1000
0000
,  // measure 29
0100
0010
0001
0000
,  // measure 30
0100
0010
1000
0000
,  // measure 31
0001
0000
0000
1000
0000
0000
1001
0000
,  // measure 32
0000
0001
0010
0100
,  // measure 33
0000
1000
0010
1000
,  // measure 34
0001
0010
0001
0000
,  // measure 35
1000
0100
1000
0001
,  // measure 36
0100
0000
0002
0000
,  // measure 37
0023
0000
2030
0000
,  // measure 38
3002
0000
0203
0000
,  // measure 39
1300
0000
0000
0000
0000
0100
0000
0000
0000
0010
0000
0000
,  // measure 40
0001
1000
1000
1000
,  // measure 41
0010
1000
0100
1000
,  // measure 42
0020
0000
0230
0000
,  // measure 43
0301
0010
0100
0010
,  // measure 44
0002
0000
0203
0000
,  // measure 45
0320
0000
0000
0000
,  // measure 46
2030
0000
3002
0000
,  // measure 47
0023
0000
0000
0000
,  // measure 48
0230
0001
0010
1000
,  // measure 49
0000
0000
0000
0000
,  // measure 50
0300
0000
0000
1000
,  // measure 51
0010
0001
0010
1000
,  // measure 52
0001
0000
0000
0000
0000
0001
0000
0000
0000
0000
0000
0000
,  // measure 53
0010
1000
0010
0001
,  // measure 54
1000
0000
0000
0000
0000
1000
0000
0000
0000
0000
0000
0000
,  // measure 55
0001
0010
0100
0010
,  // measure 56
1000
0010
0100
0010
,  // measure 57
0002
1000
0000
1000
,  // measure 58
0003
1001
0000
1000
,  // measure 59
0100
0001
0100
1000
,  // measure 60
0001
0000
0000
0000
0000
0001
0000
0000
0000
0000
0000
0000
,  // measure 61
0100
1000
0100
0001
,  // measure 62
1000
0000
0000
0000
0000
1000
0000
0000
0000
0000
0000
0000
,  // measure 63
0001
0100
0010
0100
,  // measure 64
2000
0000
3200
0000
,  // measure 65
0302
0000
0000
0000
,  // measure 66
0003
0000
0000
0000
,  // measure 67
1000
0100
0010
0100
,  // measure 68
1000
0001
0010
0001
,  // measure 69
1000
0010
0100
0010
,  // measure 70
1000
0000
0000
0010
0000
0000
0001
0000
0000
0010
0000
1000
,  // measure 71
0000
0000
0000
0000
,  // measure 72
0000
0000
0000
0000
,  // measure 73
0000
0000
0000
0000
,  // measure 74
0000
0000
0000
0000
,  // measure 75
0001
0000
0000
0010
0000
0000
0100
0000
0010
0000
0000
0001
,  // measure 76
0000
0000
1000
0000
0000
0100
0000
0000
1000
0000
0000
0001
,  // measure 77
0000
0000
0100
0000
0000
0010
0000
0000
0100
0000
0000
0001
,  // measure 78
0000
0000
0100
0000
0000
1000
0000
0000
0100
0000
0000
0001
,  // measure 79
0000
0000
0000
0000
,  // measure 80
0000
0000
0000
1001
0000
0000
0000
0000
0110
0000
0000
0000
,  // measure 81
0000
0000
1001
0000
0000
0000
0000
0000
0110
0000
0000
0000
,  // measure 82
1001
0000
0000
1000
0000
0000
0010
0000
0000
0000
0000
0010
,  // measure 83
0000
0000
0000
0100
0000
0000
0000
0000
0100
0000
0000
0000
,  // measure 84
0000
0001
0010
0100
,  // measure 85
0000
1000
0010
0100
,  // measure 86
0000
0000
0000
0001
0000
0000
0100
0000
0000
0000
0000
0100
,  // measure 87
0000
0000
0000
0010
0000
0000
0000
0000
0010
0000
0000
0000
,  // measure 88
0000
1000
0100
0010
,  // measure 89
0000
0000
0000
0001
0000
0000
0100
0000
0000
0000
0000
0010
,  // measure 90
0000
0000
0000
0100
0000
0000
0001
0000
0000
0000
0000
0001
,  // measure 91
0000
0000
0000
1000
0000
0000
0000
0000
1000
0000
0000
0000
,  // measure 92
0000
0001
0010
1000
,  // measure 93
0000
0000
0000
1000
0000
0000
0000
0000
0010
0000
0000
0001
,  // measure 94
0000
1000
0100
0010
,  // measure 95
0100
0002
0000
0203
,  // measure 96
0000
0000
0000
1300
0000
0000
0000
0000
0010
0000
0000
0000
,  // measure 97
0100
0001
0101
0000
,  // measure 98
1000
0001
0010
0100
,  // measure 99
0001
2000
0000
0020
,  // measure 100
0000
3000
0000
0031
,  // measure 101
0011
0000
0000
0000
0000
1001
0000
0000
0000
0000
0000
0000
,  // measure 102
1010
0000
0000
0000
0000
0110
0000
0000
0000
0000
0000
0000
,  // measure 103
0101
0000
0000
0000
0000
1001
0000
0000
0000
0000
0000
0000
,  // measure 104
1100
0000
0000
0000
0000
0110
0000
0000
0000
0000
0000
0000
,  // measure 105
0010
0000
2002
0000
,  // measure 106
0000
0000
0000
0000
,  // measure 107
0000
0000
0000
0000
,  // measure 108
3000
0000
0000
0000
,  // measure 109
0000
0000
0000
0000
0000
0003
0000
0000
;

//---------------dance-single - ----------------
#NOTEDATA:;
#CHARTNAME:C 09 - X 14;
#STEPSTYPE:dance-single;
#DESCRIPTION:;
#CHARTSTYLE:;
#DIFFICULTY:Hard;
#METER:9;
#RADARVALUES:0.539748,0.634425,0.330699,0.413373,0.454711,457.000000,417.000000,40.000000,50.000000,0.000000,0.000000,0.000000,0.000000,0.000000,0.539748,0.634425,0.330699,0.413373,0.454711,457.000000,417.000000,40.000000,50.000000,0.000000,0.000000,0.000000,0.000000,0.000000;
#CREDIT:vincentw;
#NOTES:
// measure 0
0000
0000
0000
0000
,  // measure 1
0000
0000
0000
0000
,  // measure 2
0000
0000
0000
0000
,  // measure 3
0000
0000
0000
0000
,  // measure 4
0000
0000
0000
0000
,  // measure 5
0000
0000
0000
0000
,  // measure 6
0000
0000
0000
0000
,  // measure 7
0000
0000
0000
0000
,  // measure 8
0000
0000
0000
1001
0000
0000
0000
0000
0001
1000
0000
0000
,  // measure 9
1010
0010
0100
0001
,  // measure 10
1000
0100
0010
0001
,  // measure 11
0011
0010
0100
1000
,  // measure 12
0001
1001
1000
0010
,  // measure 13
0110
0100
0001
0010
,  // measure 14
0001
1000
0010
1000
,  // measure 15
1100
0001
0010
0001
,  // measure 16
0100
0000
0000
0101
0000
0001
0100
0000
0001
1000
0000
0000
,  // measure 17
1001
0001
0010
0100
,  // measure 18
0010
0001
1000
0010
,  // measure 19
1010
1000
0001
0100
,  // measure 20
0010
0110
0100
0001
,  // measure 21
0011
0000
0000
0010
0000
0100
0000
0000
0000
0100
0000
0000
,  // measure 22
1000
0010
0100
0001
,  // measure 23
0101
0000
0000
0100
0000
0010
0000
0000
0000
0010
0000
0000
,  // measure 24
1000
2010
0001
3100
,  // measure 25
0220
0000
0330
0010
,  // measure 26
0001
0010
0000
1000
0000
0010
0000
0001
,  // measure 27
1000
0010
0100
0001
,  // measure 28
1000
1001
0001
0010
,  // measure 29
0011
0001
0100
1000
,  // measure 30
0100
0001
1000
0100
,  // measure 31
1200
0000
0000
0001
0000
0000
2300
0000
,  // measure 32
0000
0000
0000
3001
0000
0010
0001
0000
0010
0100
0000
1000
,  // measure 33
0100
2000
3020
0032
,  // measure 34
2003
3200
0302
2003
,  // measure 35
3200
0302
2003
3020
,  // measure 36
0031
0011
0020
1000
,  // measure 37
0230
0001
2300
0010
,  // measure 38
3002
0100
1003
0100
,  // measure 39
1100
0000
0000
1000
0000
0010
0000
0000
0100
0001
0000
0000
,  // measure 40
1000
0001
0001
0001
,  // measure 41
1000
0100
0010
0100
,  // measure 42
1000
0100
0001
0100
,  // measure 43
1000
0010
0100
0010
,  // measure 44
1000
0010
0001
0010
,  // measure 45
2000
0000
0000
0000
,  // measure 46
3200
0000
0302
0000
,  // measure 47
0023
0000
0000
0000
0000
0000
0000
0000
0000
0000
1030
0010
,  // measure 48
2000
0100
0010
0001
,  // measure 49
0000
0000
0000
0000
,  // measure 50
3001
0000
0000
0001
0000
0000
1000
0000
0010
0100
0000
0000
,  // measure 51
0110
0001
0010
0100
,  // measure 52
1000
0000
0000
0010
0000
0100
0000
0000
0010
0100
0000
0000
,  // measure 53
0110
0001
0100
0010
,  // measure 54
1000
0000
0000
0100
0000
0010
0000
0000
0100
0010
0000
0000
,  // measure 55
0002
2003
3020
0230
,  // measure 56
2300
3002
0203
0320
,  // measure 57
0031
0000
0000
1000
0000
1000
0000
0000
0001
1000
0000
1000
,  // measure 58
0000
0000
0010
0100
0000
0100
0000
0000
0001
1000
0000
1000
,  // measure 59
0001
0010
0001
1000
,  // measure 60
0010
0000
0000
1010
0000
0000
0000
0000
1001
0000
0000
0000
,  // measure 61
0101
0100
0010
1000
,  // measure 62
0100
0000
0000
1100
0000
0000
0000
0000
0110
0000
0000
0000
,  // measure 63
0011
0001
0100
0010
,  // measure 64
0220
0330
2002
3003
,  // measure 65
0220
0000
0000
0000
,  // measure 66
0330
0000
1000
0001
0000
1000
0000
0000
0001
0100
0000
0000
,  // measure 67
0010
0000
0100
0001
0000
0001
0100
0000
0010
0000
0000
1000
,  // measure 68
0000
0000
0100
0010
0000
0000
0100
0000
0000
1000
0000
0001
,  // measure 69
0000
0000
0100
1000
0000
0000
0100
0000
0000
0001
0000
1000
,  // measure 70
0000
0000
0100
0001
0000
0000
0100
0000
0000
1000
0000
0001
,  // measure 71
0000
0000
0000
0000
0000
1000
0000
0000
0000
1000
0000
0000
,  // measure 72
0000
0000
0010
0000
0000
0010
0100
0000
0000
0100
0000
0001
,  // measure 73
0000
0000
0010
0001
0000
1000
0001
0000
0100
0000
0000
0010
,  // measure 74
0000
0000
1000
0001
0000
1000
0001
0000
1000
0001
0000
1000
,  // measure 75
0100
0000
0000
1000
0000
0000
0010
0000
0100
0000
0000
0001
,  // measure 76
0000
0000
1000
0010
0000
1000
0000
0000
0001
0010
0000
0001
,  // measure 77
0000
0000
1000
0100
0000
1000
0000
0000
0001
0100
0000
0001
,  // measure 78
0000
0000
1000
0010
0000
0001
0000
0000
0001
0010
0000
1000
,  // measure 79
0000
0000
0000
0001
0000
0001
0000
0000
0010
0100
0000
1000
,  // measure 80
0000
0000
1000
0001
0000
0000
1000
0000
0010
0000
0000
0100
,  // measure 81
0010
0000
1000
0000
0000
0100
0010
0000
0001
0000
0000
2000
,  // measure 82
0001
3000
0000
0000
0000
0000
0000
0000
0000
0000
0000
0000
0000
0000
0000
0000
0000
0000
0000
0000
0000
0000
0000
0000
0000
0000
0000
0000
0000
0000
0000
0000
0000
0000
0000
0000
0000
0000
0000
0000
0000
0000
0000
0000
0000
0000
0000
0000
0001
0000
0000
0000
0000
0000
0000
0000
0000
0000
0000
0000
0000
0000
0000
0000
0000
0000
0000
0000
0000
0000
0000
0000
0000
0000
0000
0000
0000
0000
0000
0000
0000
0000
0000
0000
0000
0000
0000
0000
0000
0000
0000
0000
0000
0000
0000
0000
0010
0000
0000
0000
0000
0000
0000
0000
0000
0000
0000
0000
0000
0000
0000
0000
0000
0000
0000
0000
0000
0000
0000
0000
0000
0000
0000
0000
0000
0000
0000
0000
0000
0000
0000
0000
0000
0000
0000
0000
0000
0000
0000
0000
0000
0000
0000
0000
0100
0000
0000
0000
0000
0000
0000
0000
0000
0000
0000
0000
0000
0000
0000
0000
0000
0000
0000
0000
0000
0000
0000
0000
0000
0000
0000
0000
0000
0000
0000
0000
0010
0000
0000
0000
0000
0000
0000
0000
0000
0000
0000
0000
0000
0000
0000
0000
,  // measure 83
0000
0000
1000
0010
0000
0001
0000
0000
0001
0000
0000
1000
,  // measure 84
0001
1000
0010
0001
,  // measure 85
1000
0001
0010
1000
,  // measure 86
0001
0000
0000
1000
0000
0000
0100
0000
0000
0010
0000
0100
,  // measure 87
0000
0000
0001
0100
0000
1000
0000
0000
1000
0000
0000
0001
,  // measure 88
1000
0001
0100
1000
,  // measure 89
0001
0000
0000
1000
0000
0000
0100
0000
0000
0001
0000
0202
,  // measure 90
0000
0000
0303
0100
0000
0000
0001
0000
0000
1000
0000
0000
,  // measure 91
0010
0000
0000
0110
0000
0000
0000
0000
1001
0000
0000
0000
,  // measure 92
0001
0000
0010
0100
0000
0000
1000
0000
0000
0001
0000
0010
,  // measure 93
1000
0000
0010
0001
0000
1000
0010
0000
0001
0000
0000
0010
,  // measure 94
0000
0000
1000
0001
0000
0000
0100
0000
0010
1000
0000
0010
,  // measure 95
0100
0000
0000
0001
0000
0010
0100
0000
1000
0000
0000
0010
,  // measure 96
0100
0000
0000
0001
0000
0000
0100
0000
1000
0000
0000
0100
,  // measure 97
0001
0000
0000
1000
0000
0000
0100
0010
0100
0010
0000
0000
,  // measure 98
0001
2000
3020
0230
,  // measure 99
2300
3002
0000
0023
,  // measure 100
0000
0000
0000
0000
0000
0000
0000
0000
0000
0000
0000
0000
0000
0000
0000
0000
0000
0000
0130
0000
0100
0001
0000
0000
,  // measure 101
0101
0000
0000
0000
0000
1010
0000
0000
0000
1000
0000
0000
,  // measure 102
0011
0000
0000
0000
0000
1100
0000
0000
0000
0001
0000
0000
,  // measure 103
1001
0000
1000
0001
0000
0100
0000
0000
0000
0010
0000
0000
,  // measure 104
0110
0000
0000
0100
0000
0001
0000
0000
0001
1000
0000
0000
,  // measure 105
0100
0000
2002
0000
,  // measure 106
0000
0000
0000
0000
,  // measure 107
0000
0000
0000
0000
,  // measure 108
3000
0000
0000
0000
,  // measure 109
0000
0000
0000
0000
0000
0003
0000
0000
;
