#VERSION:0.82;
#TITLE:夜明けの少女たち;
#SUBTITLE:;
#ARTIST:Lubinn;
#TITLETRANSLIT:Girls of Dawn;
#SUBTITLETRANSLIT:;
#ARTISTTRANSLIT:;
#GENRE:;
#ORIGIN:;
#CREDIT:;
#BANNER:;
#BACKGROUND:;
#PREVIEWVID:;
#JACKET:;
#CDIMAGE:;
#DISCIMAGE:;
#LYRICSPATH:;
#CDTITLE:;
#MUSIC:Girls of dawn.mp3;
#OFFSET:1.916002;
#SAMPLESTART:14.817754;
#SAMPLELENGTH:12.972972;
#SELECTABLE:YES;
#BPMS:0.000=111.000,
208.000=100.000,
210.500=96.000,
213.750=65.000;
#STOPS:;
#DELAYS:;
#WARPS:;
#TIMESIGNATURES:0.000=4=4;
#TICKCOUNTS:0.000=4;
#COMBOS:0.000=1;
#SPEEDS:0.000=1.000=0.000=0;
#SCROLLS:0.000=1.000;
#FAKES:;
#LABELS:0.000=Song Start;
#BGCHANGES:;
#KEYSOUNDS:;
#ATTACKS:
;

//---------------dance-single - ----------------
#NOTEDATA:;
#CHARTNAME:;
#STEPSTYPE:dance-single;
#DESCRIPTION:;
#CHARTSTYLE:;
#DIFFICULTY:Hard;
#METER:7;
#RADARVALUES:0.361411,0.406993,0.075896,0.421646,0.206606,241.000000,9.000000,50.000000,0.000000,0.000000,0.000000,0.000000,0.000000,0.361411,0.406993,0.075896,0.421646,0.206606,241.000000,9.000000,50.000000,0.000000,0.000000,0.000000,0.000000,0.000000;
#CREDIT:;
#NOTES:
0000
0000
0000
0000
,
0000
0000
0000
0000
,
0000
0000
0000
0000
,
0000
0000
0000
0000
,
0000
0000
0000
0000
,
0000
0000
0000
0000
,
0000
0000
0000
0000
,
0000
0000
0000
1002
,
0000
0000
1003
0001
0100
0000
0020
0000
,
0000
0000
1030
0001
0200
0000
0000
0000
0000
0000
0310
0000
1000
0000
0001
0000
,
1000
0000
0010
0000
0001
0000
0010
1000
0001
0010
0100
1000
0002
0000
0000
0000
,
0000
0000
0000
0000
0013
0000
0100
0000
1000
0000
0000
0020
0000
0000
0000
0000
,
0000
0000
1030
0100
0020
0000
0000
0000
0000
0000
0130
0000
0010
0000
0000
0000
,
0002
0000
0000
0103
,
0000
0010
0000
1000
1000
0000
0000
0010
,
0000
0000
0000
0000
1000
0001
1000
0001
0010
0000
0000
0000
0000
0000
0001
0000
,
1000
0000
1000
0100
0000
0000
2000
0000
,
3010
0100
0010
0000
0000
0000
0100
0000
0002
0000
0000
0000
0000
0000
0000
0000
,
0000
0000
0003
0000
0200
0000
0000
0000
0301
0010
0001
0000
0000
0000
1000
0000
,
0020
0000
2030
0000
0000
3000
0200
0000
,
0310
0100
0010
0000
0001
0000
0000
1000
0200
0000
0000
0000
0000
0000
2300
0000
,
0000
0000
0000
0000
3020
0000
0000
0000
0130
0001
0100
0000
0010
0000
1000
0000
,
0002
0000
0100
0200
0000
0303
1020
0000
,
0000
0000
0030
1000
0001
0000
0010
0000
0000
0001
0000
0000
0200
0000
0000
0000
0000
0000
0000
0000
0000
0000
0000
0000
,
0000
0000
0000
0000
0000
0000
0310
0000
0000
0000
0000
0000
1000
0000
0000
0000
0000
0000
0000
0000
0000
0000
0000
0000
0001
0000
0000
0000
0000
0000
1000
0000
0001
0000
0000
0000
0000
0000
0000
0000
0000
0000
0100
0000
0000
0010
0000
0000
,
2000
0000
0000
0000
0000
0000
0000
0000
3001
0100
0010
1000
0100
0000
0000
0000
,
1000
0100
0010
0000
0100
0000
0010
0000
0002
0000
0000
0000
2003
0000
0000
0000
,
0000
0000
3001
0000
0020
0000
0000
0000
0000
0000
0000
0000
0031
0000
0000
1000
,
0020
0000
0000
0000
0200
0000
0000
0000
0000
0000
0330
0000
0100
0000
0000
0001
,
0000
1010
0000
0000
2001
0000
0000
0000
,
3001
0000
1000
0000
0010
0000
0000
0000
0200
0000
0000
0000
0000
0000
0301
1000
,
0020
0000
0000
0130
0001
1000
0001
0100
,
1000
0000
0100
0001
1000
0100
0010
0001
2000
0000
0000
0000
0000
0000
0000
0000
,
3100
0000
0010
0000
0001
0000
0000
2000
0000
0000
0000
0000
0000
0000
3001
0010
,
0200
0000
0000
0310
0002
0000
0023
0000
,
0000
0031
1000
0001
1002
0000
0000
0000
,
1003
0000
0100
0000
1000
0000
0000
0000
0020
0000
0000
0000
0000
0000
0130
0001
,
2000
0000
0000
3001
0010
0100
0010
0001
,
0100
0000
0001
0010
0100
1000
0010
0100
0002
0000
0000
0000
0000
0000
0000
0000
,
1003
0000
0010
0000
0100
0000
0000
0002
0000
0000
0000
0000
0000
0000
0103
0010
,
0200
0000
0000
0310
1000
0000
0002
0000
,
0000
0000
0000
0000
1003
0000
0000
0020
,
0000
0000
0000
0000
0030
0100
0001
0100
,
0020
0000
0000
0000
0030
0000
0020
0000
0000
0000
1030
0001
0200
0000
0000
0000
,
0310
0000
2000
0000
0000
0000
3010
0100
0020
0000
0000
0000
1030
0010
1000
0000
,
0001
0000
0010
0000
0200
0000
0000
0000
0310
0000
0200
0000
0000
0000
0300
0100
,
1000
0100
0010
0001
1000
0001
0010
0100
1000
0001
0020
0000
0000
0000
0000
0000
,
0000
0000
0130
0000
,
0010
0000
1001
0000
0000
1000
0100
0010
,
0110
0000
0000
0000
0000
0000
0000
0100
0010
0001
1000
0001
0010
0000
0000
0000
,
0000
0000
0110
0000
0000
0000
1000
0001
0100
0000
0000
0000
0001
0000
0000
0000
,
1000
1100
1000
0000
,
0001
0000
0000
0000
0000
0000
1000
0000
0100
0000
1000
0001
0000
0000
0001
0000
,
0000
1000
0000
0000
0100
0000
0000
0010
0000
0000
0001
0000
0000
0000
0000
0000
;

//---------------dance-single - ----------------
#NOTEDATA:;
#CHARTNAME:;
#STEPSTYPE:dance-single;
#DESCRIPTION:;
#CHARTSTYLE:;
#DIFFICULTY:Medium;
#METER:5;
#RADARVALUES:0.261420,0.293940,0.067463,0.227689,0.025299,182.000000,8.000000,27.000000,0.000000,0.000000,0.000000,0.000000,0.000000,0.261420,0.293940,0.067463,0.227689,0.025299,182.000000,8.000000,27.000000,0.000000,0.000000,0.000000,0.000000,0.000000;
#CREDIT:;
#NOTES:
0000
0000
0000
0000
,
0000
0000
0000
0000
,
0000
0000
0000
0000
,
0000
0000
0000
0000
,
0000
0000
0000
0000
,
0000
0000
0000
0000
,
0000
0000
0000
0000
,
0000
0000
0000
2001
,
0000
0000
3001
0100
0001
0000
2000
0000
,
0000
3100
1000
0000
0000
0010
1000
0001
,
0010
0100
1000
0100
0001
0100
2000
0000
,
0000
0000
0000
0000
3001
0000
0100
0000
0010
0000
0000
2000
0000
0000
0000
0000
,
0000
3010
0200
0000
0000
0301
1000
0000
,
0200
0000
0000
0310
,
0000
0000
0000
0001
0001
0000
0000
0000
,
0000
0000
1000
0001
1000
0000
0000
0000
,
0010
0000
0000
0100
0000
0000
0001
0000
,
1000
0100
0000
0100
2000
0000
0000
0000
,
3000
0000
0001
0000
0100
0001
0000
1000
,
0002
0023
0000
0130
,
1000
0100
0010
0000
0100
0000
0000
1000
,
0000
0000
0010
0000
0100
0001
0100
0001
,
2000
0000
0001
0002
0000
3003
1100
0000
,
0000
1000
0100
1000
0010
0000
0000
0000
,
0000
0100
0001
0000
0100
0010
0000
0010
,
1000
0000
0000
0001
0010
0100
1000
0000
,
0100
1000
0010
0100
0001
0000
1000
0000
,
0000
0001
0020
0000
0000
0000
0130
0000
,
1000
0020
0000
0030
,
0000
0000
0201
0000
,
0301
1000
0100
0000
2000
0000
0000
3001
,
0100
0000
0000
0010
0100
0001
1000
0001
,
0100
0001
0010
1000
0020
0000
0000
0000
,
0130
0000
1000
0000
0001
0000
0000
0200
0000
0000
0000
0000
0000
0000
0310
0000
,
1000
0000
0000
0100
0001
0000
2000
0000
,
0000
3000
0102
0000
,
0013
0001
1000
0000
0020
0000
0000
0130
,
0001
0000
0000
0010
0100
1000
0001
0010
,
0100
1000
0100
0001
0200
0000
0000
0000
,
0310
0000
0001
0000
1000
0000
0000
0002
0000
0000
0000
0000
0000
0000
1003
0000
,
0200
0000
0000
1300
0010
0000
0200
0000
,
0000
0000
0000
0000
0310
0000
0000
2000
,
0000
0000
0000
0000
0000
3002
0000
0003
,
1000
0000
0000
0100
0000
1000
0010
0000
,
0100
0001
0000
0000
0100
0000
0010
1000
,
0100
0010
0001
0000
0001
0010
0000
0000
,
0010
0100
1000
0100
0001
2000
0000
0000
,
0000
3010
0000
0000
0101
0000
0000
0000
,
0000
0000
0001
0000
0000
1000
0010
0100
,
0001
0000
0000
1001
,
0000
0101
0000
0000
1001
0000
0001
0000
,
0010
0100
1000
0000
,
0100
0000
0000
0000
0000
0000
1000
0000
0000
0000
0000
1000
0000
0000
0100
0000
,
0000
0010
0000
0000
0001
0000
0000
1000
0000
0000
0010
0000
0000
0000
0000
0000
;

//---------------dance-single - ----------------
#NOTEDATA:;
#CHARTNAME:;
#STEPSTYPE:dance-single;
#DESCRIPTION:;
#CHARTSTYLE:;
#DIFFICULTY:Easy;
#METER:2;
#RADARVALUES:0.134927,0.203497,0.025299,0.126494,0.000000,94.000000,3.000000,15.000000,0.000000,0.000000,0.000000,0.000000,0.000000,0.134927,0.203497,0.025299,0.126494,0.000000,94.000000,3.000000,15.000000,0.000000,0.000000,0.000000,0.000000,0.000000;
#CREDIT:;
#NOTES:
0000
0000
0000
0000
,
0000
0000
0000
0000
,
0000
0000
0000
0000
,
0000
0000
0000
0000
,
0000
0000
0000
0000
,
0000
0000
0000
0000
,
0000
0000
0000
0000
,
0000
0000
0000
0010
,
0000
0000
1000
0000
,
0000
0000
0010
0000
0000
0100
0000
0000
,
0001
0000
0000
1000
0000
0000
0001
0000
,
0000
0000
0100
0000
,
0000
0000
0010
0000
0000
1000
0000
0000
,
0002
0000
0000
0003
,
0000
0000
0000
1000
0001
0000
0000
0000
,
0000
0001
0000
0000
,
0000
0000
0000
1000
,
0000
0001
0000
0000
0200
0000
0000
0300
,
0000
0000
0001
0000
0000
1000
0000
0000
,
0010
0000
0000
2000
0000
3000
0010
0000
,
0000
0100
0000
0000
0001
0000
0000
1000
,
0000
0000
0100
0000
0000
1000
0000
0000
,
0010
0000
0000
0100
0000
0000
0002
0000
,
0000
1003
0000
0000
0100
0000
0000
0000
,
0000
0000
1000
0000
0000
0010
0000
0000
,
0200
0000
0000
0301
,
0000
0010
0000
0000
0001
0000
0000
0001
,
0000
1000
0000
0000
,
0020
0000
0000
0030
,
0000
0000
2001
0000
,
3001
1000
0000
0000
,
0010
0000
0000
1000
0000
0000
0010
0000
,
0000
0100
0000
0000
0010
0000
0000
0000
,
1000
0001
0100
0000
,
0001
0000
0000
0010
0000
0000
0002
0000
,
0000
0000
0000
0003
1002
0000
0000
0000
,
0103
0001
0200
0000
0000
0000
0300
0000
,
0010
0000
0000
1000
0000
0000
0100
0000
,
0000
1000
0100
0010
0002
0000
0000
0000
,
0013
0001
0020
0000
0000
0000
0000
0000
,
0130
0000
0000
1000
0000
0000
0002
0000
,
0000
0000
0000
0000
0003
0000
0000
2000
,
0000
0000
0000
0000
0000
0000
0000
3000
,
0010
0000
0000
0010
0000
0000
0100
0000
,
0000
0001
0000
0000
1000
0000
0000
0010
,
0000
0000
0100
0000
0000
0100
0000
0000
,
0001
0000
0000
0010
0000
0000
0100
0000
,
0000
1000
0000
0000
1001
0000
0000
0000
,
0000
1000
0000
0000
,
0001
0000
0000
0010
,
0000
0001
0000
0000
0100
0000
0000
0000
,
0000
0010
0000
0000
,
1000
0000
0000
0000
0000
0020
0000
0000
,
0000
0000
0000
0000
0000
0030
0000
0000
;

//---------------dance-single - ----------------
#NOTEDATA:;
#CHARTNAME:;
#STEPSTYPE:dance-single;
#DESCRIPTION:;
#CHARTSTYLE:;
#DIFFICULTY:Beginner;
#METER:1;
#RADARVALUES:0.087943,0.135664,0.042165,0.000000,0.000000,68.000000,5.000000,0.000000,0.000000,0.000000,0.000000,0.000000,0.000000,0.087943,0.135664,0.042165,0.000000,0.000000,68.000000,5.000000,0.000000,0.000000,0.000000,0.000000,0.000000,0.000000;
#CREDIT:;
#NOTES:
// measure 0
0000
0000
0000
0000
,  // measure 1
0000
0000
0000
0000
,  // measure 2
0000
0000
0000
0000
,  // measure 3
0000
0000
0000
0000
,  // measure 4
0000
0000
0000
0000
,  // measure 5
0000
0000
0000
0000
,  // measure 6
0000
0000
0000
0000
,  // measure 7
0000
0000
0000
1000
,  // measure 8
0000
0000
0001
0000
,  // measure 9
0000
0100
0000
0000
,  // measure 10
0010
0000
0000
0100
,  // measure 11
0000
0000
0001
0000
,  // measure 12
0000
0000
1000
0000
0000
1000
0000
0000
,  // measure 13
1000
0000
0000
1001
,  // measure 14
0000
0000
0000
0000
,  // measure 15
0000
0000
0000
0000
,  // measure 16
0000
0000
0000
0010
,  // measure 17
0000
0000
0100
0000
,  // measure 18
0000
0010
0000
0000
,  // measure 19
1000
1000
0000
0001
,  // measure 20
0000
0000
0100
0000
,  // measure 21
0000
0010
0000
0000
,  // measure 22
0100
0000
0000
0001
,  // measure 23
0000
0000
0100
0000
,  // measure 24
0000
0001
0000
0000
,  // measure 25
1000
0000
0000
0010
,  // measure 26
0000
0000
1000
0000
,  // measure 27
0000
0100
0000
0000
,  // measure 28
0010
0010
0000
0000
,  // measure 29
0000
0000
1001
0000
,  // measure 30
0000
0001
0000
0000
,  // measure 31
0100
0000
0000
0010
,  // measure 32
0000
0010
0000
0000
0010
0000
0000
0000
,  // measure 33
0000
1000
0000
0000
,  // measure 34
1000
0000
0000
1000
0000
0000
1000
0000
,  // measure 35
0000
0000
0110
0000
,  // measure 36
0000
0010
0000
0000
,  // measure 37
1000
0000
0000
0010
,  // measure 38
0000
0010
0000
0000
0010
0000
0000
0000
,  // measure 39
0000
0100
0000
0000
,  // measure 40
0001
0000
0000
0001
0000
0000
0001
0000
,  // measure 41
0000
0000
0000
0000
1001
0000
0000
1000
,  // measure 42
0000
0000
0000
0000
,  // measure 43
0010
0000
0000
0010
0000
0000
0010
0000
,  // measure 44
0000
0000
0000
0000
0100
0000
0000
0100
,  // measure 45
0000
0100
0000
0000
,  // measure 46
0001
0000
0000
1000
0000
0000
0100
0000
,  // measure 47
0000
0000
0110
0000
,  // measure 48
0000
0010
0000
0000
,  // measure 49
0001
0000
0000
1000
,  // measure 50
0000
1000
0000
0000
1000
0000
0000
0000
,  // measure 51
0000
0001
0000
0000
,  // measure 52
0100
0000
0000
0000
,  // measure 53
0000
0000
0000
0000
0000
0010
0000
0000
;
