#VERSION:0.81;
#TITLE:Eli Lilit;
#SUBTITLE:;
#ARTIST:Lilit Hovhannisyan;
#TITLETRANSLIT:;
#SUBTITLETRANSLIT:;
#ARTISTTRANSLIT:;
#GENRE:;
#ORIGIN:;
#CREDIT:;
#BANNER:[Unenglish] - Eli Lilit.png;
#BACKGROUND:[Unenglish] - Eli Lilit-bg.png;
#PREVIEWVID:;
#JACKET:[Unenglish] - Eli Lilit-jacket.png;
#CDIMAGE:;
#DISCIMAGE:;
#LYRICSPATH:;
#CDTITLE:SC2014-cdtitle.png;
#MUSIC:[Unenglish] - Eli Lilit.mp3;
#OFFSET:-0.428;
#SAMPLESTART:52.261;
#SAMPLELENGTH:17.297;
#SELECTABLE:YES;
#BPMS:0.000=111.000,
38.000=55.500,
39.000=111.000,
45.000=55.500,
46.000=111.000;
#STOPS:;
#DELAYS:;
#WARPS:;
#TIMESIGNATURES:0.000=4=4,
36.000=3=4,
39.000=4=4,
43.000=3=4,
46.000=4=4;
#TICKCOUNTS:0.000=4;
#COMBOS:0.000=1;
#SPEEDS:0.000=1.000=0.000=0;
#SCROLLS:0.000=1.000;
#FAKES:;
#LABELS:0.000=Song Start;
#BGCHANGES:15.750=[Unenglish] - Eli Lilit.avi=1.000=1=0=0=StretchNoLoop==CrossFade==,
99999=-nosongbg-=1.000=0=0=0 // don't automatically add -songbackground-
;
#KEYSOUNDS:;
#ATTACKS:
;

//---------------dance-single - ----------------
#NOTEDATA:;
#CHARTNAME:;
#STEPSTYPE:dance-single;
#DESCRIPTION:;
#CHARTSTYLE:;
#DIFFICULTY:Hard;
#METER:8;
#RADARVALUES:0.434,0.427,0.272,0.109,0.120,244.000,25.000,10.000,0.000,0.000,0.000,0.000,0.000,0.434,0.427,0.272,0.109,0.120,244.000,25.000,10.000,0.000,0.000,0.000,0.000,0.000;
#CREDIT:;
#NOTES:
// measure 0
0000
0000
0000
0000
,  // measure 1
0000
0000
0000
0000
,  // measure 2
0000
0000
0000
0000
,  // measure 3
0000
0000
0000
0000
,  // measure 4
1000
0000
1010
0000
0010
0100
0110
0000
,  // measure 5
0100
0010
1000
0001
0010
0010
0010
0000
,  // measure 6
0001
0000
0011
0000
0010
0100
0110
0000
,  // measure 7
0100
1000
0001
1000
0010
0010
0010
0000
,  // measure 8
0100
0000
0010
0000
1000
0010
1000
0001
,  // measure 9
1000
0000
0000
0000
0100
0010
0001
1000
0100
0000
0000
0000
0100
0000
0000
0000
,  // measure 10
1000
0000
0001
0010
0001
1000
0001
0000
,  // measure 11
0100
0010
1000
0001
0100
0000
0000
0000
0100
0000
0000
0000
0010
0000
0100
0000
,  // measure 12
0010
0000
1000
0010
2000
0000
3002
0000
,  // measure 13
0013
0001
0010
0000
0100
0010
0100
0000
,  // measure 14
1000
0100
1000
0000
1100
0000
0101
0000
,  // measure 15
2002
3003
1000
1010
,  // measure 16
0010
0100
0110
0000
0100
0010
0100
0001
,  // measure 17
1000
1001
0001
0011
,  // measure 18
0010
0100
0110
0000
0100
1000
0010
0100
,  // measure 19
0001
0000
1001
0000
1000
0000
1100
0100
,  // measure 20
0010
0000
0110
0010
0002
0000
2003
0000
,  // measure 21
3010
1000
0010
0000
0100
0010
0100
0000
,  // measure 22
0001
0000
0100
0000
0001
0000
0000
0000
0010
0000
0000
0100
0000
0000
1000
0000
,  // measure 23
0001
0000
0000
0000
1001
0000
0000
0000
1000
0000
0000
1000
0010
0000
1000
0000
,  // measure 24
0001
0000
0000
0001
0010
0000
0001
0000
1000
0000
0001
0000
1000
0000
0000
0000
,  // measure 25
0010
0100
0010
0000
0100
0001
1000
0100
,  // measure 26
0010
0010
0010
0000
0001
1000
0010
0100
,  // measure 27
0001
0000
0000
0001
0000
0000
0001
0000
1000
0000
0000
0000
1001
0000
0000
0000
,  // measure 28
0001
0100
0000
0100
0010
0000
0000
0000
1000
0000
0010
0000
0001
0000
0010
0000
,  // measure 29
1000
0100
0001
0100
1000
0100
1100
0100
,  // measure 30
0010
0001
0011
0000
0001
0010
0001
1000
,  // measure 31
0010
1000
0010
1000
0010
0000
0100
0000
0001
0000
0000
0000
0101
0000
0000
0000
,  // measure 32
0001
1000
0000
0010
0100
0000
0000
0000
0001
0000
0010
0000
1000
0000
0010
0000
,  // measure 33
0001
0000
0100
0000
1000
0000
0100
0000
0001
0000
0100
0000
0110
0000
0010
1000
,  // measure 34
0001
0001
1001
0000
1000
0010
1000
0001
,  // measure 35
0010
0000
0000
0100
0000
0000
0010
0000
0100
0000
1000
0000
0001
0000
1000
0000
,  // measure 36
0001
0100
0000
0010
1000
0000
0001
0000
1000
0000
0100
0000
0001
0000
0100
0000
,  // measure 37
1000
0000
0010
0000
0001
0000
0010
0000
1000
0000
0001
0000
1001
0000
1000
0010
,  // measure 38
0100
0001
1000
0000
0001
0010
0001
1000
,  // measure 39
0001
0100
0010
1000
0010
0000
0100
0000
0001
0000
0000
0000
0101
0000
0000
0000
,  // measure 40
0001
0000
1000
0000
1001
0000
0000
0000
2000
0000
0000
3200
0000
0000
0320
0000
,  // measure 41
0032
0003
0000
0000
;

//---------------dance-single - ----------------
#NOTEDATA:;
#CHARTNAME:;
#STEPSTYPE:dance-single;
#DESCRIPTION:;
#CHARTSTYLE:;
#DIFFICULTY:Medium;
#METER:5;
#RADARVALUES:0.285,0.290,0.207,0.109,0.000,154.000,19.000,10.000,0.000,0.000,0.000,0.000,0.000,0.285,0.290,0.207,0.109,0.000,154.000,19.000,10.000,0.000,0.000,0.000,0.000,0.000;
#CREDIT:;
#NOTES:
// measure 0
0000
0000
0000
0000
,  // measure 1
0000
0000
0000
0000
,  // measure 2
0000
0000
0000
0000
,  // measure 3
0000
0000
0000
0000
,  // measure 4
0001
1000
0010
0010
,  // measure 5
1000
0000
0001
0000
0010
0001
0010
0000
,  // measure 6
0001
1000
0100
0100
,  // measure 7
1000
0000
0001
0000
0100
0001
0100
0000
,  // measure 8
0001
0100
0010
0010
,  // measure 9
0100
0000
0010
1000
0001
0000
1000
0000
,  // measure 10
0001
0010
0010
0100
,  // measure 11
1000
0001
0100
0000
0010
0000
0010
0000
,  // measure 12
1000
0000
1000
0010
1000
0000
1000
0000
,  // measure 13
0001
0001
1000
0001
,  // measure 14
0010
0001
0010
0000
0110
0000
0110
0000
,  // measure 15
0220
0330
0100
1000
,  // measure 16
0001
0000
0001
0000
1000
0001
1000
0001
,  // measure 17
1000
1001
1000
0100
,  // measure 18
0010
0000
0010
0000
0001
1000
0001
1000
,  // measure 19
0001
1001
2000
3010
,  // measure 20
0020
0130
0200
0302
,  // measure 21
1000
1000
1003
0000
0002
0000
0013
0000
,  // measure 22
2000
3010
0001
1000
,  // measure 23
2002
3003
0001
0101
,  // measure 24
0100
0110
0010
0010
,  // measure 25
1000
1000
0010
1000
,  // measure 26
1001
0000
0001
0010
,  // measure 27
0110
0000
0100
1000
,  // measure 28
0001
0000
0001
0000
1000
0001
1000
0000
,  // measure 29
0010
0100
0010
0000
1000
0000
0010
0000
,  // measure 30
1010
0000
0001
0010
,  // measure 31
0011
0000
1000
1100
,  // measure 32
0100
0110
0010
0001
,  // measure 33
1000
1000
0001
1000
,  // measure 34
1001
0000
0001
0100
,  // measure 35
0110
0000
0010
1000
,  // measure 36
0001
0000
0001
0000
1000
0001
1000
0000
,  // measure 37
0100
0010
0100
0000
0010
0000
0001
0000
,  // measure 38
0011
0000
1000
0010
,  // measure 39
1010
0000
0010
0100
,  // measure 40
0001
0001
1000
0001
,  // measure 41
1001
0000
0000
0000
;

//---------------dance-single - ----------------
#NOTEDATA:;
#CHARTNAME:;
#STEPSTYPE:dance-single;
#DESCRIPTION:;
#CHARTSTYLE:;
#DIFFICULTY:Easy;
#METER:3;
#RADARVALUES:0.163,0.156,0.000,0.000,0.000,105.000,0.000,0.000,0.000,0.000,0.000,0.000,0.000,0.163,0.156,0.000,0.000,0.000,105.000,0.000,0.000,0.000,0.000,0.000,0.000,0.000;
#CREDIT:;
#NOTES:
// measure 0
0000
0000
0000
0000
,  // measure 1
0000
0000
0000
0000
,  // measure 2
0000
0000
0000
0000
,  // measure 3
0000
0000
0000
0000
,  // measure 4
0001
0000
1000
0000
,  // measure 5
0001
1000
0001
0001
,  // measure 6
0010
0000
0100
0000
,  // measure 7
0010
0100
0010
0010
,  // measure 8
0100
0000
0100
0000
,  // measure 9
1000
0100
1000
0001
,  // measure 10
0000
0100
0000
0001
,  // measure 11
0100
0001
0100
0000
,  // measure 12
0100
0010
0100
0000
,  // measure 13
0010
1000
0010
0000
,  // measure 14
0010
0000
1000
0001
,  // measure 15
1000
0000
0001
0000
,  // measure 16
0001
0000
0010
0010
,  // measure 17
0010
0000
0100
0000
,  // measure 18
0100
0000
1000
1000
,  // measure 19
1000
0000
0001
0000
,  // measure 20
1000
0000
0010
0000
,  // measure 21
0100
0000
0001
0001
,  // measure 22
0100
0100
0010
1000
,  // measure 23
0001
0000
1000
0000
,  // measure 24
1000
0000
0001
1000
,  // measure 25
0001
0000
0010
0000
,  // measure 26
0010
0000
0100
0010
,  // measure 27
0100
0000
1000
0000
,  // measure 28
1000
0000
0001
1000
,  // measure 29
0001
0001
0100
0000
,  // measure 30
0100
0000
0010
0010
,  // measure 31
0010
0000
1000
0010
,  // measure 32
1000
1000
0001
0000
,  // measure 33
0001
0000
0010
0001
,  // measure 34
0010
0000
0100
1000
,  // measure 35
0100
0000
1000
0001
,  // measure 36
0100
0100
0010
0010
,  // measure 37
1000
1000
0001
0000
,  // measure 38
0001
0000
1000
1000
,  // measure 39
1000
0000
0001
0000
,  // measure 40
1000
0000
0001
0001
,  // measure 41
0001
0000
0000
0000
;
