#TITLE:Complètement fou;
#SUBTITLE:;
#ARTIST:Yelle;
#TITLETRANSLIT:;
#SUBTITLETRANSLIT:;
#ARTISTTRANSLIT:;
#GENRE:;
#CREDIT:;
#BANNER:[Unenglish] - Completement fou.png;
#BACKGROUND:[Unenglish] - Completement fou-bg.png;
#LYRICSPATH:;
#CDTITLE:;
#MUSIC:[Unenglish] - Completement fou.mp3;
#OFFSET:-1.929;
#SAMPLESTART:54.530;
#SAMPLELENGTH:15.238;
#SELECTABLE:YES;
#BPMS:0.000=126.000
;
#STOPS:238.000=0.476
;
#BGCHANGES:7.333=[Unenglish] - Completement fou.avi=1.000=1=0=0=StretchNoLoop==CrossFade==,
99999=-nosongbg-=1.000=0=0=0 // don't automatically add -songbackground-
;
#KEYSOUNDS:;
#ATTACKS:;

//---------------dance-single - ----------------
#NOTES:
     dance-single:
     :
     Hard:
     8:
     0.515,0.511,0.385,0.453,0.125,366.000,51.000,60.000,0.000,0.000,0.000,0.515,0.511,0.385,0.453,0.125,366.000,51.000,60.000,0.000,0.000,0.000: // measure 0
0000
0000
0000
0000
,  // measure 1
0000
0000
0000
0000
,  // measure 2
1000
0000
0000
0000
0000
0000
0100
0000
0000
0000
0000
0000
0010
0000
0000
0000
0000
0000
0001
0000
1000
0001
0000
0010
,  // measure 3
0000
0100
0000
1000
1000
0000
0000
0000
,  // measure 4
0002
0023
0230
2300
,  // measure 5
3002
0000
0010
0000
1003
0100
0001
0100
,  // measure 6
2000
3020
0230
0302
,  // measure 7
2003
0000
0100
0000
3001
0000
1000
0001
,  // measure 8
1000
0000
0100
0000
0010
0000
0001
0000
1000
0000
0000
0010
0000
0000
0001
0000
,  // measure 9
1000
0000
0000
0100
0000
0000
0001
0000
1000
0000
0000
1000
0000
0000
1000
0000
,  // measure 10
0001
0000
0010
0000
0100
0000
1000
0000
0001
0000
0000
0010
0000
0000
1000
0000
,  // measure 11
0001
0000
0000
0100
0000
0000
1000
0000
0001
0000
0000
0000
1001
0000
0000
0000
,  // measure 12
1000
0010
0100
0010
0001
0010
0100
0010
,  // measure 13
2000
0100
0010
0001
,  // measure 14
3001
0010
0100
0010
1000
0010
0100
0010
,  // measure 15
0002
0000
0100
0000
0010
0000
1000
1000
,  // measure 16
1003
0000
0100
0000
0010
0000
0001
0000
0011
0000
0000
0001
0000
0000
1000
0000
,  // measure 17
1001
0000
0000
1000
0000
0000
0010
0000
1010
0000
0000
0010
0000
0000
0100
0000
,  // measure 18
0001
0000
0100
0000
1000
0000
0100
0000
0110
0000
0000
0010
0000
0000
1000
0000
,  // measure 19
1001
0000
0001
1000
0001
0000
0010
0100
,  // measure 20
1000
0000
0000
0000
0000
0000
0100
0000
0000
0000
0000
0000
0001
0000
0000
0000
0000
0000
0100
0000
1000
0100
0000
0010
,  // measure 21
0000
0001
0000
1000
1000
0000
0000
0000
,  // measure 22
0001
0000
0000
0000
0000
0000
0100
0000
0000
0000
0000
0000
1000
0000
0000
0000
0000
0000
0100
0000
0001
0100
0000
0010
,  // measure 23
0000
1000
0000
0001
0001
0000
0000
0000
,  // measure 24
1000
0000
0000
0000
0000
0000
0010
0000
0000
0000
0000
0000
0100
0000
0000
0000
0000
0000
0001
0000
0100
0010
0000
1000
,  // measure 25
0000
0001
0000
1000
1000
0000
0000
0000
,  // measure 26
0001
0000
0000
0000
0000
0000
0010
0000
0000
0000
0000
0000
0100
0000
0000
0000
0000
0000
1000
0000
0100
0010
0000
0001
,  // measure 27
0000
1000
0000
0001
0001
1000
0010
0100
,  // measure 28
0102
1003
2001
3100
,  // measure 29
1200
0000
0010
0000
1000
0000
0310
0001
,  // measure 30
0012
1003
2001
3010
,  // measure 31
1020
0000
0001
0000
1030
0010
0100
0001
,  // measure 32
2001
3010
1002
0013
,  // measure 33
0120
0000
0001
0000
0100
0000
0031
0010
,  // measure 34
0012
1003
2001
3010
,  // measure 35
1020
0000
0100
0000
0031
0010
1000
0100
,  // measure 36
0010
0101
1010
0011
,  // measure 37
1100
0000
1001
0000
0110
0000
0100
0010
,  // measure 38
0100
0110
1010
0110
,  // measure 39
0101
0000
0110
0000
1001
0000
0001
1000
,  // measure 40
0001
0011
0110
1100
,  // measure 41
0110
0000
0011
0000
1001
0000
1000
0001
,  // measure 42
1000
1010
1001
0011
,  // measure 43
1001
0000
1100
0000
0101
0000
1000
0001
,  // measure 44
2000
0000
3001
0001
1000
0010
0001
0010
,  // measure 45
2000
0000
3001
0001
1000
0100
0001
0100
,  // measure 46
2000
0000
3100
0100
1000
0100
0010
0001
,  // measure 47
2000
0000
3010
0010
0100
0010
0100
0100
,  // measure 48
0002
0000
1003
1000
0001
0100
1000
0100
,  // measure 49
0002
0000
1003
1000
0001
0010
1000
0010
,  // measure 50
0002
0000
0013
0010
0001
0010
0100
1000
,  // measure 51
0002
0000
0103
0100
0001
0100
0010
1000
,  // measure 52
0002
0010
2003
0010
,  // measure 53
3001
0000
1001
0001
1000
0000
1001
0000
,  // measure 54
0002
0100
2003
0100
,  // measure 55
3001
0000
0010
0000
0100
1000
0100
0010
,  // measure 56
0001
0101
1000
1010
,  // measure 57
0001
0000
1001
1000
0001
0000
1001
0000
,  // measure 58
1000
1100
0010
0011
,  // measure 59
0001
1000
1001
0002
,  // measure 60
0103
0000
0000
0000
0000
0000
0010
0000
0000
1000
0000
0000
0200
0000
0000
0000
0000
0000
0000
0000
0000
0000
0000
0000
0310
0000
0000
0000
0001
0000
0010
0000
0000
0000
0000
0000
0002
0000
0000
0000
0000
0000
0000
0000
0000
0023
0000
0000
,  // measure 61
0000
0000
0230
0000
2300
0000
0000
0000
3002
0000
0000
0000
0103
0000
0000
0100
,  // measure 62
0001
0000
0000
0000
0000
0000
1000
0000
0000
0000
0000
0000
0100
0000
0000
0000
0000
0000
0000
0000
0000
0000
0000
0000
1000
0000
0000
0000
0100
0000
1000
0000
0000
0000
0001
0000
2000
0000
0000
0000
0000
0000
0000
0000
0000
3020
0000
0000
,  // measure 63
0000
0000
0032
0000
0000
0000
0013
0000
0010
0000
0000
0000
1000
0000
0010
0100
,  // measure 64
0002
0000
0000
0000
0000
0000
0000
0000
0000
0000
0000
0000
2003
0000
0000
0000
0000
0000
0000
0000
0000
0000
0000
0000
3100
0000
0000
0000
0010
0000
0001
0000
0000
0000
1000
0000
0002
0000
0000
0000
0000
0000
0000
0000
0000
0203
0000
0000
,  // measure 65
0000
0320
2030
0000
3002
0000
2003
0000
,  // measure 66
0100
0000
0000
0000
0000
0000
0000
0000
0000
0000
0000
0000
3002
0000
0000
0000
0000
0000
0000
0000
0000
0000
0000
0000
0103
0000
0000
0000
0001
0000
0100
0000
0000
0000
0001
0000
2000
0000
0000
0000
0000
0000
0000
0000
0000
3200
0000
0000
,  // measure 67
0000
0302
0203
0000
0320
0030
0000
0000
;

//---------------dance-single - ----------------
#NOTES:
     dance-single:
     :
     Medium:
     5:
     0.320,0.306,0.060,0.121,0.004,273.000,8.000,16.000,0.000,0.000,0.000,0.320,0.306,0.060,0.121,0.004,273.000,8.000,16.000,0.000,0.000,0.000:
0000
0000
0000
0000
,
0000
0000
0000
0000
,
0001
0000
0000
0000
0100
0000
0000
0000
0010
0000
0000
0000
1000
0000
0000
1000
,
0000
0001
0000
0001
0001
0000
0000
0000
,
1000
1000
0100
0100
,
0010
0000
0010
0000
0010
0100
0010
0100
,
0010
0010
0001
0001
,
1000
0000
1000
0000
0001
0000
1000
0001
,
1000
0010
0100
0001
1000
0000
1000
0000
,
0100
0100
0010
0010
,
0001
0010
0100
1000
0001
0000
0001
0000
,
0100
0100
0010
0010
,
1000
0000
0001
0000
0010
0001
0010
0000
,
0100
0100
1000
1000
,
0100
0000
1000
0000
0010
1000
0010
0000
,
0100
0100
0001
0001
,
0100
0010
1010
0001
,
1001
1000
1001
0001
,
0010
0100
1100
1000
,
1001
0000
0001
0000
1000
0001
1000
0001
,
1000
0000
0000
0000
,
0000
0000
0000
0000
0000
0001
1000
0001
,
1000
0000
0000
0000
,
0000
0000
0000
0000
0000
0001
1000
0001
,
1000
0000
0000
0000
,
0000
0000
0000
0000
0000
0001
1000
0001
,
1000
0000
0000
0000
,
0000
0000
0000
0000
0000
0001
1000
0001
,
1000
1000
0100
0100
,
0010
0000
0010
0000
0010
0000
0100
0010
,
0001
0001
0100
0100
,
0010
0000
0010
0000
0010
1000
0001
0010
,
0100
0100
1000
1000
,
0001
0000
0001
0000
0001
0000
0100
0010
,
1000
1000
0001
0001
,
0010
0000
0010
0000
0010
0100
1000
0001
,
0100
0010
0010
1000
,
1000
0000
0001
0000
0001
0000
0010
0001
,
0010
0100
0100
1000
,
1000
0000
0001
0000
0001
0000
1000
0001
,
1000
0010
0010
0100
,
0100
0000
0010
0000
0010
0000
1000
0001
,
1000
0100
0100
0010
,
0010
0000
0001
0000
0001
0000
1000
0001
,
2000
3000
2000
3000
,
1000
0000
0010
0100
0001
0000
1000
0000
,
0002
0003
0002
0003
,
0001
0000
0100
0010
1000
0000
0001
0000
,
2000
3000
2000
3000
,
1000
0000
0100
0010
0001
0000
1000
0000
,
0002
0003
0002
0003
,
0001
0000
0010
0100
1000
0000
0001
0000
,
2000
3010
0020
1030
,
1000
0000
0001
1000
0001
0000
1001
0000
,
0002
0013
0020
0031
,
0001
0000
1000
0001
1000
0000
1001
0000
,
0002
0103
0020
1030
,
0010
0000
1000
0001
1000
0000
0001
0000
,
0020
0130
2000
3001
,
1000
0001
1001
0001
,
0100
0000
0001
0000
1000
0001
1000
0000
,
0100
0010
0001
1000
,
0010
1000
0001
0000
1000
0001
0010
0000
,
0100
0000
1000
1000
1000
0000
0001
0000
,
0100
0001
1000
0010
,
1000
0001
0010
0000
0001
0000
1000
0000
,
0100
1000
0001
1000
,
0010
0100
0001
0000
1000
0000
0000
0000
;

//---------------dance-single - ----------------
#NOTES:
     dance-single:
     :
     Easy:
     3:
     0.190,0.204,0.000,0.000,0.000,176.000,0.000,0.000,0.000,0.000,0.000,0.190,0.204,0.000,0.000,0.000,176.000,0.000,0.000,0.000,0.000,0.000:
0000
0000
0000
0000
,
0000
0000
0000
0000
,
0001
0001
0001
0001
,
0000
1000
1000
0000
,
0001
0000
0001
0000
,
0001
0001
0001
0000
,
1000
0000
1000
0000
,
1000
1000
1000
0000
,
0001
1000
0010
0000
,
0010
0000
0010
0000
,
1000
0001
0010
0000
,
0010
0000
0010
0000
,
0100
0100
1000
1000
,
0001
0000
0001
0000
,
0100
0100
0010
0010
,
1000
0000
1000
0000
,
0001
1000
0001
0000
,
0010
0000
0100
0000
,
1000
0001
1000
0000
,
0010
0000
0100
0000
,
0001
0000
0000
0000
,
0000
0000
0000
1000
,
1000
0000
0000
0000
,
0000
0000
0000
0001
,
0001
0000
0000
0000
,
0000
0000
0000
1000
,
1000
0000
0000
0000
,
0000
0000
0000
0001
,
0001
0000
0001
0000
,
0010
0010
0010
0000
,
0001
0000
0001
0000
,
1000
1000
1000
0001
,
0100
0000
0100
0000
,
0010
0010
0010
0000
,
1000
0000
1000
0000
,
0001
0001
0001
1000
,
0001
0010
0010
0001
,
0001
1000
1000
0001
,
1000
0010
0010
1000
,
1000
0001
0001
1000
,
0001
0010
0010
0100
,
0100
1000
1000
0100
,
1000
0001
0001
1000
,
1000
0000
0000
0000
,
0001
0000
0001
0000
,
0100
0001
0100
0010
,
1000
0000
1000
0000
,
0100
1000
0100
0010
,
0001
0000
0001
0000
,
1000
0001
1000
0001
,
1000
0000
1000
0000
,
0001
1000
0001
0000
,
0100
0000
0100
0000
,
0010
0100
0010
1000
,
0100
0000
0100
0000
,
0010
0100
0010
0001
,
1000
0000
0100
0000
,
1000
0001
1000
0001
,
0100
0000
0001
0000
,
1000
0001
1000
0010
,
0000
0010
0000
1000
,
1000
1000
0000
0001
,
0000
0001
0000
0010
,
0010
0100
0100
1000
,
0000
1000
0000
0001
,
0001
0001
0001
0100
,
0000
0100
0000
0010
,
1000
0001
0010
0000
;
