#VERSION:0.82;
#TITLE:Chant du Cygne;
#SUBTITLE:;
#ARTIST:ke-ji;
#TITLETRANSLIT:;
#SUBTITLETRANSLIT:;
#ARTISTTRANSLIT:;
#GENRE:;
#ORIGIN:;
#CREDIT:;
#BANNER:[Unenglish] - Chant du Cygne.jpg;
#BACKGROUND:[Unenglish] - Chant du Cygne-bg.jpg;
#PREVIEWVID:;
#JACKET:[Unenglish] - Chant du Cygne-jacket.jpg;
#CDIMAGE:;
#DISCIMAGE:;
#LYRICSPATH:;
#CDTITLE:cdtitle.png;
#MUSIC:Chant du Cygne.mp3;
#OFFSET:-0.684000;
#SAMPLESTART:95.815979;
#SAMPLELENGTH:12.000000;
#SELECTABLE:YES;
#BPMS:0.000=140.000,
60.000=190.000,
125.000=95.000,
129.000=190.000,
193.000=95.000,
226.000=190.000;
#STOPS:60.000=2.142,
205.000=3.158;
#DELAYS:;
#WARPS:;
#TIMESIGNATURES:0.000=4=4;
#TICKCOUNTS:0.000=4;
#COMBOS:0.000=1;
#SPEEDS:0.000=1.000=0.000=0;
#SCROLLS:0.000=1.000;
#FAKES:;
#LABELS:0.000=Song Start;
#BGCHANGES:;
#KEYSOUNDS:;
#ATTACKS:
;

//---------------dance-single - ----------------
#NOTEDATA:;
#CHARTNAME:;
#STEPSTYPE:dance-single;
#DESCRIPTION:;
#CHARTSTYLE:;
#DIFFICULTY:Hard;
#METER:9;
#RADARVALUES:0.596635,0.938656,0.150352,0.417645,0.258940,432.000000,18.000000,50.000000,10.000000,0.000000,0.000000,0.000000,0.000000,0.596635,0.938656,0.150352,0.417645,0.258940,432.000000,18.000000,50.000000,10.000000,0.000000,0.000000,0.000000,0.000000;
#CREDIT:;
#NOTES:
// measure 0
0000
0000
0000
0000
,  // measure 1
0000
0000
0000
0000
,  // measure 2
0000
0000
0000
0000
,  // measure 3
0000
0000
0000
0000
,  // measure 4
0000
0000
0000
0000
,  // measure 5
0000
0000
0000
0000
,  // measure 6
2000
0000
0000
0000
,  // measure 7
0001
0000
3010
0000
0100
0000
0200
0000
0000
0000
0000
0000
,  // measure 8
0000
0000
0320
0230
,  // measure 9
0302
0000
0000
0023
,  // measure 10
0032
0023
0230
0000
,  // measure 11
0000
0000
0000
0000
0000
2000
0300
0000
,  // measure 12
3020
0000
0000
0000
0000
0000
0100
0000
1000
0030
0002
0000
,  // measure 13
0000
0000
0000
0000
,  // measure 14
0000
0000
0000
0000
,  // measure 15
0003
1002
0000
0203
,  // measure 16
0000
0320
0000
2030
,  // measure 17
0000
3200
0000
0320
,  // measure 18
0000
0032
0000
0203
,  // measure 19
0000
0000
0310
0100
0010
0000
1000
0000
0001
0000
2001
0000
0000
0000
0000
0000
,  // measure 20
0000
3002
0000
0023
,  // measure 21
0000
0230
0000
0320
,  // measure 22
0000
0032
0000
2003
,  // measure 23
0010
0000
3010
0100
0001
0000
0001
1000
,  // measure 24
0100
0000
0100
1000
0010
0000
0010
1000
,  // measure 25
0100
0010
0001
0100
0010
0000
0010
1000
,  // measure 26
0100
0000
0100
0010
0001
0000
0001
0100
,  // measure 27
0010
0100
1001
001M
0100
1001
001M
0100
,  // measure 28
0001
0000
0001
1000
0100
0000
0100
1000
,  // measure 29
0010
0000
0100
0100
0001
0001
0010
0010
,  // measure 30
0100
0000
0100
0000
1000
0000
1000
0000
0001
0000
0001
0000
0100
0000
0100
0001
,  // measure 31
0010
0000
0000
0000
0010
0000
0100
0000
2000
0000
0000
0000
0001
0000
0000
0000
0001
0000
0000
0000
0010
0000
0000
0000
3020
0000
0000
0000
0030
0000
0100
0001
,  // measure 32
0020
0130
0110
0010
0001
1000
0010
0100
,  // measure 33
0100
0000
0001
0000
1000
0000
0100
0000
0010
0000
0010
0000
0100
0000
1000
0001
,  // measure 34
1000
0010
0010
0100
0001
0001
1000
0010
,  // measure 35
0010
0000
0000
0000
0000
0000
0100
0000
0000
0001
0000
0000
0100
0000
0000
0000
0000
0000
0010
0000
0000
0000
0000
0000
1000
0000
0000
0000
0000
0000
1000
0000
0000
0100
0000
0000
1000
0000
0000
0000
1000
0000
0000
0000
0010
0000
0000
0000
,  // measure 36
0100
0001
0100
0001
0100
0000
0010
0000
1000
0000
0100
0000
0010
0000
0100
0000
,  // measure 37
0100
0000
1000
0000
0001
0000
0010
0000
0100
0000
0100
0000
1000
0001
0100
0000
,  // measure 38
0010
0100
0001
1000
0010
0010
0100
0001
,  // measure 39
0001
0000
1000
0000
0100
0000
0010
0000
0001
0000
0010
0000
0100
1000
0010
0100
,  // measure 40
0010
0010
1010
1000
0001
0010
0001
0100
,  // measure 41
0100
0000
0001
0000
1000
0000
0001
0000
0010
0000
0010
0000
0100
0000
0100
1000
,  // measure 42
0100
0010
0010
0001
0100
0010
0001
0010
,  // measure 43
1000
0000
0010
0100
0010
0000
1000
0000
1000
0000
0001
0100
0001
0000
0010
0100
,  // measure 44
0010
0010
0001
1000
0010
0100
0010
1000
,  // measure 45
1000
0100
0001
0100
0010
0001
0001
0100
,  // measure 46
1000
0100
0100
0001
0010
0010
1000
0010
,  // measure 47
0100
0000
1000
0001
1000
0000
0010
0000
0100
0000
0001
0010
0100
1000
0100
1000
,  // measure 48
0100
0000
0010
0000
0110
0100
1000
0010
0100
1000
0100
0001
0010
0100
0001
0100
,  // measure 49
1000
0010
0100
1000
0100
0001
0010
0100
0001
1000
0010
0100
1000
0010
0100
0001
,  // measure 50
0010
0100
1000
0100
0001
1000
0010
0100
1000
0001
0100
0010
1000
0001
0010
0100
,  // measure 51
1000
0010
0100
0001
0010
0000
0000
0000
1002
0000
0000
0000
0023
0000
0000
0000
,  // measure 52
0230
2300
3002
0203
,  // measure 53
0302
0000
0000
0000
0023
0000
0000
0100
0230
0000
0000
0000
2300
0000
0000
0000
,  // measure 54
3002
0203
2300
3200
,  // measure 55
0320
0000
0000
0000
0230
0000
0000
0000
0302
0000
0000
0000
0000
0003
0001
0010
,  // measure 56
0200
0000
0000
0000
0000
0000
0000
0300
1100
0000
1000
0000
0001
0000
0100
0000
,  // measure 57
0001
0010
0010
0100
0001
0100
1000
0001
,  // measure 58
0100
0000
0010
1000
0010
0000
0100
0000
0100
0000
0001
0000
0010
0000
0100
0000
,  // measure 59
1000
0000
0001
0000
0010
0000
0010
0001
0100
0000
0010
0000
1000
0000
0100
0010
,  // measure 60
0100
0000
0100
0000
1000
0000
1000
0000
0000
0010
0000
0000
0100
0000
0000
0001
0000
0000
1000
0000
0000
0001
0000
0000
,  // measure 61
0100
1000
0100
0010
0010
1000
0100
0010
,  // measure 62
0001
1000
1000
0010
0001
0010
0100
0001
,  // measure 63
0010
0100
1000
0001
0100
1000
0100
0010
,  // measure 64
1000
0000
0000
0000
0100
0000
0000
0000
0010
0000
0000
0000
0001
0000
0000
0000
0000
0000
0100
0000
0000
0010
0000
0000
0100
0000
0000
0000
0000
0000
0001
0000
0000
0000
0000
0000
0001
0000
0000
0000
0000
0000
1000
0000
0000
0000
0000
0000
,  // measure 65
1000
0010
0010
0100
0100
0001
0001
0010
,  // measure 66
0010
0100
0100
1000
1001
001M
0100
1001
,  // measure 67
M100
0010
1001
001M
0100
1001
M100
0010
,  // measure 68
1001
010M
0010
1001
M010
0100
1001
001M
,  // measure 69
0100
1001
M100
0010
0000
0000
0000
0000
,  // measure 70
0000
0000
0000
0000
0000
0000
0001
1000
2002
0000
0000
0000
0000
0000
0000
0000
,  // measure 71
0000
0000
0000
0000
,  // measure 72
0000
0000
3003
0000
;

//---------------dance-single - ----------------
#NOTEDATA:;
#CHARTNAME:;
#STEPSTYPE:dance-single;
#DESCRIPTION:;
#CHARTSTYLE:;
#DIFFICULTY:Medium;
#METER:6;
#RADARVALUES:0.447476,0.605585,0.141999,0.526232,0.083529,295.000000,17.000000,63.000000,0.000000,0.000000,0.000000,0.000000,0.000000,0.447476,0.605585,0.141999,0.526232,0.083529,295.000000,17.000000,63.000000,0.000000,0.000000,0.000000,0.000000,0.000000;
#CREDIT:;
#NOTES:
0000
0000
0000
0000
,
0000
0000
0000
0000
,
0000
0000
0000
0000
,
0000
0000
0000
0000
,
0000
0000
0000
0000
,
0000
0000
0000
0000
,
2000
0000
0000
0000
,
3001
0000
0010
0000
0100
0000
2000
0000
0000
0000
0000
0000
,
0000
0000
3200
0320
,
0032
0000
0000
2003
,
3020
0000
0000
0230
0000
0300
0200
0000
0000
0000
0000
0000
,
0000
0000
0000
0000
,
0320
0000
0000
0000
0000
0000
1030
0000
0100
0000
0020
0000
,
0000
0000
0000
0000
,
0000
0000
0000
0000
,
0030
0210
0000
2300
,
0000
3002
0000
0203
,
0000
0320
0000
0230
,
0000
0302
0000
2003
,
0000
3010
1010
1000
0100
0120
0000
0000
,
0000
0032
0000
0203
,
0000
0320
0000
2030
,
0000
3002
0000
0203
,
0001
0000
0301
0010
0001
0000
1000
0100
,
1000
0000
0010
0100
0010
0000
1000
0001
,
1000
0000
0100
0010
0100
0000
1000
0010
,
1000
0000
0001
0100
0001
0000
0010
0100
,
1000
0000
1001
0000
0100
1001
0001
0100
,
0001
0000
0010
0100
0010
0000
0100
1000
,
0100
0000
1000
0001
1000
0001
0100
0010
,
0100
0010
1000
0100
1000
0100
0010
0001
,
0010
0001
0200
0000
0000
0000
0000
0000
,
0000
0000
0310
0000
1000
0001
1000
0100
,
0100
0000
0000
0000
0010
0000
0000
0000
0100
0000
1000
0000
0000
0010
0100
0000
,
0001
1000
1000
0000
0010
0100
0000
0001
,
1000
0000
0000
0100
0000
0000
0100
0000
0000
0010
0000
0000
0100
0000
0000
1000
0000
0000
0010
0000
0100
0000
0010
0000
,
0100
0000
0001
0000
1000
0010
1000
0100
,
0010
0000
0000
0000
0100
0000
0000
0000
0010
0000
0100
0000
0000
1000
0001
0000
,
1000
0010
0010
0000
0100
0001
0000
1000
,
0010
1000
0100
0010
0001
1000
0001
1000
,
0001
0010
0110
0000
0100
1000
0100
0010
,
0100
0000
0000
0000
1000
0000
0000
0000
0001
0000
0100
0000
0000
0010
0100
0000
,
0001
1000
1000
0000
0100
0010
0000
0100
,
1000
0000
0000
0001
0000
0000
0001
0000
0000
0000
0000
0000
0100
0000
0000
0001
0000
0000
1000
0000
0010
0000
1000
0000
,
0010
0000
0100
0000
0001
1000
0001
0100
,
0010
0000
0100
0000
0001
1000
0000
1000
,
0100
0010
0001
0000
0100
0010
0000
0010
,
1000
0100
0010
0100
1000
0001
0010
0100
,
1000
0010
0200
0000
0000
0000
0000
0000
,
0302
0000
0000
2003
,
0000
0000
3020
0000
,
0000
0030
2010
3002
,
0203
0302
0023
0230
,
2300
0000
0000
0000
3002
0000
0000
0100
0203
0000
0000
0000
0320
0000
0000
0000
,
2030
3002
0023
0000
,
0000
0000
0230
0000
,
2300
0000
3001
0010
0110
0000
0100
0000
,
1000
0010
1000
0000
0001
0000
0100
0001
,
0000
0001
0100
0000
0010
0000
1000
0000
0001
0000
0000
0000
0001
0000
1000
0000
,
0000
0000
1000
0000
0010
0000
1000
0000
0100
0000
0000
0000
0000
1000
0001
0000
,
0010
0000
0100
0000
0010
0000
0100
0000
0000
0000
0000
0000
1000
0000
0000
0000
0000
0000
0001
0000
0000
0100
0000
0000
,
0000
0100
0010
1000
0010
0000
0100
0001
,
0000
0001
1000
0010
0100
0000
0100
0001
,
0000
0000
0001
0000
0010
0000
0001
0000
1000
0000
0000
0000
0000
1000
0010
0000
,
0100
0000
0010
0000
0100
0000
0010
0000
0000
1000
0000
0000
1001
0000
0000
0001
0000
0000
1000
0000
0000
0001
0000
0000
,
0100
0010
0100
0010
1000
0010
1000
0010
,
0100
0001
0100
0001
2002
0000
3003
0202
,
0000
0303
0022
0000
0033
0220
0000
0330
,
2200
0000
3300
2002
0000
3003
0202
0000
,
0303
2002
0000
3003
0000
0000
0000
0000
,
0000
0000
0000
0000
0000
0000
1000
0100
0020
0000
0000
0000
0000
0000
0000
0000
,
0000
0000
0000
0000
,
0000
0000
0030
0000
;

//---------------dance-single - ----------------
#NOTEDATA:;
#CHARTNAME:;
#STEPSTYPE:dance-single;
#DESCRIPTION:;
#CHARTSTYLE:;
#DIFFICULTY:Easy;
#METER:4;
#RADARVALUES:0.299511,0.484468,0.066823,0.158705,0.004176,224.000000,8.000000,19.000000,0.000000,0.000000,0.000000,0.000000,0.000000,0.299511,0.484468,0.066823,0.158705,0.004176,224.000000,8.000000,19.000000,0.000000,0.000000,0.000000,0.000000,0.000000;
#CREDIT:;
#NOTES:
0000
0000
0000
0000
,
0000
0000
0000
0000
,
0000
0000
0000
0000
,
0000
0000
0000
0000
,
0000
0000
0000
0000
,
0000
0000
0000
0000
,
2000
0000
0000
0000
,
3001
0000
0200
0000
,
0000
0000
0310
1000
,
0002
0000
0000
0013
,
0100
1000
0002
0000
,
0000
0000
0000
0000
0000
0203
0000
0000
,
0320
0000
0000
0000
0000
0000
1030
0000
0000
0000
0020
0000
,
0000
0000
0000
0000
,
0000
0000
0000
0000
,
0030
1000
0000
1000
,
0000
0001
0000
0001
,
0000
0100
0000
0100
,
0000
0010
0000
0010
,
0000
0000
1010
0000
0000
0101
0000
0000
,
0000
0010
0000
1000
,
0000
0001
0000
1000
,
0000
0100
0000
0010
,
0001
0010
0100
1000
,
0010
0000
0100
0001
,
0010
0000
0010
0100
,
1000
0000
1000
0100
,
0010
0000
0110
0000
0000
1001
0000
0000
,
0000
0001
1000
0100
,
0010
0100
0100
1000
,
1000
0001
0001
1000
,
1000
1020
0000
0000
,
0000
0000
0130
0000
0001
0000
1000
0010
,
1000
0000
0001
0000
0010
0100
0000
0010
,
0100
0000
1000
0000
0001
0100
0000
0001
,
0100
0010
0100
0000
0010
1000
0200
0000
,
0300
0000
0010
0000
0001
0000
1000
0010
,
1000
0000
0100
0000
0010
0001
0000
0010
,
0001
0100
0010
0000
1000
0001
0000
1000
,
0001
0010
0100
0000
1000
0100
0020
0000
,
0031
0000
1001
0000
1000
0000
0010
0100
,
0010
0000
1000
0000
0001
0010
0000
0001
,
0010
0100
1000
0000
0010
1000
0000
0010
,
1000
0000
0100
0000
0010
0001
0200
0000
,
0300
0000
0010
0000
1000
0000
0001
0100
,
0001
0000
0010
0000
0100
1000
0000
0100
,
1000
0000
0010
0000
0100
0001
0000
0100
,
0001
0010
0100
0000
0100
0000
1000
0000
,
1000
1002
0000
0000
,
0000
0000
0000
0000
,
0000
0000
0000
0000
,
0000
0003
1000
0100
,
0010
0001
0100
0010
,
1000
0001
0010
0100
,
1000
0010
0200
0000
,
0000
0000
0302
0000
,
0000
0000
1003
0010
,
0100
0001
0100
0000
0010
0000
1000
0001
,
0000
1000
0001
0000
0010
0000
0100
1000
,
0000
0100
1000
0010
0100
0000
0001
1000
,
0020
0130
0001
1000
,
0001
0100
0001
0000
0010
0000
0100
1000
,
0000
0100
0010
0100
1000
0000
0001
0100
,
0000
0001
0100
0010
0100
0000
0010
1000
,
0200
0000
0320
0000
0031
1000
0001
1000
,
0001
1000
0001
1000
0001
1000
0001
1000
,
0001
1000
0100
0010
0001
0000
0000
1000
,
0000
0000
0001
0000
0000
1000
0000
0000
,
0001
0000
0000
0010
0000
0000
0100
0000
,
0000
1000
0000
0000
0000
0000
0000
0000
,
0000
0000
2002
0000
,
0000
0000
0000
0000
,
0000
0000
3003
0000
;
