#VERSION:0.81;
#TITLE:Bibi-Hendl;
#SUBTITLE:;
#ARTIST:Takeo Ischi;
#TITLETRANSLIT:;
#SUBTITLETRANSLIT:;
#ARTISTTRANSLIT:;
#GENRE:;
#ORIGIN:;
#CREDIT:;
#BANNER:Bibi-Hendl - Takeo Ischibn.png;
#BACKGROUND:Bibi-Hendl - Takeo Ischibg.png;
#PREVIEWVID:;
#JACKET:Bibi-Hendl - Takeo Ischijacket.png;
#CDIMAGE:;
#DISCIMAGE:;
#LYRICSPATH:Bibi-Hendl - Takeo Ischi.lrc;
#CDTITLE:encorerebirth.png;
#MUSIC:Bibi-Hendl - Takeo Ischi.ogg;
#OFFSET:-0.224;
#SAMPLESTART:50.682;
#SAMPLELENGTH:14.416;
#SELECTABLE:YES;
#BPMS:0.000=133.000;
#STOPS:;
#DELAYS:;
#WARPS:;
#TIMESIGNATURES:0.000=4=4;
#TICKCOUNTS:0.000=4;
#COMBOS:0.000=1;
#SPEEDS:0.000=1.000=0.000=0;
#SCROLLS:0.000=1.000;
#FAKES:;
#LABELS:0.000=Song Start;
#BGCHANGES:;
#KEYSOUNDS:;
#ATTACKS:
;

//---------------dance-single - Spork!----------------
#NOTEDATA:;
#CHARTNAME:;
#STEPSTYPE:dance-single;
#DESCRIPTION:Spork!;
#CHARTSTYLE:;
#DIFFICULTY:Beginner;
#METER:1;
#RADARVALUES:0.110,0.104,0.039,0.146,0.000,60.000,4.000,15.000,0.000,0.000,0.000,0.000,0.000,0.110,0.104,0.039,0.146,0.000,60.000,4.000,15.000,0.000,0.000,0.000,0.000,0.000;
#CREDIT:Spork!;
#OFFSET:-0.184;
#BPMS:0.000=133.000
;
#STOPS:;
#DELAYS:;
#WARPS:;
#TIMESIGNATURES:0.000=4=4
;
#TICKCOUNTS:0.000=4
;
#COMBOS:0.000=1
;
#SPEEDS:0.000=1.000=0.000=0
;
#SCROLLS:0.000=1.000
;
#FAKES:;
#LABELS:0.000=Song Start
;
#NOTES:
// measure 0
0000
0000
0000
0000
,  // measure 1
0000
0000
0000
0000
,  // measure 2
0000
0000
0000
0000
,  // measure 3
0000
0000
0000
0000
,  // measure 4
0002
0000
0000
0000
,  // measure 5
0003
0000
0000
0000
,  // measure 6
2000
0000
0000
0000
,  // measure 7
3000
0000
0000
0000
,  // measure 8
0001
0000
0010
0000
,  // measure 9
0100
0000
0000
0000
,  // measure 10
0010
0000
0100
0000
,  // measure 11
1000
0000
0000
0000
,  // measure 12
2002
0000
0000
0000
,  // measure 13
3003
0000
0000
0000
,  // measure 14
0220
0000
0000
0000
,  // measure 15
0330
0000
0000
0000
,  // measure 16
1000
0000
1000
0000
,  // measure 17
0001
0000
0001
0000
,  // measure 18
1000
0000
1000
0000
,  // measure 19
0001
0000
0000
0000
,  // measure 20
0200
0000
0000
0000
,  // measure 21
0300
0000
0000
0000
,  // measure 22
0020
0000
0000
0000
,  // measure 23
0030
0000
0000
0000
,  // measure 24
1000
0000
0100
0000
,  // measure 25
0010
0000
0000
0000
,  // measure 26
0100
0000
0010
0000
,  // measure 27
0001
0000
0000
0000
,  // measure 28
0220
0000
0000
0000
,  // measure 29
0330
0000
0000
0000
,  // measure 30
2002
0000
0000
0000
,  // measure 31
3003
0000
0000
0000
,  // measure 32
0001
0000
0001
0000
,  // measure 33
1000
0000
1000
0000
,  // measure 34
0001
0000
0001
0000
,  // measure 35
1000
0000
0000
0000
,  // measure 36
0100
0000
0100
0000
,  // measure 37
0010
0000
0010
0000
,  // measure 38
0100
0000
0100
0000
,  // measure 39
0010
0000
0000
0000
,  // measure 40
0002
0000
0000
0000
,  // measure 41
0003
0000
0000
0000
,  // measure 42
2000
0000
0000
0000
,  // measure 43
3000
0000
0000
0000
,  // measure 44
0001
0000
0010
0000
,  // measure 45
0001
0000
0100
0000
,  // measure 46
0001
0000
0010
0000
,  // measure 47
0100
0000
1000
0000
,  // measure 48
1000
0000
0100
0000
,  // measure 49
1000
0000
0010
0000
,  // measure 50
1000
0000
0100
0000
,  // measure 51
0010
0000
0001
0000
,  // measure 52
0002
0000
0000
0000
,  // measure 53
0000
0000
0003
0000
;

//---------------dance-single - Spork!----------------
#NOTEDATA:;
#CHARTNAME:;
#STEPSTYPE:dance-single;
#DESCRIPTION:Spork!;
#CHARTSTYLE:;
#DIFFICULTY:Easy;
#METER:3;
#RADARVALUES:0.246,0.208,0.078,0.185,0.000,150.000,8.000,19.000,0.000,0.000,0.000,0.000,0.000,0.246,0.208,0.078,0.185,0.000,150.000,8.000,19.000,0.000,0.000,0.000,0.000,0.000;
#CREDIT:Spork!;
#NOTES:
// measure 0
0000
0000
0000
0000
,  // measure 1
0000
0000
0000
0000
,  // measure 2
0000
0000
0000
0000
,  // measure 3
0000
0000
0000
0000
,  // measure 4
2000
0000
0100
0000
,  // measure 5
3001
1000
0001
0000
,  // measure 6
0002
0000
0010
0000
,  // measure 7
0103
0010
0100
0100
,  // measure 8
0001
0010
0100
0000
,  // measure 9
0100
1000
0010
0010
,  // measure 10
1000
0100
0010
0000
,  // measure 11
0010
0001
1000
1000
,  // measure 12
0002
0000
0103
0001
,  // measure 13
0010
0100
0110
0000
,  // measure 14
2000
0000
3010
1000
,  // measure 15
0100
1000
1001
0000
,  // measure 16
0001
0010
0001
0100
,  // measure 17
0001
1000
0001
0001
,  // measure 18
1000
0100
1000
0010
,  // measure 19
2002
0000
0000
3003
,  // measure 20
1000
0000
0100
0000
,  // measure 21
1000
0000
1000
0000
,  // measure 22
0001
0000
0100
0000
,  // measure 23
0220
0000
0000
0330
,  // measure 24
0100
0010
0100
0000
,  // measure 25
0100
0001
1000
0001
,  // measure 26
0010
0100
0010
0000
,  // measure 27
0010
0001
1000
0010
,  // measure 28
0200
0000
0310
1000
,  // measure 29
0100
0010
0110
0000
,  // measure 30
0200
0000
0310
0001
,  // measure 31
0100
0001
1001
0000
,  // measure 32
1000
0100
1000
0010
,  // measure 33
1000
0001
1000
1000
,  // measure 34
0001
0010
0001
0100
,  // measure 35
0220
0000
0000
0330
,  // measure 36
1000
0100
1000
0001
,  // measure 37
1000
0010
0100
0100
,  // measure 38
0001
0010
0001
0100
,  // measure 39
0002
0000
0000
0003
,  // measure 40
2000
0000
0000
0000
,  // measure 41
3020
0000
0000
0000
,  // measure 42
0230
0000
0010
0000
,  // measure 43
0302
0100
1003
0001
,  // measure 44
1000
0100
1000
0010
,  // measure 45
0100
0001
0010
0010
,  // measure 46
0001
0100
0001
0010
,  // measure 47
0100
1000
0010
0010
,  // measure 48
1000
0100
0001
0100
,  // measure 49
1000
0010
0001
0010
,  // measure 50
1000
1000
0001
0001
,  // measure 51
0100
0001
1000
0100
,  // measure 52
0220
0000
0000
0000
,  // measure 53
0000
0000
0330
0000
;

//---------------dance-single - Spork!----------------
#NOTEDATA:;
#CHARTNAME:;
#STEPSTYPE:dance-single;
#DESCRIPTION:Spork!;
#CHARTSTYLE:;
#DIFFICULTY:Medium;
#METER:5;
#RADARVALUES:0.339,0.338,0.117,0.554,0.000,175.000,12.000,57.000,0.000,0.000,0.000,0.000,0.000,0.339,0.338,0.117,0.554,0.000,175.000,12.000,57.000,0.000,0.000,0.000,0.000,0.000;
#CREDIT:Spork!;
#NOTES:
// measure 0
0000
0000
0000
0000
,  // measure 1
0000
0000
0000
0000
,  // measure 2
0000
0000
0000
0000
,  // measure 3
0000
0000
0000
0000
,  // measure 4
0001
0010
0001
0100
,  // measure 5
0010
1000
0200
0000
,  // measure 6
1300
0010
1000
0100
,  // measure 7
0010
0001
1000
1000
,  // measure 8
0001
0100
0010
0010
,  // measure 9
1000
0000
0010
1000
0001
0000
0001
0000
,  // measure 10
1000
0100
0010
0010
,  // measure 11
0001
0000
0010
0001
0100
0000
0010
0000
,  // measure 12
0120
0000
1030
0001
,  // measure 13
0020
0032
0203
0300
,  // measure 14
0210
0000
0301
1000
,  // measure 15
1100
1001
0101
0000
,  // measure 16
0002
0013
0020
0130
,  // measure 17
0200
1300
2000
3001
,  // measure 18
2000
3010
0020
0130
,  // measure 19
0001
1000
0001
1000
0001
1000
0001
0000
,  // measure 20
1000
0000
0100
0000
,  // measure 21
0010
0000
0010
0000
,  // measure 22
0001
0000
0100
0000
,  // measure 23
0220
0000
0000
0330
,  // measure 24
0001
0010
0001
0001
,  // measure 25
0100
0001
0000
0001
1000
0000
0010
0000
,  // measure 26
1000
0100
1000
1000
,  // measure 27
0010
1000
0001
1000
0100
0000
0010
0000
,  // measure 28
0120
0000
0031
0100
,  // measure 29
0020
2030
3200
0300
,  // measure 30
0210
0000
1300
0001
,  // measure 31
0011
1001
1010
0000
,  // measure 32
2000
3100
0200
0310
,  // measure 33
0020
0031
0002
1003
,  // measure 34
0002
0103
0200
0310
,  // measure 35
1000
0001
1000
0001
1000
0001
1000
0000
,  // measure 36
0002
0013
0002
0103
,  // measure 37
0002
1003
2000
3001
,  // measure 38
2000
3100
2000
3010
,  // measure 39
0020
0000
0000
0030
,  // measure 40
0200
0000
0000
0000
,  // measure 41
0320
0000
0000
0000
,  // measure 42
2030
0000
0100
0000
,  // measure 43
3002
0010
0100
1003
,  // measure 44
0002
0010
0203
0010
,  // measure 45
0302
1000
0203
0320
,  // measure 46
2030
0100
3020
0100
,  // measure 47
2030
0001
3020
2030
,  // measure 48
3002
0100
0023
0100
,  // measure 49
0032
1000
0023
0032
,  // measure 50
2003
0010
3200
0010
,  // measure 51
2300
0001
3200
0310
,  // measure 52
0220
0000
0000
0000
,  // measure 53
0000
0000
0330
0000
;

//---------------dance-single - Spork!----------------
#NOTEDATA:;
#CHARTNAME:;
#STEPSTYPE:dance-single;
#DESCRIPTION:Spork!;
#CHARTSTYLE:;
#DIFFICULTY:Hard;
#METER:8;
#RADARVALUES:0.540,0.624,0.272,0.447,0.112,315.000,28.000,46.000,0.000,0.000,0.000,0.000,0.000,0.540,0.624,0.272,0.447,0.112,315.000,28.000,46.000,0.000,0.000,0.000,0.000,0.000;
#CREDIT:Spork!;
#NOTES:
// measure 0
0000
0000
0000
0000
,  // measure 1
0000
0000
0000
0000
,  // measure 2
0000
0000
0000
0000
,  // measure 3
0000
0000
0000
0000
,  // measure 4
0010
1000
0000
1100
0000
1001
0000
0001
,  // measure 5
0010
0100
1000
0001
0000
1000
0010
0000
,  // measure 6
0100
0000
0001
0000
0000
0000
0011
0000
0000
0000
1001
0000
0000
0000
1000
0001
,  // measure 7
1000
1000
0100
0100
0010
0010
0001
0001
,  // measure 8
0200
0010
1000
0301
,  // measure 9
0010
0000
0000
0100
0000
0000
1000
0000
0010
0000
0000
0000
1000
0000
0000
0000
,  // measure 10
0200
0010
0001
1300
,  // measure 11
0010
0000
0000
0100
0010
0000
1000
0000
0001
0000
0000
0000
0010
0000
0000
0000
,  // measure 12
0210
0000
0310
0001
0100
0010
0100
0001
,  // measure 13
2000
3020
0032
0003
,  // measure 14
0210
0000
0310
1000
0100
0010
0100
1000
,  // measure 15
1010
0000
0011
0000
1010
0000
0000
1000
,  // measure 16
0002
0010
0013
0001
0200
0010
0310
1000
,  // measure 17
0020
0100
0130
0001
2000
0001
3001
0000
,  // measure 18
2000
0100
3100
1000
0020
0100
0130
0001
,  // measure 19
1000
0000
1000
0000
0100
0000
0100
0000
0010
0000
0010
0000
0001
0000
0001
1000
,  // measure 20
0001
0100
0000
0101
0000
0110
0000
0010
,  // measure 21
0100
0000
0001
0000
1000
0000
0100
0000
0000
0000
2000
0000
3002
0000
1003
0001
,  // measure 22
1000
0010
0000
1010
0000
0110
0000
0100
,  // measure 23
0020
0000
0000
0000
0000
0100
0100
0130
,  // measure 24
0002
0010
1000
0203
,  // measure 25
0310
1000
0000
0010
0100
0001
0001
0001
,  // measure 26
2000
0100
0001
3020
,  // measure 27
0130
0000
0000
0010
0100
0000
0001
0000
1000
0000
0000
0000
0001
0000
0000
0000
,  // measure 28
0021
0000
0130
1000
0010
1000
0001
0010
,  // measure 29
0002
0203
2300
3000
,  // measure 30
0120
0000
0130
0001
0010
0100
1000
0001
,  // measure 31
0101
0000
1100
0000
0101
0000
0000
0001
,  // measure 32
2000
0010
3010
1000
0200
0010
0310
0100
,  // measure 33
0020
0001
0031
0010
0200
1000
1300
0000
,  // measure 34
0002
0100
0103
0001
0020
0100
0130
0010
,  // measure 35
0001
0001
0010
0010
0100
0100
1000
0001
,  // measure 36
2000
0010
3010
0100
0020
0001
0031
0010
,  // measure 37
0200
0010
0310
0100
0001
0011
0000
1001
,  // measure 38
0002
0100
0103
0010
0200
1000
1300
0100
,  // measure 39
0020
0000
0000
0030
,  // measure 40
1000
0100
0000
1100
0000
0011
0000
0010
,  // measure 41
0100
0010
0001
0100
0000
0000
0010
0000
,  // measure 42
1001
0000
0110
0000
,  // measure 43
0101
0000
0000
0000
0011
0000
0000
0000
1100
0000
0000
1000
0010
0000
1000
0001
,  // measure 44
1000
0000
0001
0000
1000
0000
0001
0100
0001
0000
0100
0000
0001
0000
0100
0010
,  // measure 45
0100
0000
0010
0000
0100
0000
0010
1000
0010
0000
1000
0000
0001
0000
0001
1000
,  // measure 46
0001
0000
1000
0000
0001
0000
1000
0100
1000
0000
0100
0000
1000
0000
0100
0010
,  // measure 47
0100
0000
0010
0000
0100
0000
0010
0001
0010
0000
0001
0000
1000
0000
1000
0001
,  // measure 48
2000
0000
0010
0000
3010
0000
0100
0010
0200
0000
0001
0000
0301
0000
0010
0001
,  // measure 49
0020
0000
0100
0000
0130
0000
1000
0001
2000
0000
0001
0000
3001
0000
0001
1000
,  // measure 50
0002
0000
0010
0000
0013
0000
0100
0010
0200
0000
1000
0000
1300
0000
0010
1000
,  // measure 51
0020
0000
0100
0000
0130
0000
0001
1000
0001
0000
0100
0000
0001
0000
0010
0000
,  // measure 52
0220
0000
0000
0000
,  // measure 53
0000
0000
0330
0000
;

//---------------dance-single - Spork!----------------
#NOTEDATA:;
#CHARTNAME:Cluckster-fuck;
#STEPSTYPE:dance-single;
#DESCRIPTION:Spork!;
#CHARTSTYLE:;
#DIFFICULTY:Challenge;
#METER:9;
#RADARVALUES:0.625,0.649,0.224,0.389,0.379,387.000,23.000,40.000,103.000,2.000,1.000,0.000,0.000,0.625,0.649,0.224,0.389,0.379,387.000,23.000,40.000,103.000,2.000,1.000,0.000,0.000;
#CREDIT:Spork!;
#NOTES:
// measure 0
0000
0000
0000
0000
,  // measure 1
0000
0000
0000
0000
,  // measure 2
0000
0000
0000
0000
,  // measure 3
0000
0000
0000
0000
,  // measure 4
0100
0001
0010
0001
0100
0001
0010
0001
,  // measure 5
10M0
0000
010M
0000
M010
0000
0M01
0000
M000
0000
010M
0000
M010
0000
001M
M100
,  // measure 6
001M
0000
100M
0000
01M0
0000
100M
0000
0M10
0000
100M
0000
01M0
0000
10M0
0M01
,  // measure 7
10M0
00M1
M100
001M
M100
00M1
1M00
0M01
,  // measure 8
0020
1000
0100
0031
,  // measure 9
0001
0000
0010
0001
0100
0000
0001
0000
1000
0000
0020
0000
2000
0030
0002
3000
,  // measure 10
0200
0003
0000
0000
1000
0000
0000
0000
0010
0000
0000
0000
0301
0000
0000
0000
,  // measure 11
0101
0000
0001
0100
0010
0000
1000
0000
0001
0000
0020
0000
0002
0030
2000
0003
,  // measure 12
0010
3000
0000
0010
0100
0000
0002
0000
0020
0003
0200
0030
2000
0300
0020
3000
,  // measure 13
2000
0030
0000
0000
0200
0000
0000
0000
0002
0000
0000
0000
3303
0000
0000
0000
,  // measure 14
0100
0000
1000
0100
1000
0000
0020
0000
2000
0030
0002
3000
0020
0003
0001
0030
,  // measure 15
0101
0000
0010
0000
1100
0000
0010
0000
2002
0000
0000
0000
3003
0000
0001
0100
,  // measure 16
0001
0000
1000
0000
0010
0000
1000
0100
1000
0000
0001
0000
0010
0000
0001
0100
,  // measure 17
0010
0000
1000
0000
0100
0000
1000
0010
0100
0000
0010
0000
MM0M
0000
0010
0000
,  // measure 18
0001
0000
0100
0000
0010
0000
0100
0001
0010
0000
0100
0000
1000
0000
0001
1000
,  // measure 19
0M01
0000
0M10
0000
M001
0000
M100
0000
001M
0000
100M
0000
01M0
0000
10M0
0M01
,  // measure 20
10M0
0000
01M0
0000
100M
0000
001M
0000
010M
0000
10M0
0000
01M0
0000
00M1
1M00
,  // measure 21
00M1
0000
01M0
0000
M001
0000
M010
0000
M100
0000
00M1
0000
M100
0000
M010
010M
,  // measure 22
M010
0000
0M01
0000
M000
0000
01M1
0000
00M0
0000
1M01
0000
00M0
0000
10M0
000M
,  // measure 23
14M0
0000
0000
0000
0000
0000
0000
0000
0000
0000
2300
0000
0002
3000
0200
0003
,  // measure 24
0020
0300
1000
0000
0000
0000
0100
0000
0000
0000
0001
0000
0030
0000
0010
0000
,  // measure 25
0100
0000
0001
0000
0000
0000
1000
0000
0001
0000
0010
0001
0010
0001
0010
0001
,  // measure 26
0200
0001
0000
0010
0000
1000
0300
0100
,  // measure 27
0010
0000
0100
0001
1000
0000
0010
0000
0100
0000
0010
1000
0010
1000
0010
1000
,  // measure 28
0001
0000
0001
0010
0001
0000
0200
0000
0020
0300
2000
0030
0200
3000
2000
0300
,  // measure 29
0002
3000
0000
0000
0200
0000
0000
0000
2000
0000
0000
0000
3303
0000
0000
0000
,  // measure 30
0100
0000
0001
0100
0001
0000
1000
0001
1000
0000
0100
1000
0100
0000
1000
0000
,  // measure 31
1010
0000
0100
0000
0011
0000
0100
0000
2002
0000
0000
0000
3003
0000
1000
0100
,  // measure 32
1000
0000
0100
0000
0001
0000
0100
0001
0100
0000
1000
0000
0001
0000
0001
0100
,  // measure 33
0001
0000
0100
0000
1000
0000
0100
0010
0100
0000
0010
0000
MM0M
0000
0010
0000
,  // measure 34
0001
0000
1000
0000
0010
0000
1000
0010
1000
0000
0010
0000
0001
0000
0010
0001
,  // measure 35
M010
0000
M100
0000
001M
0000
100M
0000
01M0
1000
00M0
1000
0M01
0000
0001
0100
,  // measure 36
0001
0000
0100
0000
1000
0000
0100
1000
0100
0000
1000
0000
0010
0000
1000
0010
,  // measure 37
1000
0000
0010
0000
0001
0000
0010
0001
0010
0000
0100
0000
M0MM
0000
0100
0000
,  // measure 38
0001
0000
1000
0000
0010
0000
1000
0100
1000
0000
0100
0000
0001
0000
0010
0000
,  // measure 39
2000
0000
0100
0000
0000
0001
3001
1001
,  // measure 40
1001
0010
0000
0011
0000
1100
0000
0010
,  // measure 41
1001
0001
0100
0010
0000
0010
0100
0001
,  // measure 42
0011
0100
1001
0010
,  // measure 43
1100
0000
0000
0000
0101
0000
0000
0000
1100
0000
0000
1000
0001
0000
0100
0001
,  // measure 44
0100
0000
0010
M000
0010
0000
0100
1000
0100
0000
0010
000M
0010
0000
1000
0001
,  // measure 45
0010
0000
0100
M000
0100
0000
0001
1000
0010
0000
0100
0000
M0MM
0000
0100
1000
,  // measure 46
0100
0000
0010
000M
0010
0000
0100
0001
0100
0000
0010
M000
0010
0000
0001
1000
,  // measure 47
0010
0000
0100
000M
0100
0000
1000
0001
0100
0000
0010
M000
0010
0000
0100
1000
,  // measure 48
0001
1000
0100
0000
0110
0000
0010
0001
1000
0001
0010
0000
0110
0000
0100
1000
,  // measure 49
0001
0000
0100
000M
0100
0000
0010
0001
1000
0000
0010
M000
0010
0000
0100
1000
,  // measure 50
0010
0000
0100
000M
0100
0000
0010
0001
0100
0000
0010
M000
0010
0000
0100
1000
,  // measure 51
0001
0000
0100
000M
0100
0000
0010
0001
1000
0001
0000
0001
0100
0000
0010
0000
,  // measure 52
M220
0000
0000
0000
0000
0000
0000
0000
0000
0000
0000
0000
0000
0000
0000
0000
0000
0000
0000
0000
0000
0000
0000
0000
0000
0000
0000
0000
000M
0000
0000
0000
0000
0000
0000
0000
0000
0000
0000
0000
0000
0000
0000
0000
0000
0000
0000
0000
0000
0000
0000
0000
0000
0000
0000
0000
0000
0000
0000
0000
M000
0000
0000
0000
0000
0000
0000
0000
0000
0000
0000
0000
0000
0000
0000
0000
0000
0000
0000
0000
0000
0000
0000
0000
0000
0000
0000
0000
000M
0000
0000
0000
0000
0000
0000
0000
0000
0000
0000
0000
0000
0000
0000
0000
0000
0000
0000
0000
0000
0000
0000
0000
0000
0000
0000
0000
0000
0000
0000
0000
M000
0000
0000
0000
0000
0000
0000
0000
0000
0000
0000
0000
0000
0000
0000
0000
0000
0000
0000
0000
0000
0000
0000
0000
0000
0000
0000
0000
0000
0000
000M
0000
0000
0000
0000
0000
0000
0000
0000
0000
0000
0000
0000
0000
0000
0000
0000
0000
0000
0000
0000
0000
0000
0000
0000
0000
0000
0000
0000
0000
0000
0000
0000
0000
0000
0000
0000
0000
0000
0000
0000
0000
,  // measure 53
M000
0000
0000
000M
0000
0000
M330
0000
0000
0000
0000
0000
0000
0000
0000
0000
;
