#TITLE:アヴァロンの丘;
#SUBTITLE:;
#ARTIST:猫叉Master;
#TITLETRANSLIT:Avalon no oka;
#SUBTITLETRANSLIT:;
#ARTISTTRANSLIT:Nekomata Master;
#GENRE:;
#CREDIT:;
#BANNER:[Unenglish] - Avalon no oka.png;
#BACKGROUND:[Unenglish] - Avalon no oka-bg.png;
#LYRICSPATH:;
#CDTITLE:;
#MUSIC:[Unenglish] - Avalon no oka.mp3;
#OFFSET:-0.560000;
#SAMPLESTART:70.403450;
#SAMPLELENGTH:14.999999;
#SELECTABLE:YES;
#BPMS:0.000000=158.000000
;
#STOPS:
;
#BGCHANGES:;
#KEYSOUNDS:;
#ATTACKS:;

//---------------dance-single - ----------------
#NOTES:
     dance-single:
     :
     Hard:
     8:
     0.621656,0.720839,0.152986,0.288973,0.939163,460.000000,18.000000,34.000000,0.000000,0.000000,0.000000,0.621656,0.720839,0.152986,0.288973,0.939163,460.000000,18.000000,34.000000,0.000000,0.000000,0.000000:
0000
0000
0000
0000
,
0000
0000
0000
0000
,
0000
0000
0000
0000
,
0000
0000
0000
0000
,
0000
0000
0000
0000
,
0000
0000
0000
0000
,
1000
0000
0000
1000
0000
0100
0010
0000
0000
0010
0000
0010
,
0001
0000
0000
0001
0000
0100
0010
0000
0000
0010
0000
0010
,
1000
0000
0000
1000
0000
0100
0010
0000
0000
0010
0000
0100
,
1000
0000
0000
1000
0000
1000
0100
0010
0100
0010
0000
0010
,
0002
0000
0000
0103
,
0202
0303
1010
1001
,
1000
0100
1000
0100
0000
0000
0010
0000
0000
0001
0100
0001
,
0100
0000
0000
0010
0000
0000
1000
0000
0100
0001
0000
0100
,
1000
0010
1000
0010
0000
0000
0100
0001
0100
0001
0000
0001
,
1000
0100
1000
0100
0000
0100
0010
0001
0010
0001
0010
0100
,
1000
0010
1000
0010
0000
0000
0100
0000
0000
0001
0010
0001
,
0010
0000
0000
0100
0000
0100
1000
0000
0010
0001
0000
0010
,
1000
0100
0010
0001
0000
0000
1000
0010
0100
0010
0000
1000
,
0001
0010
0100
0010
0000
0001
1000
0010
0100
0001
0010
0100
,
2000
0000
0000
3100
1000
0100
0020
0000
0000
0000
0000
0000
,
0000
0000
0000
0000
0000
0000
0030
0000
0000
0000
0000
0001
,
0020
0000
0000
0031
0100
0010
0200
0000
0000
0000
0000
0000
,
0000
0000
0300
0002
,
1003
0000
0000
0010
0100
0010
0100
0000
0000
0001
0000
0000
,
1000
0010
1000
0010
0000
0100
0010
0100
0001
1000
0000
0100
,
0010
0000
0010
0002
0000
0000
0000
0000
0000
1003
0000
0000
,
2002
0000
0000
3003
,
0001
0000
0000
1000
0100
0010
0002
0000
0000
1000
0000
0000
,
0010
0000
0000
1000
0000
0000
0103
0000
0000
0001
0000
0001
,
1000
0000
0000
0001
0100
0010
2000
0000
0000
0001
0000
0000
,
0100
0000
0000
0001
0000
0000
3010
0000
0000
1000
0000
1000
,
0001
0000
0000
0010
0001
0100
0010
0000
0010
1000
0000
1000
,
0001
1000
0100
0010
0000
0010
0001
0100
0010
0100
0000
0100
,
0001
0000
1000
0020
0000
0000
0100
0000
0000
2030
0000
0000
,
3001
0010
0100
2000
0000
0000
0001
0000
0000
3001
0000
0000
,
1002
0000
0000
0000
0000
0000
0000
0000
0000
0003
0010
0100
,
1000
0010
0100
0010
0000
0010
1000
0100
0010
0001
0000
1000
,
0002
0000
0000
0000
0000
0000
0000
0000
0000
0003
0100
0010
,
1000
0100
0010
0100
0000
0100
0010
0000
0001
0100
0000
0100
,
0010
0000
0010
1000
0000
1000
0100
0000
0100
0010
0001
0010
,
0001
0000
0001
0100
0000
0100
0010
1000
0010
1000
0000
1000
,
0100
0000
0100
0001
0000
0001
0100
0000
0100
1000
0000
1000
,
0010
0000
0010
0100
0000
0100
0001
0010
0100
1000
0000
0000
,
2000
0002
0000
3003
,
0002
0000
0000
0013
0000
0010
0100
0010
0100
0020
0000
0000
,
0031
0100
0001
0010
0000
0010
0100
1000
0010
1000
0000
1000
,
0001
0100
0010
1000
0000
1000
0001
0010
0001
0100
0000
0100
,
0001
0000
0000
0011
0000
0010
0200
0000
0000
2300
0000
0000
,
3020
0000
0000
0100
0000
0000
1030
0000
1000
0001
0000
0001
,
0100
0000
0000
0101
0000
0001
1000
0000
1000
0100
0000
0100
,
1000
0010
1000
0010
0000
0010
0100
0001
0100
0001
0000
0000
,
1000
0000
0000
1100
0000
0100
0010
0000
0010
0001
0000
0001
,
1000
0000
0001
0100
0000
0010
1000
0100
0010
0001
0000
0000
,
1000
0010
1000
0001
0000
0001
1000
0100
0010
0001
0000
0001
,
1000
0100
1000
0001
0000
0001
1000
0010
0100
0001
0000
0001
,
2000
0000
0000
0100
0000
0000
0000
0000
0000
3100
0000
0100
,
0020
0000
0000
0031
0000
0000
0011
0000
0000
1010
0000
1000
,
0001
0000
0000
1001
0000
1000
0100
0000
0100
0010
0000
0010
,
0001
0100
0001
0100
0000
0010
0100
0001
1000
0100
0000
0000
,
2100
3010
0102
0013
,
1001
0000
1000
0100
0000
0100
0020
0000
0000
0031
0000
0000
,
2001
0000
0000
0000
,
0000
3000
0001
1000
0010
1000
0001
0000
0001
0010
0000
0010
,
0100
0000
0100
1000
0000
1000
0001
0000
0001
0100
0000
0100
,
0010
1000
0010
1000
0100
0010
0001
0100
0001
0100
0000
0100
,
0010
0000
0010
1000
0100
0001
0100
0010
0100
1000
0000
1000
,
0001
0000
0001
0010
1000
0010
0100
0010
0001
0010
0000
0001
,
1000
0000
1000
0100
0001
0100
1000
0010
0001
0010
0000
1000
,
0001
0010
0001
0010
0001
0100
0010
1000
0100
1000
0000
0100
,
0020
0000
0000
0031
,
2002
3003
1010
0101
,
1000
0001
1000
0001
0000
0000
0000
0000
0001
1000
0010
0100
,
0010
1000
0100
0010
0001
0100
0010
0000
1000
0001
0000
0000
;

//---------------dance-single - ----------------
#NOTES:
     dance-single:
     :
     Beginner:
     1:
     0.182126,0.313408,0.127488,0.152986,0.000000,117.000000,15.000000,18.000000,0.000000,0.000000,0.000000,0.182126,0.313408,0.127488,0.152986,0.000000,117.000000,15.000000,18.000000,0.000000,0.000000,0.000000:
0000
0000
0000
0000
,
0000
0000
0000
0000
,
0000
0000
0000
0000
,
0000
0000
0000
0000
,
0000
0000
0000
0000
,
0000
0000
0000
0000
,
2000
0000
3000
0000
,
0002
0000
0003
0000
,
0200
0000
0300
0000
,
0020
0000
0030
0000
,
0110
0000
0000
0000
,
1001
0000
1001
1001
,
1001
0000
1000
0000
,
0100
0000
1000
0000
,
0001
0000
0001
0000
,
0100
0000
0001
0000
,
1000
0000
1000
0000
,
0010
0000
1000
0000
,
0001
0000
0001
0000
,
0010
0000
0001
0000
,
1000
1000
2000
0000
,
0000
0000
3000
0000
,
0001
0001
0002
0000
,
0000
0000
0003
0000
,
0100
0000
0010
0000
,
0100
0000
0010
0000
,
1000
0000
0001
0000
,
2002
0000
3003
0000
,
0010
0010
0020
0000
,
0000
0000
0030
0000
,
0100
0100
0200
0000
,
0000
0000
0300
0000
,
1000
0000
0001
0000
,
1000
0000
0001
0000
,
0010
0000
0100
0000
,
0010
0000
0100
0000
,
1001
0000
0000
0000
,
0000
0000
0100
0000
,
0110
0000
0000
0000
,
0000
0000
0000
0001
,
0001
0000
1000
0000
,
0001
0000
0010
0000
,
0001
0000
1000
0000
,
0100
0000
1000
0000
,
0110
0000
0000
0000
,
0010
0010
0010
0000
,
1000
1000
1000
0000
,
0001
0001
0001
0000
,
0100
0000
0100
0000
,
0200
0000
0300
0000
,
0001
0000
0010
0000
,
0100
0000
1000
0000
,
0001
0000
0100
0000
,
0020
0000
0030
0000
,
0100
0100
0100
0000
,
0010
0010
0010
0000
,
2000
0000
0000
0000
,
0000
3000
1000
1000
,
1000
0000
0001
0000
,
0010
0000
0001
0000
,
1000
0000
0001
0000
,
0200
0000
0300
0000
,
1001
0000
0000
0000
,
0000
0000
0000
0000
,
0000
0000
0000
0000
,
0000
0000
0000
0000
,
0020
0030
0010
0000
,
0200
0300
0100
0000
,
0002
0003
0001
0000
,
2000
3000
1000
0000
,
1001
0000
0000
0000
,
0110
0000
0110
0110
,
0110
0000
0000
0000
,
0001
0001
0001
0001
;

//---------------dance-single - ----------------
#NOTES:
     dance-single:
     :
     Easy:
     3:
     0.320542,0.438772,0.169984,0.271975,0.004250,212.000000,20.000000,32.000000,0.000000,0.000000,0.000000,0.320542,0.438772,0.169984,0.271975,0.004250,212.000000,20.000000,32.000000,0.000000,0.000000,0.000000:
0000
0000
0000
0000
,
0000
0000
0000
0000
,
0000
0000
0000
0000
,
0000
0000
0000
0000
,
0000
0000
0000
0000
,
0000
0000
0000
0000
,
1000
1000
0100
0000
,
0001
0001
0100
0000
,
1000
1000
0010
0000
,
0001
0001
0010
0010
,
0220
0000
0000
0330
,
2002
3003
1010
0101
,
1001
1000
0100
0001
,
0001
0100
1000
1000
,
0001
0001
0010
0010
,
0100
0100
1000
1000
,
0001
0001
0010
1000
,
1000
0010
0001
0001
,
1000
1000
0010
0010
,
0100
0100
0002
0000
,
1003
0010
0200
0000
,
0000
0000
0300
0000
,
0001
0010
0200
0000
,
0000
0000
0300
2000
,
3010
0100
0010
0100
,
0001
1000
0001
1000
,
0010
0100
0001
1000
,
2002
0000
0000
3003
,
0001
0010
0200
1000
,
0000
1000
0000
1300
,
1000
0010
0200
0001
,
0000
0001
0000
0302
,
1003
0010
1000
0010
,
0100
0001
0100
0001
,
0010
0100
0010
0100
,
1000
0001
2000
0000
,
3020
0000
0000
0000
,
0130
0100
0010
0100
,
0002
0000
0000
0000
,
1003
1000
0001
1000
,
0100
0010
0100
1000
,
0001
0100
0010
0100
,
0001
0010
0100
1000
,
0001
0100
0010
1000
,
2002
0000
0000
3003
,
0010
0010
0100
0100
,
0001
0010
0001
0100
,
0010
1000
0100
1000
,
0002
0003
0002
0023
,
0230
0010
0000
0320
,
0031
1000
0010
0100
,
0010
1000
0100
0010
,
0001
0100
0010
1000
,
1001
0110
2002
3003
,
1000
0010
0100
0001
,
0010
0001
0100
0010
,
0200
0001
0000
0001
,
0000
0301
0101
1010
,
1000
0010
0100
0010
,
1000
0100
0010
0010
,
1001
0000
0110
0000
,
2001
0001
0010
3010
,
1002
0000
0000
0000
,
0003
0000
0000
0000
,
0000
0000
0000
0000
,
0000
0000
0000
0000
,
1000
0100
1000
1000
,
0001
0100
0001
0001
,
1000
0010
1000
1000
,
0001
0010
0001
0001
,
2002
0000
0000
3003
,
0220
0330
1010
0101
,
0001
1000
0000
1000
,
0100
0000
0000
0010
0000
0000
0001
0000
0001
1000
0000
0000
;

//---------------dance-single - ----------------
#NOTES:
     dance-single:
     :
     Medium:
     6:
     0.468671,0.595476,0.127488,0.399463,0.420711,324.000000,15.000000,47.000000,0.000000,0.000000,0.000000,0.468671,0.595476,0.127488,0.399463,0.420711,324.000000,15.000000,47.000000,0.000000,0.000000,0.000000:
// measure 0
0000
0000
0000
0000
,  // measure 1
0000
0000
0000
0000
,  // measure 2
0000
0000
0000
0000
,  // measure 3
0000
0000
0000
0000
,  // measure 4
0000
0000
0000
0000
,  // measure 5
0000
0000
0000
0000
,  // measure 6
1000
1000
0100
0100
,  // measure 7
0010
0010
0001
0001
,  // measure 8
0100
0100
0010
0010
,  // measure 9
1000
0000
0000
1000
0000
0000
0001
0000
0001
0010
0000
0010
,  // measure 10
0200
0010
0000
0310
,  // measure 11
0022
0033
1010
1001
,  // measure 12
0001
0000
0001
0010
0000
0000
0001
0000
0000
1000
0000
1000
,  // measure 13
0010
0000
0000
1000
0000
0000
0001
0000
0001
1000
0000
0000
,  // measure 14
0100
0000
0100
0010
0000
0000
0100
0000
0100
1000
0000
0000
,  // measure 15
0001
0000
0001
0010
0000
0000
0100
0000
0100
1000
0000
0000
,  // measure 16
0001
0000
0001
0100
0000
0000
0001
0000
0000
1000
0000
1000
,  // measure 17
0100
0000
0000
1000
0000
0000
0001
0000
0001
1000
0000
0000
,  // measure 18
0001
0000
0001
0100
0000
0000
0010
0000
0010
1000
0000
0000
,  // measure 19
0100
0000
0100
0010
0000
0000
0001
0000
0001
1000
0000
1000
,  // measure 20
0002
0000
0000
0013
0100
0010
0200
0000
0000
0000
0000
0000
,  // measure 21
0000
0000
0000
0000
0000
0000
0300
0000
0000
0000
0000
0100
,  // measure 22
2000
0000
0000
3010
0100
0010
0200
0000
0000
0000
0000
0000
,  // measure 23
0000
0000
0300
0020
,  // measure 24
1030
0000
0000
0100
0000
0100
0010
0000
0000
0001
0000
0000
,  // measure 25
1000
0000
1000
0010
0000
0010
0100
0000
0100
0001
0000
0001
,  // measure 26
1000
0000
1000
0200
0000
0000
0000
0000
0000
0310
0000
0000
,  // measure 27
2002
0000
0000
3003
,  // measure 28
0002
0000
0000
0103
0010
0100
0020
0000
0000
0000
0000
0000
,  // measure 29
0000
0000
0000
0000
0000
0000
0030
0000
0000
0000
0000
0010
,  // measure 30
2000
0000
0000
3100
0010
0100
0020
0000
0000
0000
0000
0000
,  // measure 31
0000
0000
0030
0002
,  // measure 32
1003
0000
0000
0010
0000
0010
0100
0000
0000
0010
0000
0000
,  // measure 33
1000
0000
1000
0100
0000
0100
0010
0000
0010
0001
0000
0001
,  // measure 34
1000
0000
1000
0020
0000
0000
0000
0000
0000
0130
0000
0000
,  // measure 35
0001
0000
0001
0020
0000
0000
0000
0000
0000
0031
0000
0000
,  // measure 36
1002
0000
0000
0003
,  // measure 37
1000
0100
0010
0001
,  // measure 38
2001
0000
0000
3000
,  // measure 39
0001
0010
0100
1000
,  // measure 40
0002
0000
0000
0023
0000
0000
0230
0000
0000
1300
0010
1000
,  // measure 41
0020
0000
0000
0230
0000
0000
0301
0000
0001
0010
0000
0010
,  // measure 42
0100
0000
0000
1000
0000
0100
1000
0000
0000
0001
0000
1000
,  // measure 43
0001
0000
0000
0010
0000
0001
0010
0000
0000
0100
0000
0010
,  // measure 44
0200
0000
0000
0300
,  // measure 45
1000
0000
0000
1000
0000
1000
0001
1000
0001
2000
0000
0000
,  // measure 46
3001
0000
0001
0010
0000
0010
0100
0000
0100
1000
0000
0000
,  // measure 47
0001
0000
0001
0100
0000
0100
0010
0000
0010
1000
0000
1000
,  // measure 48
0200
0000
0000
0310
0000
0010
0200
0000
0000
2300
0000
0000
,  // measure 49
3020
0000
0000
0100
0000
0000
0000
0000
0000
0130
0000
0100
,  // measure 50
0002
0000
0000
0013
0000
0010
0001
0000
0001
0100
0000
0000
,  // measure 51
0010
0000
0010
1000
0000
1000
0100
0000
0100
1000
0000
0000
,  // measure 52
0002
0000
0000
0103
0000
0100
0001
0000
0001
0010
0000
0000
,  // measure 53
0001
0000
0001
0010
0000
0010
0100
0000
0100
1000
0000
0000
,  // measure 54
0001
0000
0001
1000
0000
1000
0010
0000
0010
1000
0000
0000
,  // measure 55
0001
0000
0001
0010
0000
0010
0100
0000
0100
0010
0000
0010
,  // measure 56
0002
0000
0000
1000
0000
0000
0000
0000
0000
1003
0000
0001
,  // measure 57
2000
3010
1010
0101
,  // measure 58
2000
0000
0000
3010
0000
0010
0100
0000
0100
0010
0000
0000
,  // measure 59
1000
0000
1000
0100
0000
0100
0010
0000
0010
0001
0000
0000
,  // measure 60
2020
3030
0202
0303
,  // measure 61
2001
3200
0320
0031
,  // measure 62
1002
0000
0000
0000
,  // measure 63
0000
1003
0010
1000
,  // measure 64
0100
0010
0001
0100
,  // measure 65
0010
0100
0001
1000
,  // measure 66
0010
0000
0000
0100
0000
0100
0001
0000
0001
0100
0000
0000
,  // measure 67
0010
0000
0000
1000
0000
1000
0100
0000
0100
1000
0000
0000
,  // measure 68
0010
0000
0000
1000
0000
1000
0001
0000
0001
1000
0000
0000
,  // measure 69
0010
0000
0000
0100
0000
0100
0010
0000
0010
0100
0000
0100
,  // measure 70
0002
0000
0000
1003
,  // measure 71
2002
3003
0011
1100
,  // measure 72
0001
1000
0001
1000
0000
0000
0000
0000
1000
0100
0000
0100
,  // measure 73
0010
0000
0010
0001
0000
0001
1000
0000
0001
1000
0000
0000
;
