#TITLE:gigadelic;
#SUBTITLE:(m3rkAb4# R3m!x);
#ARTIST:ikaruga_nex;
#TITLETRANSLIT:;
#SUBTITLETRANSLIT:;
#ARTISTTRANSLIT:;
#GENRE:;
#CREDIT:;
#BANNER:[Speed Changes] - gigadelic (m3rkAb4# R3m!x).jpg;
#BACKGROUND:[Speed Changes] - gigadelic (m3rkAb4# R3m!x)-bg.jpg;
#LYRICSPATH:;
#CDTITLE:cdtitle.png;
#MUSIC:gigadelic(m3rkAb4# R3m!x).ogg;
#OFFSET:-0.561000;
#SAMPLESTART:74.858871;
#SAMPLELENGTH:12.000000;
#SELECTABLE:YES;
#DISPLAYBPM:*;
#BPMS:0.000000=180.000000
,132.000000=90.000000
,140.000000=180.000000
,176.000000=182.000000
,180.000000=184.000000
,181.000000=186.000000
,182.000000=188.000000
,183.000000=191.000000
,184.000000=195.000000
,185.000000=200.000000
,186.000000=206.000000
,187.000000=214.000000
,188.000000=223.000000
,189.000000=233.000000
,190.000000=245.000015
,191.000000=258.000000
,192.000000=272.000000
,193.000000=287.000000
,194.000000=304.000000
,195.000000=322.000000
,196.000000=341.000000
,197.000000=361.000000
,198.000000=382.000000
,199.000000=404.000000
,200.000000=427.000000
,201.000000=451.000000
,202.000000=476.000000
,203.000000=502.000000
,204.000000=529.000000
,205.000000=557.000000
,206.000000=586.000000
,207.000000=616.000000
,208.000000=647.000000
,209.000000=679.000000
,210.000000=713.000000
,211.000000=749.000000
,212.000000=787.000000
,213.000000=827.000000
,214.000000=870.000000
,215.000000=916.000000
,224.000000=90.000000
,230.000000=180.000000
;
#STOPS:230.000000=1.000000
;
#BGCHANGES:;
#KEYSOUNDS:;
#ATTACKS:;

//---------------dance-single - ----------------
#NOTES:
     dance-single:
     :
     Hard:
     10:
     0.831451,1.000000,0.191782,0.091722,0.871356,664.000000,23.000000,11.000000,0.000000,0.000000,1.000000,0.831451,1.000000,0.191782,0.091722,0.871356,664.000000,23.000000,11.000000,0.000000,0.000000,1.000000:
// measure 0
0000
0000
0000
0000
,  // measure 1
0000
0000
0000
0000
,  // measure 2
0000
0000
0000
0000
,  // measure 3
0000
0000
0000
0000
,  // measure 4
0000
0000
0000
0000
,  // measure 5
0000
0000
0000
0000
,  // measure 6
0000
0000
0000
0000
,  // measure 7
0000
0000
0000
0000
,  // measure 8
0000
0000
0000
0000
,  // measure 9
1000
0010
0001
0010
1000
0010
0001
0010
,  // measure 10
1000
0100
0001
0100
1000
0100
0001
0100
,  // measure 11
1000
0010
0100
0010
1000
0010
0100
0010
,  // measure 12
1010
0000
0000
1001
0000
0000
0101
0000
0001
0000
0010
0000
1000
0000
0010
0000
,  // measure 13
0001
0100
0010
0100
0001
0100
0010
0100
,  // measure 14
0001
0010
1000
0010
0001
0010
1000
0010
,  // measure 15
0001
0001
1000
1000
0010
0010
0100
0100
,  // measure 16
0001
1000
0001
0000
0010
0001
0010
0000
0100
1000
0100
0000
0010
0001
0100
0000
,  // measure 17
0010
0001
0010
1000
0010
0001
0010
0100
,  // measure 18
0001
0010
1000
0010
0001
0010
1000
0010
,  // measure 19
0100
1000
0100
0001
0100
1000
0100
0010
,  // measure 20
0001
0000
1000
0000
0010
0000
1000
0000
0001
0000
0000
1000
0010
0000
0010
1000
,  // measure 21
0100
0001
0100
1000
0100
0001
0100
1000
,  // measure 22
0010
0001
0010
1000
0010
0001
0010
0100
,  // measure 23
0001
0010
1000
0010
0001
0010
1000
0010
,  // measure 24
0001
0100
0001
0000
0010
0000
0100
1000
0100
0000
0000
0000
0010
0000
0010
0000
,  // measure 25
0010
0001
0010
1000
0010
0001
0010
0100
,  // measure 26
1000
0100
0010
0100
1000
0100
0010
0100
,  // measure 27
1000
0010
0001
0010
1000
0010
0001
0010
,  // measure 28
1000
0000
0001
0000
0100
0000
0001
0000
0010
0000
0000
0001
0100
0000
0100
0001
,  // measure 29
1000
0000
0101
0010
0000
0100
0001
0010
,  // measure 30
0110
0000
0100
0000
1000
0000
0001
0000
0000
0100
0001
0000
0100
0000
0010
0000
,  // measure 31
0010
0000
0000
0000
1100
0000
0001
0000
0000
1000
0010
0000
0100
0000
0100
0000
,  // measure 32
0100
0001
0010
1000
0010
0001
0010
0100
,  // measure 33
2000
0000
0000
0000
,  // measure 34
0000
0000
0000
3004
,  // measure 35
0103
0000
0000
0001
0010
0100
0000
1000
0001
0010
0100
1000
,  // measure 36
0001
0000
0000
0100
0010
0100
0001
0010
0100
1000
0000
0010
,  // measure 37
0100
0010
0100
0001
0000
0010
1000
0010
0001
0100
1000
0100
,  // measure 38
0010
1000
0100
0010
0001
0010
0100
0000
0010
0100
1000
0010
,  // measure 39
0100
0000
0001
0100
1000
0100
0001
0010
0100
0010
0100
0001
,  // measure 40
0100
0000
1000
0001
1000
0001
1000
0010
1000
0000
0100
0010
,  // measure 41
0001
0100
1000
0100
0010
1000
0100
0001
0100
1000
0010
0100
,  // measure 42
0001
0000
0010
0100
1000
0010
0100
0001
0010
0000
0100
0000
,  // measure 43
1001
0000
0000
0000
0001
0000
0000
0000
1000
0000
0000
0000
0001
0000
0000
0100
,  // measure 44
0001
0000
0000
0000
0010
0000
0000
0000
0100
1000
0010
0000
0001
0000
0000
0010
,  // measure 45
1000
0000
0000
0000
0001
0000
0000
0000
1000
0000
0000
0000
0001
0000
0000
0100
,  // measure 46
0001
0000
0000
0000
0010
0000
0000
0000
0001
0010
0001
0000
1000
0000
0000
0010
,  // measure 47
0200
0000
0000
0000
,  // measure 48
0000
0000
0000
0000
,  // measure 49
0000
0000
0000
0000
,  // measure 50
0000
0000
0000
0000
,  // measure 51
0000
0000
0000
0000
,  // measure 52
0000
0000
0000
0000
,  // measure 53
0000
0000
0000
0000
,  // measure 54
0000
0000
0000
0000
,  // measure 55
0000
0000
0000
0000
,  // measure 56
0302
0023
0230
2300
,  // measure 57
3020
0000
0000
0000
0230
0000
0000
0000
0310
0000
0000
0000
1000
0000
0001
0010
,  // measure 58
0000
0100
1000
0000
0010
0100
0001
0100
0001
0000
0010
0000
0100
0000
0100
1000
,  // measure 59
0000
0010
0100
0001
0100
0000
0001
0010
0100
0000
1000
0000
0010
0100
0010
0100
,  // measure 60
0001
0100
0010
0100
0010
1000
0100
1000
0100
0010
0001
0100
0000
0000
0001
0010
,  // measure 61
0000
0001
0100
0000
0010
0000
1000
0000
0001
0000
0010
0000
0100
0000
1000
0001
,  // measure 62
0000
0001
0100
0000
0010
0000
1000
0000
0001
0000
0100
0001
0100
0000
0010
1000
,  // measure 63
0000
0001
0100
0000
0010
0000
0100
0000
0001
0000
0010
0000
0100
1000
0100
1000
,  // measure 64
0010
0100
0010
0100
0001
0010
0100
1000
0010
0100
0001
1000
0001
0000
1000
0001
,  // measure 65
0000
0001
0100
0000
0020
0000
0000
0000
0000
0000
0000
0000
0130
0000
0001
1000
,  // measure 66
0000
1000
0010
0000
0100
0001
0100
0010
0100
0000
0001
0000
1000
0000
0100
0010
,  // measure 67
0000
0010
0100
0000
1000
0001
0100
0001
0010
0000
0100
0000
1000
0001
1000
0001
,  // measure 68
0010
0100
1000
0001
1000
0010
0100
0010
0100
0001
0010
0100
1000
0000
1000
0001
,  // measure 69
0000
0001
0100
0000
1010
0000
0000
0110
0000
0000
0101
0000
1001
0000
1000
0100
,  // measure 70
0000
0100
0010
0000
0001
1000
0001
0100
0001
0000
0100
0000
0010
0000
0010
1000
,  // measure 71
0000
1000
0001
0000
0010
0100
0010
0001
1000
0000
0010
0000
0100
0001
0100
0001
,  // measure 72
1000
0100
0010
0001
1000
0100
1000
0100
0010
0001
0100
0010
1000
0000
0000
0011
,  // measure 73
0000
0000
0110
0000
1010
0000
1000
0000
0001
0000
0100
0000
0110
0000
0010
1000
,  // measure 74
0000
1000
0001
0000
0010
0000
1000
0000
0010
0000
0100
0000
1000
0000
1000
0001
,  // measure 75
0000
0001
0100
0000
0010
1000
0010
1000
0100
0000
0100
1000
0001
0010
0000
0010
,  // measure 76
0001
0100
0010
0100
0001
1000
0001
1000
0001
0100
0001
0100
0001
0000
1000
0010
,  // measure 77
0000
0010
1000
0000
0001
0000
0001
0000
1000
0000
1000
0000
1010
0000
0010
0100
,  // measure 78
0000
0100
0001
0000
0010
0000
0100
0000
1000
0000
0100
0000
0010
0000
0001
1000
,  // measure 79
0000
1000
0001
0000
0100
0001
0100
0001
1000
0010
1000
0010
0100
0001
0000
0001
,  // measure 80
0100
0000
0010
1000
0010
0100
0001
0010
0001
1000
0001
0100
0010
0000
0010
1000
,  // measure 81
0000
1000
0100
0000
0110
0000
0000
0011
0000
0000
1001
0000
2100
0000
0000
0000
,  // measure 82
0000
0000
0000
0000
0000
0000
0000
0000
0000
0000
0000
0000
3001
0000
0100
0001
,  // measure 83
0000
0001
0010
0000
0100
1000
0100
0010
0100
0000
1000
0000
0001
0010
0000
0100
,  // measure 84
1000
0000
0100
0010
0100
1000
0100
0010
0001
1000
0001
1000
0010
0000
0001
0010
,  // measure 85
0000
1000
0010
0000
0110
0000
0100
0000
1001
0000
0001
0000
0101
0000
0100
0010
,  // measure 86
0000
0010
1000
0000
0001
0100
0001
1000
0010
0000
0100
0000
0001
0000
1000
0010
,  // measure 87
0000
0010
0100
0000
0001
1000
0001
1000
0001
0100
0001
0100
0010
0000
0010
0000
,  // measure 88
1000
0000
1000
0100
0010
0000
0010
0000
0001
0000
0001
1000
0100
0010
0100
0010
,  // measure 89
0001
1000
0001
1000
0100
0001
0100
1000
0100
0001
0100
1000
0020
0000
0000
0000
,  // measure 90
0000
0000
0000
0030
0000
0000
0000
0000
;

//---------------dance-single - ----------------
#NOTES:
     dance-single:
     :
     Medium:
     8:
     0.611081,0.679157,0.066707,0.058368,0.237643,498.000000,8.000000,7.000000,0.000000,0.000000,0.000000,0.611081,0.679157,0.066707,0.058368,0.237643,498.000000,8.000000,7.000000,0.000000,0.000000,0.000000:
0000
0000
0000
0000
,
0000
0000
0000
0000
,
0000
0000
0000
0000
,
0000
0000
0000
0000
,
0000
0000
0000
0000
,
0000
0000
0000
0000
,
0000
0000
0000
0000
,
0000
0000
0000
0000
,
0000
0000
0000
0000
,
1000
0100
0001
0000
0001
0100
1000
0000
,
0010
0100
0001
0100
0010
1000
0001
0001
,
0010
0100
1000
0000
1000
0100
0010
0000
,
0001
0000
0000
0001
0000
0000
0100
0000
1000
0000
0100
0000
0001
0000
0010
0000
,
0100
1000
0001
0000
0001
1000
0100
0000
,
0010
0001
0100
0010
1000
0100
0010
0010
,
0001
1000
0001
1000
0010
0100
0010
0100
,
0001
0001
1000
1000
0100
0001
0100
1000
,
0010
0100
0010
0100
0001
0100
0001
0100
,
0010
1000
0010
1000
0100
1000
0100
1000
,
0100
0010
0100
0010
0001
0010
0001
0010
,
0100
0000
1000
0000
0100
0000
1000
0000
0001
0000
0000
1000
0001
0000
0100
0000
,
0010
1000
0010
1000
0001
1000
0001
1000
,
0100
0010
0100
0010
0001
0010
0001
0010
,
0100
0100
1000
0010
0100
0100
0001
0010
,
0100
1000
0001
0100
1000
0000
0100
0100
,
0001
0010
0001
0010
0100
0010
0100
0010
,
0001
1000
0001
1000
0100
1000
0100
1000
,
0100
0010
0100
0010
0001
0010
0001
0010
,
0100
0000
1000
0000
1000
0000
0010
0000
0100
0000
0000
0100
0000
0000
0001
0000
,
0010
0000
0100
0100
0000
1000
0100
0001
,
0100
1000
1000
0010
0100
0100
0001
0010
,
0001
0000
1000
1000
0001
0010
1000
0010
,
0001
0100
0010
0010
1000
1000
0001
0100
,
0002
0000
0000
0000
,
0000
0000
0000
2003
,
3010
0000
0100
0001
0000
0001
1000
0000
0100
0000
0010
0000
,
0001
0000
0100
0000
0010
0000
1000
0000
0010
0000
1000
0000
,
0001
0000
0100
0010
0000
0010
1000
0000
0100
0000
0001
0000
,
0100
0000
1000
0000
0010
0000
1000
0000
0100
0000
0001
0000
,
0100
0000
1000
0100
0000
0010
0000
0001
0000
0100
0000
0001
,
1000
0000
0100
0000
0010
0000
0100
0000
1000
0001
0000
0000
,
0100
0000
0010
0000
0100
0000
0001
0000
1000
0000
0001
0000
,
0010
0000
0100
0000
1000
0000
0100
0000
0010
0001
1000
0000
,
1001
0000
0000
0000
0001
0000
0000
0000
0100
0000
0000
0000
0100
0000
0000
0010
,
1000
0000
0000
0000
1000
0000
0000
0100
0010
0000
0000
0010
0001
0000
0000
0100
,
0001
0000
0000
0000
0010
0000
0000
0000
0010
0000
0000
0000
0100
0000
0000
1000
,
0100
0000
0000
0000
1000
0000
0000
0000
1000
0001
0000
0100
0010
0000
0000
1000
,
0002
0000
0000
0000
,
0000
0000
0000
0000
,
0000
0000
0000
0000
,
0000
0000
0000
0000
,
0000
0000
0000
0000
,
0000
0000
0000
0000
,
0000
0000
0000
0000
,
0000
0000
0000
0000
,
0000
0000
0000
0000
,
1003
0001
1000
0001
,
0010
0000
0000
0000
0100
0000
0000
0000
1000
0000
0000
0000
0010
0000
0000
0100
,
0000
0000
0001
0000
0001
0000
1000
0000
0010
0000
1000
0000
0100
0000
0000
0100
,
0000
0010
0001
0010
1000
0010
0100
1000
,
0100
0000
0001
0000
0100
0000
1000
0000
0010
0000
0001
0000
0010
0000
0000
0010
,
0000
0000
0100
0000
0001
0000
1000
0000
0100
0000
0001
0000
0100
0000
0000
0100
,
0000
0000
1000
0000
0010
0000
0100
0000
0001
0000
0010
0000
0001
0000
0000
0001
,
0000
1000
0100
0001
0100
0010
0100
1000
,
0010
0000
0100
0000
0001
0000
0010
0000
0100
0000
1000
0000
0010
0000
0000
0010
,
0000
0000
0100
0000
0002
0000
0000
0000
0000
0000
0000
0000
1003
0000
0000
1000
,
0000
0000
0100
0000
0001
0000
0100
0000
1000
0000
0010
0000
0100
0000
0000
0100
,
0000
0001
1000
0001
0100
0010
0100
1000
,
0100
0000
0001
0000
0100
0000
1000
0000
0100
0000
0001
0000
0010
0000
0000
0010
,
0000
0000
0100
0000
1000
0000
0000
1000
0000
0000
0001
0000
0001
0000
0000
0001
,
0000
0000
0010
0000
1000
0000
0010
0000
0001
0000
0010
0000
0100
0000
0000
0100
,
0000
1000
0010
0001
0010
0100
0001
0001
,
1000
0000
1000
0000
0010
0000
0010
0000
0100
0000
0100
0000
0101
0000
0000
0001
,
0000
0000
1000
0000
0000
1000
0000
0000
0010
0000
0100
0000
0101
0000
0001
0000
,
0010
1000
0010
0001
0010
0100
1000
0100
,
0001
0100
1000
0100
0010
0100
1000
0001
,
0100
1000
0100
0001
0100
0010
1000
0001
,
1000
0100
0010
0001
0010
0100
1000
0001
,
1000
0010
1000
0100
0001
0100
1000
0100
,
0010
0001
1000
0001
0100
0001
0010
1000
,
0010
0001
0010
0100
1000
0100
0001
0100
,
1000
0000
0010
0000
0110
0000
0000
0100
0000
0000
0001
0000
2001
0000
0000
0000
,
0000
0000
0000
0000
0000
0000
3010
0100
,
0001
0100
0010
1000
0100
0010
0001
0100
,
1000
0100
0001
0100
1000
0100
0010
1000
,
0100
0010
0001
0001
0100
0100
0110
0010
,
1000
0001
1000
0001
0100
0010
0100
0010
,
0001
0010
0100
1000
0100
0001
0101
0100
,
0001
0010
0100
1000
0001
1000
0010
0010
,
0100
0100
0001
0001
1000
1000
2002
0000
,
0000
0000
3003
0000
;

//---------------dance-single - ----------------
#NOTES:
     dance-single:
     :
     Easy:
     5:
     0.406196,0.603696,0.075045,0.150090,0.020846,314.000000,9.000000,18.000000,0.000000,0.000000,0.000000,0.406196,0.603696,0.075045,0.150090,0.020846,314.000000,9.000000,18.000000,0.000000,0.000000,0.000000:
0000
0000
0000
0000
,
0000
0000
0000
0000
,
0000
0000
0000
0000
,
0000
0000
0000
0000
,
0000
0000
0000
0000
,
0000
0000
0000
0000
,
0000
0000
0000
0000
,
0000
0000
0000
0000
,
0000
0000
0000
0000
,
1000
0001
0100
0001
,
1000
0000
0010
0000
0100
0000
0001
1000
,
0001
0100
0010
0100
,
0001
0000
0000
0010
0000
0000
0001
0000
0100
0000
0000
0000
0100
0000
0000
0000
,
1001
0001
0100
0001
,
0010
0000
0100
0000
1000
0000
0001
1000
,
0001
0100
0001
0100
0010
1000
0010
1000
,
0100
0100
1000
0010
0100
0100
0001
0010
,
0100
0100
1000
1000
,
0010
0010
0100
0100
,
0001
0001
1000
1000
,
0100
0100
0010
0011
,
1100
1000
0100
0100
,
0010
0010
0001
0001
,
1000
1000
0010
0010
,
0100
0100
0001
0000
0020
0000
0130
1000
,
1001
0001
0100
0100
,
0010
0010
1000
1000
,
0100
0100
0010
0010
,
0001
0000
0000
0000
0001
0000
0000
0000
1000
0000
0000
0100
0000
0000
0010
0000
,
0001
0000
1000
0001
0000
0100
0001
0000
,
0101
0000
0100
0010
0000
0010
1000
0000
,
1010
0000
0010
0100
0000
0001
1000
0000
,
1001
0001
0001
0001
,
0201
0000
0000
0000
,
0000
0000
0000
0000
,
0302
0000
0000
0000
,
0003
2000
0000
0000
,
3020
0000
0230
0000
,
0300
0002
0000
0000
,
0023
0000
0230
0000
,
0300
2000
0000
0000
,
3020
0000
2030
0000
,
3200
0000
0000
0000
,
0310
0010
0001
0001
,
1000
1000
0010
0010
,
0100
0100
0001
0001
,
1000
1000
0001
0001
,
0020
0000
0000
0000
,
0000
0000
0000
0000
,
0000
0000
0000
0000
,
0000
0000
0000
0000
,
0000
0000
0000
0000
,
0000
0000
0000
0000
,
0000
0000
0000
0000
,
0000
0000
0000
0000
,
0000
0000
0000
0000
,
0230
0000
0000
0000
,
0000
0000
0300
1000
,
0001
0000
1000
0100
0010
0001
0100
0000
,
0010
0000
0100
0001
1000
0001
0100
0000
,
0010
0000
0100
0001
0010
0100
1000
0000
,
0001
0000
0010
0100
1000
0100
0010
0000
,
0001
0000
1000
0100
0010
0100
1000
0000
,
0010
0000
0100
0001
1000
0100
0010
0000
,
0100
0000
1000
0001
0100
0001
1000
0000
,
0010
0200
0000
0301
,
1000
0000
0100
0010
0100
1000
0001
0000
,
0100
0000
0010
1000
0001
1000
0100
0000
,
0010
0000
0100
1000
0010
0100
0001
0000
,
0010
0000
0000
0000
0100
0000
0000
1000
0000
0000
0100
0000
0010
0000
0000
0000
,
0001
0000
0100
0010
1000
0100
0010
0000
,
0001
0000
1000
0001
0100
0001
0010
0010
,
0100
0000
0100
0000
1000
0000
1000
0000
0001
0000
0001
0000
0101
0000
0000
0100
,
0000
0010
1000
0001
1000
1000
0010
0000
,
0100
0001
0100
0010
,
1000
0100
0010
0001
,
0100
0010
0100
0001
,
0010
0000
0100
0100
1000
1000
0001
0000
,
0100
0001
1000
0010
,
1000
0000
0100
0000
0010
0001
0010
0000
,
0100
1000
0001
1000
,
0010
0000
0000
0000
0100
0000
0000
0001
0000
0000
1000
0000
0002
0000
0000
0000
,
0000
0000
0000
0013
,
0100
0010
0001
1000
,
0010
0100
0001
1000
,
0001
0000
0010
0010
0100
0100
1000
0000
,
0001
1000
0010
1000
,
0100
0000
0010
0000
0001
0000
0100
0001
,
0100
0001
1000
0010
1000
0010
0100
0001
,
0010
0100
1000
0010
0100
0001
2000
0000
,
0000
0000
3000
0000
;

//---------------dance-single - ----------------
#NOTES:
     dance-single:
     :
     Beginner:
     4:
     0.279930,0.339579,0.000000,0.075045,0.000000,226.000000,0.000000,9.000000,0.000000,0.000000,0.000000,0.279930,0.339579,0.000000,0.075045,0.000000,226.000000,0.000000,9.000000,0.000000,0.000000,0.000000:
0000
0000
0000
0000
,
0000
0000
0000
0000
,
0000
0000
0000
0000
,
0000
0000
0000
0000
,
0000
0000
0000
0000
,
0000
0000
0000
0000
,
0000
0000
0000
0000
,
0000
0000
0000
0000
,
0000
0000
0000
0000
,
1000
0001
1000
0001
,
0100
0010
0100
0010
,
1000
0100
0010
0001
,
1000
0000
0001
0010
,
0100
1000
0001
1000
,
0100
0010
0001
1000
,
0001
0100
0010
1000
,
0002
0000
0000
0000
,
1003
0100
0010
0001
,
1000
0010
0100
0001
,
1000
0001
0010
0100
,
1000
0001
0100
0010
,
1000
0010
0100
0001
,
1000
0010
0100
0010
,
1000
0100
0010
0001
,
1000
0010
0200
0001
,
0301
0010
0001
0010
,
0100
1000
0100
1000
,
0010
0100
0010
0100
,
0001
0010
0002
0000
,
1003
0000
0010
0000
0000
0100
0000
0000
,
0100
0000
0001
0000
0000
1000
0000
0000
,
1000
0000
0010
0000
0000
0100
0000
0000
,
0100
0001
1000
0001
,
2000
0000
0000
0000
,
0000
0000
0000
0000
,
3010
0000
0000
0000
,
0100
0000
0000
0000
,
0001
0000
0000
0000
,
1000
0000
0000
0000
,
0100
0000
0000
0000
,
0010
0000
0000
0000
,
0001
0000
0000
0000
,
0100
0000
0000
0000
,
0010
0000
0000
0000
,
1000
0000
0000
0000
,
1000
0000
0000
0000
,
0001
0000
0000
0000
,
0020
0000
0000
0000
,
0000
0000
0000
0000
,
0000
0000
0000
0000
,
0000
0000
0000
0000
,
0000
0000
0000
0000
,
0000
0000
0000
0000
,
0000
0000
0000
0000
,
0000
0000
0000
0000
,
0000
0000
0000
0000
,
0230
0000
0000
0000
,
0000
0000
0300
1000
,
0001
1000
0001
0100
,
0010
0100
0010
1000
,
0100
0010
0001
1000
,
0100
0010
0001
0100
,
0010
1000
0001
0100
,
0010
1000
0001
0010
,
0100
0010
0100
2000
,
0000
0000
0000
3010
,
0100
0001
0100
0010
,
1000
0100
0010
0001
,
0010
0100
1000
0001
,
0010
0100
1000
0010
,
0100
0001
1000
0001
,
1000
0010
0100
0010
,
0100
0001
0010
0100
,
1000
0010
0100
0001
,
1000
0100
0010
0001
,
0100
0010
0100
0001
,
0010
0100
1000
0001
,
0100
0010
1000
0001
,
1000
0100
0010
0001
,
0100
0010
0100
0001
,
0010
0001
1000
0100
,
1000
0010
0100
0020
,
0000
0000
0000
1030
,
0001
0010
0100
0010
,
0001
1000
0010
0100
,
0001
0010
0100
1000
,
0001
1000
0001
0010
,
0100
0010
0001
1000
,
0100
0010
0001
0100
,
0001
0010
0100
2000
,
0000
0000
3000
0000
;
