#VERSION:0.82;
#TITLE:White As Snow;
#SUBTITLE:;
#ARTIST:CAPSULE;
#TITLETRANSLIT:;
#SUBTITLETRANSLIT:;
#ARTISTTRANSLIT:;
#GENRE:;
#ORIGIN:;
#CREDIT:;
#BANNER:[Speed Changes] - White As Snow.png;
#BACKGROUND:[Speed Changes] - White As Snow-bg.png;
#PREVIEWVID:;
#JACKET:[Speed Changes] - White As Snow-jacket.png;
#CDIMAGE:;
#DISCIMAGE:;
#LYRICSPATH:;
#CDTITLE:;
#MUSIC:White As Snow.ogg;
#OFFSET:-0.353000;
#SAMPLESTART:92.234497;
#SAMPLELENGTH:15.000000;
#SELECTABLE:YES;
#BPMS:0.000=128.030,
68.000=64.015,
100.000=128.030,
135.000=64.015,
135.500=128.030,
138.500=64.015,
139.000=128.030,
142.000=64.015,
142.500=128.030,
145.500=64.015,
146.000=128.030,
224.000=64.015;
#STOPS:147.000=0.234,
148.500=0.234,
150.000=0.234,
151.500=0.234;
#DELAYS:;
#WARPS:;
#TIMESIGNATURES:0.000=4=4;
#TICKCOUNTS:0.000=4;
#COMBOS:0.000=1;
#SPEEDS:0.000=1.000=0.000=0;
#SCROLLS:0.000=1.000;
#FAKES:;
#LABELS:0.000=Song Start;
#BGCHANGES:;
#KEYSOUNDS:;
#ATTACKS:
;

//---------------dance-single - ----------------
#NOTEDATA:;
#CHARTNAME:;
#STEPSTYPE:dance-single;
#DESCRIPTION:;
#CHARTSTYLE:;
#DIFFICULTY:Hard;
#METER:8;
#RADARVALUES:0.408191,0.508963,0.037205,0.364608,0.316241,330.000000,5.000000,49.000000,0.000000,0.000000,0.000000,0.000000,0.000000,0.408191,0.508963,0.037205,0.364608,0.316241,330.000000,5.000000,49.000000,0.000000,0.000000,0.000000,0.000000,0.000000;
#CREDIT:;
#NOTES:
0000
0000
0000
0000
,
1000
0000
0000
0001
0000
0000
0001
0000
0010
0000
0000
0001
0000
0000
0001
0000
,
0100
0000
0000
0010
0000
0000
0010
0000
1000
0000
0000
0010
0000
0000
0010
0000
,
1000
0000
0000
0100
0000
0000
0100
0000
0010
0000
0000
0100
0000
0000
0100
0000
,
0010
0000
0000
0001
0000
0000
0001
0000
1000
0000
0000
0001
0000
0000
0001
0000
,
1000
0002
0023
0032
,
2003
3200
2300
3020
,
0230
0320
2030
3002
,
2003
3200
0320
0032
,
2000
0000
0000
0000
,
0000
0000
0000
0000
,
3003
0000
0000
0000
,
0000
0000
0000
0000
,
2010
3000
0002
0003
,
2000
3020
0000
0030
,
0200
0300
0002
0003
,
0200
0320
0000
0030
,
1000
0100
0010
0100
1000
0010
0100
0001
0100
0000
0000
0000
0010
0100
0001
0010
,
0001
1000
0002
0000
0000
0000
0000
0000
0000
0000
0000
0000
0000
0000
1003
0100
,
1000
0010
0200
0000
0000
0000
0000
0300
0000
0100
0001
1000
0100
0010
0100
1000
,
0001
0100
0020
0000
0000
0000
0000
0000
0000
0000
0000
0000
0030
0000
0000
0000
,
1000
0000
0001
0100
1000
0000
0100
0000
0001
0000
1000
0010
0001
0000
1000
0000
,
0010
0001
0010
1000
0002
0000
0000
0000
0003
1000
0010
0100
0001
0010
0001
1000
,
0010
0000
0100
0010
1000
0000
0001
0000
1000
0010
0100
0001
0010
0000
0000
0010
,
0100
1000
0002
0000
0000
0000
0000
0000
0000
0000
0003
0000
2000
0000
0000
0000
,
0020
0000
0000
0000
,
0000
0000
0000
0000
,
3030
0000
0000
1000
0000
0001
0000
1000
0000
0000
0000
0010
0000
0100
0000
0010
,
0000
0000
0000
1000
0000
0010
0000
1000
0000
0000
0000
0010
0000
0100
0000
0010
,
1000
0001
1000
0001
1000
0001
0200
0000
,
0301
1000
0001
1000
0001
1000
0020
0000
,
1030
0001
1000
0001
1000
0001
0200
0000
,
0301
1000
0001
1000
0001
1000
0020
0000
,
1030
0010
0100
0001
0010
0100
2000
3100
,
0010
0001
0100
0010
1000
0002
1003
0010
,
0100
0001
0010
0100
0020
0130
1000
0001
,
1000
0001
0010
0200
1300
0010
0000
0100
,
0001
0000
0001
0010
0000
0100
1000
0000
,
0001
0010
1000
0010
0001
0001
1000
1000
,
0000
0001
0001
1000
0010
0100
0001
0000
0000
1100
0000
0000
,
0012
0000
0000
0000
0000
0000
1003
0000
0000
0100
0000
0000
1000
0000
0000
0100
0000
0000
1000
0000
0010
0000
0100
0000
,
0000
0000
0000
0000
0000
0000
0001
0000
0000
0100
0000
0000
0010
0000
0000
0100
0000
0000
0001
0000
1000
0000
0001
0000
,
0200
0000
0000
0000
0000
0000
0301
0000
0000
0010
0000
0000
0001
0000
0000
0010
0000
0000
0001
0000
1000
0000
0100
0000
,
0000
0000
0000
0000
0000
0000
0010
0000
0000
0100
0000
0000
0010
0000
0000
0001
0000
0000
1000
0000
0100
0000
0010
0000
,
0002
0000
0000
0000
0000
0000
0103
0000
0000
0001
0000
0000
0100
0000
0000
0001
0000
0000
0100
0000
0010
0000
1000
0000
,
0000
0000
0000
0000
0000
0000
0001
0000
0000
0010
0000
0000
0001
0000
0000
1000
0000
0000
0001
0000
0100
0000
0001
0000
,
0020
0000
0000
0000
0000
0000
0130
0000
0000
1000
0000
0000
0100
0000
0000
1000
0000
0000
0100
0000
0010
0000
0001
0000
,
0000
0000
0000
0000
0000
0000
0010
0000
0000
0100
0000
0000
0010
0000
0000
0001
0000
0000
1000
0000
1000
0000
0001
0000
,
0200
0000
0000
0000
0000
0000
0301
0000
0000
0010
0000
0000
1000
0000
0000
0010
0000
0000
0001
0000
0100
0000
1000
0000
,
0000
0000
0000
0000
0000
0000
1000
0000
0000
0100
0000
0000
0001
0000
0000
0100
0000
0000
0010
0000
1000
0000
0001
0000
,
2000
0000
0000
0000
0000
0000
3001
0000
0000
0100
0000
0000
1000
0000
0000
0100
0000
0000
0001
0000
0010
0000
1000
0000
,
0000
0000
0000
0000
0000
0000
0010
0000
0000
0001
0000
0000
0010
0000
0000
1000
0000
0000
0010
0000
0100
0000
1000
0000
,
0002
0000
0000
0000
0000
0000
1003
0000
0000
0001
0000
0000
0100
0000
0000
0010
0000
0000
0100
0000
0010
0000
1000
0000
,
0000
0000
0000
0000
0000
0000
0001
0000
0000
0010
0000
0000
0100
0000
0000
0010
0000
0000
0001
0000
1000
0000
0100
0000
,
0020
0000
0000
0000
0000
0000
0130
0000
0000
1000
0000
0000
0100
0000
0000
0001
0000
0000
0100
0000
0010
0000
0001
0000
,
0000
1000
0001
0010
0001
1000
0100
0000
0000
0011
0000
0000
,
2002
0000
0000
0000
,
3003
0000
0000
0000
;

//---------------dance-single - ----------------
#NOTEDATA:;
#CHARTNAME:;
#STEPSTYPE:dance-single;
#DESCRIPTION:;
#CHARTSTYLE:;
#DIFFICULTY:Challenge;
#METER:10;
#RADARVALUES:0.639924,0.721030,0.706893,0.312521,0.643644,465.000000,95.000000,42.000000,0.000000,0.000000,12.000000,0.000000,0.000000,0.639924,0.721030,0.706893,0.312521,0.643644,465.000000,95.000000,42.000000,0.000000,0.000000,12.000000,0.000000,0.000000;
#CREDIT:;
#NOTES:
0000
0000
0000
0000
,
1001
0000
0001
0100
0000
0100
0010
0000
0100
0000
0010
1000
0000
0100
0001
0000
,
1000
0000
0100
0010
0000
0010
0001
0000
1000
0000
0001
0010
0000
0100
1000
0000
,
0001
0000
1000
0010
0000
0010
0100
0000
0001
0000
0010
0001
0000
0100
1000
0000
,
0100
0000
1000
0100
0000
0100
0010
0000
0001
0000
0100
0001
0000
1000
0010
0000
,
1001
0000
0000
0000
0020
0000
0000
0130
0010
0000
1000
0000
0200
0000
0000
0310
,
0001
0000
1000
0000
0020
0000
0000
0130
0001
0000
1000
0000
0200
0000
0000
0310
,
0001
0000
1000
0000
0020
0000
0000
0130
0001
0000
1000
0000
0200
0000
0000
0310
,
0001
0000
1000
0000
0020
0000
0000
0130
0001
0000
1000
0000
0200
0000
0300
0000
,
2002
0000
0000
0000
,
3003
0000
0000
0000
,
0000
0000
0000
0000
,
0000
0000
0000
0000
,
1001
0000
0000
0000
0000
0000
0004
0000
0000
4000
0000
0000
0000
0000
0000
0000
0000
0000
3003
0000
0000
0000
0000
0000
4000
0000
0000
0004
0000
0000
0000
0000
0000
0000
0000
0000
0000
0000
0000
0000
0000
0000
0000
0000
0000
0003
3000
0000
,
0001
0100
0001
0040
0400
0000
0000
0000
0000
0000
0000
0000
0000
0000
0330
0000
,
0400
4000
0000
0000
0000
0000
3300
0000
0004
0040
0000
0000
0000
0000
0033
0000
,
0001
0010
0001
0100
0004
4000
0000
0000
0000
0000
0000
0000
3003
0000
0000
0000
,
0001
0000
0100
0000
1000
0000
0100
0000
0001
0000
0010
0000
1000
0000
0010
0000
0200
0000
0000
0000
0000
0000
0310
0100
1000
0000
0010
0000
0100
0000
0001
0000
,
1000
0001
0020
0000
0100
0000
0000
0000
0000
0000
0000
0000
0031
0000
1000
0010
,
0100
0001
0010
0100
0010
0000
0000
0000
0100
0010
0010
0001
1000
0010
0001
0010
,
1000
0001
2000
0100
0100
0000
0000
0000
0000
0000
0001
0001
3001
0000
0000
0000
,
1000
0000
0000
0000
0001
0000
0100
0000
1000
0000
0000
0000
0100
0000
0000
0000
0010
0000
0000
0000
1000
0000
0001
0010
0100
0000
0000
0000
1000
0000
0000
0000
,
0001
0010
0001
0100
1000
0100
0010
1000
0100
0010
0100
0010
1000
0001
0010
0100
,
1000
0000
0001
0000
1000
0000
0001
0000
0010
0000
0100
0010
0100
0000
0010
0000
0010
0000
0001
0000
0010
0000
1000
0000
0001
0000
0010
0100
0010
0000
0100
0000
,
0100
0000
0000
0000
0010
0000
0100
0000
0000
0000
0100
1000
0001
0000
0010
0000
0001
0000
1000
0000
0010
0000
0100
0000
0001
0000
1000
0001
1000
0000
0010
0000
,
1000
0000
0100
1000
0000
0010
0000
0100
0001
0000
0010
0001
0000
0100
0000
0010
,
1000
0000
0010
0100
0000
0001
0000
0010
0100
0000
0100
1000
0000
0010
0000
0100
,
0001
0000
0010
0100
0000
1000
0000
0001
0100
0000
0010
1000
0000
0001
0000
0010
,
0100
0000
0010
0001
0000
0100
0000
0010
1000
0000
0001
0010
0000
0100
0000
1000
,
0001
0100
1000
0100
0001
0100
2002
3003
,
1000
0010
0001
0010
1000
0010
2002
3003
,
1000
0100
0001
0100
1000
0100
2002
3003
,
0001
0010
1000
0010
0001
0010
2002
3003
,
1000
0000
0001
0100
0001
0000
0100
0010
0100
0000
0010
2000
0002
3003
1000
0000
,
0001
0100
0001
0000
0100
0010
0100
0000
0010
2000
0020
3030
1000
0000
0100
0010
,
0100
0000
0010
0001
0010
0000
0001
0200
0002
0303
0001
0000
0100
0010
0100
0000
,
0010
1000
0010
0000
1000
0002
0200
0303
0001
1000
0010
0100
0000
0000
0010
1000
,
0001
0010
0000
0000
0100
0010
0001
1000
0000
0000
0001
1000
0010
1000
0000
0000
,
0001
0000
1000
0010
0000
0010
0100
0000
0100
0001
0000
1000
0001
0000
0001
0100
0000
0100
0010
0000
1000
0100
0000
0010
,
0000
0000
0000
0000
0000
0000
0000
0000
0000
0000
0000
0000
0000
0000
0000
0000
0011
0000
0000
0000
0000
0000
0000
0000
0000
0000
0000
0000
0000
0000
0000
0000
1100
0000
0000
0000
0000
0000
0000
0000
0000
0000
0000
0000
0000
0000
0000
0000
1010
0000
0000
0000
0000
0000
0000
0000
0000
0000
0000
0000
0000
0000
0000
0000
0101
0000
0000
0000
0000
0000
0000
0000
0000
0000
0000
0000
0000
0000
0000
0000
1010
0000
0000
0000
0000
0000
0000
0000
0000
0000
0000
0000
0000
0000
0000
0000
2002
0000
0000
0000
0000
0000
0000
0000
0000
0000
0000
0000
0000
0000
0000
0000
0000
0000
0000
0000
0000
0000
0000
0000
0000
0000
0000
0000
0000
0000
0000
0000
0000
0000
0000
0000
0000
0000
0000
0000
0000
0000
0000
0000
0000
0000
0000
3003
2002
0000
0000
0000
0000
0000
0000
0000
0000
0000
0000
0000
0000
0000
0000
0000
0000
0000
0000
0000
0000
0000
0000
0000
3003
0000
0000
0000
0000
0000
0000
0000
0000
0000
0000
0000
0000
0000
0000
0000
0000
0000
0000
0000
0000
0000
0000
0000
,
1001
0000
0000
0000
0000
0000
0101
0000
0000
0100
0000
0000
0101
0000
0000
0100
0000
0000
0101
0000
0001
0000
1000
0000
,
0000
0000
0000
0000
0000
0000
1100
0000
0000
0100
0000
0000
0110
0000
0000
0010
0000
0000
0011
0000
0010
0000
0100
0000
,
2000
0000
0000
0000
3000
0000
1001
0000
0000
1000
0000
0000
1001
0000
0000
1000
0000
0000
1001
0000
0001
0000
0100
0000
,
0000
0000
0000
0000
0000
0000
0101
0000
0000
0100
0000
0000
0110
0000
0000
0010
0000
0000
1010
0000
1000
0000
1000
0000
,
0002
0000
0000
0000
0003
0000
1100
0000
0000
0100
0000
0000
1100
0000
0000
0100
0000
0000
1100
0000
0100
0000
0010
0000
,
0000
0000
0000
0000
0000
0000
0110
0000
0000
0010
0000
0000
0011
0000
0000
0001
0000
0000
1001
0000
1000
0000
0001
0000
,
0020
0000
0000
0000
0030
0000
0110
0000
0000
0100
0000
0000
0110
0000
0000
0100
0000
0000
0110
0000
0100
0000
1000
0000
,
0000
0000
0000
0000
0000
0000
0101
0000
0000
0001
0000
0000
1001
0000
0000
1000
0000
0000
1100
0000
0100
0000
0100
0000
,
0020
0000
0000
0000
0030
0000
0110
0000
0000
0110
0000
0000
1100
0000
0000
1100
0000
0000
1100
0000
1001
0000
1001
0000
,
0000
0000
0000
0000
0000
0000
1001
0000
0000
1001
0000
0000
0101
0000
0000
0101
0000
0000
1001
0000
1001
0000
1001
0000
,
2000
0000
0000
0000
3000
0000
0011
0000
0000
0011
0000
0000
0110
0000
0000
0110
0000
0000
1100
0000
1100
0000
1100
0000
,
0000
0000
0000
0000
0000
0000
1100
0000
0000
1100
0000
0000
1010
0000
0000
1010
0000
0000
0101
0000
0101
0000
0101
0000
,
0002
0000
0000
0000
0003
0000
1001
0000
0000
1001
0000
0000
1100
0000
0000
1100
0000
0000
0110
0000
0110
0000
0110
0000
,
0000
0000
0000
0000
0000
0000
1100
0000
0000
1100
0000
0000
0011
0000
0000
0011
0000
0000
1001
0000
1001
0000
1001
0000
,
2000
0000
0000
0000
3000
0000
1001
0000
0000
1001
0000
0000
0110
0000
0000
0110
0000
0000
1001
0000
1001
0000
1001
0000
,
0000
0101
1010
1100
0011
0110
1200
0000
0000
0010
0010
0010
,
0320
0000
0000
0000
,
0030
0000
0000
0000
;

//---------------dance-single - ----------------
#NOTEDATA:;
#CHARTNAME:;
#STEPSTYPE:dance-single;
#DESCRIPTION:;
#CHARTSTYLE:;
#DIFFICULTY:Medium;
#METER:5;
#RADARVALUES:0.312521,0.345261,0.081851,0.297639,0.074410,243.000000,11.000000,40.000000,0.000000,0.000000,0.000000,0.000000,0.000000,0.312521,0.345261,0.081851,0.297639,0.074410,243.000000,11.000000,40.000000,0.000000,0.000000,0.000000,0.000000,0.000000;
#CREDIT:;
#NOTES:
0000
0000
0000
0000
,
1000
0001
1000
0010
,
1000
0001
1000
0010
,
1000
0001
1000
0010
,
1000
0001
1000
0010
,
0100
0002
0103
0020
,
1030
0200
0310
0002
,
1003
0020
1030
0200
,
0310
0002
1003
0020
,
0200
0000
0000
0000
,
0000
0000
0000
0000
,
0330
0000
0000
0000
,
0000
0000
0000
0000
,
1002
0003
0002
0003
,
1000
0002
0000
0003
,
0200
0300
0200
0300
,
0200
0320
0000
0030
,
0200
0000
0302
2003
,
0020
0000
0000
0000
0000
0000
0000
0000
0000
0000
3030
0000
0000
0000
1000
0010
,
0100
0001
0020
0000
0000
0000
0000
0000
0230
0000
0000
0000
2300
0000
0000
0000
,
3001
1000
0020
0000
0000
0000
0000
0000
0000
0000
0000
0000
0030
0000
0000
0000
,
0100
0000
0001
0100
0001
0000
0000
0000
0100
0000
0010
1000
0010
0000
0000
0000
,
1000
0001
0100
0001
2000
0000
0000
0000
0000
0000
0000
0000
3000
0000
0000
0000
,
0001
0000
0010
0100
1000
0000
0000
0000
1000
0001
0010
0100
0010
0000
0000
0100
,
1000
0010
0200
0000
0000
0000
0000
0000
0000
0000
0300
0000
0002
0000
0000
0000
,
2000
0000
0000
0000
,
0000
0000
0000
3003
,
1000
0001
1000
0001
,
0100
0010
0100
0010
,
1000
0010
0100
1001
,
0001
0010
0100
1001
,
1000
0001
0100
1001
,
0001
1000
0010
1001
,
1000
0000
0010
0000
0100
0000
0002
0103
,
0000
0010
0000
1000
0000
0002
0013
0000
,
0100
0000
0010
0000
0002
0103
0000
0010
,
0000
1000
0000
0200
1300
0001
0000
0001
,
1000
0000
1000
0001
0000
0001
1000
0000
,
1001
0110
1001
0110
,
0000
0100
0010
0100
0001
1000
0001
0000
0000
1001
0000
0000
,
1000
0000
0010
1000
0010
1000
0010
0000
,
0100
0000
0001
0010
0001
0010
0001
0000
,
0010
0000
0100
1000
0100
1000
0100
0000
,
1000
0000
0001
0100
0001
0100
0020
0000
,
1030
0000
0001
1000
0001
1000
0001
0000
,
0010
0000
0100
1000
0100
1000
0100
0000
,
1000
0000
0010
0100
0010
0100
0010
0000
,
0100
0000
0001
0100
0001
0100
0002
0000
,
1003
0000
0001
0010
1000
0010
0002
0000
,
0003
0000
0100
1000
0100
0001
0100
0010
,
0200
0000
1300
0010
0100
0001
0010
0100
,
0000
0000
0010
0100
1000
0001
1000
0001
,
2000
0000
3001
0100
0010
1000
0100
0010
,
0000
0000
0100
0010
0001
0010
0100
1000
,
0002
0000
0013
0001
0100
0010
1000
0001
,
0000
1000
0010
0100
0001
1000
0001
0000
0000
0100
0000
0000
,
2002
0000
0000
0000
,
0000
0000
0000
0000
,
3003
0000
0000
0000
;

//---------------dance-single - ----------------
#NOTEDATA:;
#CHARTNAME:;
#STEPSTYPE:dance-single;
#DESCRIPTION:;
#CHARTSTYLE:;
#DIFFICULTY:Easy;
#METER:3;
#RADARVALUES:0.192402,0.215788,0.029764,0.193465,0.000000,151.000000,4.000000,26.000000,0.000000,0.000000,0.000000,0.000000,0.000000,0.192402,0.215788,0.029764,0.193465,0.000000,151.000000,4.000000,26.000000,0.000000,0.000000,0.000000,0.000000,0.000000;
#CREDIT:;
#NOTES:
0000
0000
0000
0000
,
1000
0000
0100
0000
,
1000
0000
0100
0000
,
0010
0000
0001
0000
,
0010
0000
0001
0000
,
1000
0002
0000
0003
,
2000
0000
0000
3000
,
0020
0000
0000
0030
,
0200
0000
0000
0300
,
2002
0000
0000
0000
,
3003
0000
0000
0000
,
0000
0000
0000
0000
,
0000
0000
0000
0000
,
0010
0000
0010
0000
,
0010
0100
0000
0000
,
0100
0000
0100
0000
,
0100
0010
0000
0000
,
1000
0000
0001
1000
,
0200
0000
0300
0000
,
0010
0000
0001
1000
,
0010
2000
0000
0000
0000
0000
3000
0000
,
0001
1000
0001
0000
0100
0010
0100
0000
,
0001
0100
0020
0000
0000
0000
0030
0000
,
1000
0010
1000
0000
0100
0010
0001
0000
,
1000
0001
0000
0000
0000
0000
0100
0000
,
0020
0000
0000
0000
,
0000
0000
0000
0000
,
0030
0100
0000
0100
,
0000
0100
0000
0100
,
0001
1000
0001
2000
,
3001
1000
0001
2000
,
3001
1000
0001
2000
,
3001
1000
0001
2000
,
3001
0000
0010
0000
0100
0000
0000
1000
,
0000
0100
0000
0010
0000
0000
1000
0000
,
0001
0000
0100
0000
0000
0010
0000
0100
,
0000
0001
0000
0000
1000
0000
0000
0001
,
0000
0000
1000
0000
0000
0001
0000
0000
,
1000
0100
0010
0001
,
0000
0000
0000
0010
,
1001
0001
0001
1000
,
0000
0100
0100
0010
,
0100
0010
0010
0001
,
0000
1000
1000
0020
,
0130
0001
0001
1000
,
0000
0100
0100
0010
,
0200
1300
1000
0001
,
0000
0100
0100
0002
,
1003
0001
0001
2000
,
3100
1000
1000
0020
,
0130
0001
0001
0020
,
0031
0100
0100
0020
,
1030
0010
0010
0200
,
0301
1000
1000
0200
,
1300
0010
0010
0200
,
0300
0010
0100
1001
,
0220
0000
0000
0000
,
0000
0000
0000
0000
,
0330
0000
0000
0000
;

//---------------dance-single - ----------------
#NOTEDATA:;
#CHARTNAME:;
#STEPSTYPE:dance-single;
#DESCRIPTION:;
#CHARTSTYLE:;
#DIFFICULTY:Beginner;
#METER:1;
#RADARVALUES:0.088229,0.104174,0.029764,0.000000,0.000000,79.000000,4.000000,0.000000,0.000000,0.000000,0.000000,0.000000,0.000000,0.088229,0.104174,0.029764,0.000000,0.000000,79.000000,4.000000,0.000000,0.000000,0.000000,0.000000,0.000000,0.000000;
#CREDIT:;
#NOTES:
// measure 0
0000
0000
0000
0000
,  // measure 1
1000
0000
1000
0000
,  // measure 2
1000
0000
1000
0000
,  // measure 3
1000
0000
1000
0000
,  // measure 4
1000
0000
1000
0000
,  // measure 5
0000
0001
0000
0000
,  // measure 6
0001
0000
0000
0000
,  // measure 7
0001
0000
0000
0000
,  // measure 8
0001
0000
0000
0000
,  // measure 9
1001
0000
0000
0000
,  // measure 10
0000
0000
0000
0000
,  // measure 11
0000
0000
0000
0000
,  // measure 12
0000
0000
0000
0000
,  // measure 13
0110
0000
0000
0000
,  // measure 14
0000
0000
0000
0000
,  // measure 15
0000
0000
0000
0000
,  // measure 16
0000
0000
0000
0000
,  // measure 17
1000
0000
0010
0100
,  // measure 18
0010
0000
0000
0000
,  // measure 19
0100
0000
0001
0001
,  // measure 20
1000
0000
0000
0000
,  // measure 21
0010
0000
0100
0000
,  // measure 22
0001
0001
0000
0000
,  // measure 23
0010
0000
0100
0000
,  // measure 24
1000
0000
0000
0010
,  // measure 25
0100
0000
0000
0000
,  // measure 26
0000
0000
0000
0000
,  // measure 27
0000
0000
0000
0000
,  // measure 28
0000
0000
0000
0000
,  // measure 29
0010
0000
0010
0000
,  // measure 30
1000
0000
1000
0000
,  // measure 31
0001
0000
0001
0000
,  // measure 32
0100
0000
0100
0000
,  // measure 33
0010
0000
0000
1000
,  // measure 34
0000
0000
0000
0000
0000
0001
0000
0000
,  // measure 35
0000
0000
1000
0000
,  // measure 36
0000
0000
0000
0001
1000
0000
0000
0001
,  // measure 37
0000
0000
1000
0000
0000
0001
0000
0000
,  // measure 38
0010
0000
0000
0000
,  // measure 39
0000
0100
0000
0000
0000
0000
0000
0000
,  // measure 40
1000
1001
0000
0000
,  // measure 41
0000
0001
0000
0000
,  // measure 42
0100
0100
0000
0000
,  // measure 43
0000
0010
0000
1000
,  // measure 44
0001
1000
0000
0000
,  // measure 45
0000
0010
0000
0000
,  // measure 46
0100
0010
0000
0000
,  // measure 47
0000
0100
0000
0001
,  // measure 48
1000
0010
0000
0000
,  // measure 49
0000
0100
0000
0000
,  // measure 50
0010
1000
0000
0000
,  // measure 51
0000
0001
0000
0010
,  // measure 52
0001
1000
0000
0000
,  // measure 53
0000
0100
0000
0000
,  // measure 54
1000
1000
0000
0000
,  // measure 55
0000
0010
0000
0100
,  // measure 56
1001
0000
0000
0000
;
