#TITLE:U Got 2 Let The Music;
#SUBTITLE:(K-Complex, Voycey & Douglas Remix);
#ARTIST:Cappella;
#TITLETRANSLIT:;
#SUBTITLETRANSLIT:;
#ARTISTTRANSLIT:;
#CREDIT:;
#BANNER:U Got 2 Let The Music (K-Complex, Voycey & Douglas Remix)-bn.png;
#BACKGROUND:U Got 2 Let The Music (K-Complex, Voycey & Douglas Remix)-bg.png;
#LYRICSPATH:;
#CDTITLE:cd.png;
#MUSIC:U Got 2 Let The Music (K-Complex, Voycey & Douglas Remix).mp3;
#OFFSET:-5.617;
#SAMPLESTART:26.130;
#SAMPLELENGTH:15.780;
#SELECTABLE:YES;
#BPMS:0.000=174.020,16.000=348.040,18.000=174.020,21.000=348.039,23.000=174.020,26.000=348.039,28.000=174.020,31.000=348.039,33.000=174.020,36.000=348.039,72.000=174.020;
#STOPS:36.000=0.172
,39.000=0.172
,42.000=0.172
,45.000=0.172
,48.000=0.172
,51.000=0.172
,54.000=0.172
,57.000=0.172
,60.000=0.172
,61.000=0.172
,62.000=0.172
,63.000=0.172
,64.000=0.172
,65.000=0.172
,66.000=0.172
,67.000=0.172
,68.000=0.172
,69.000=0.172
,70.000=0.172
,71.000=0.172
,72.000=1.379
;
#BGCHANGES:;

//---------------dance-single - ----------------
#NOTES:
     dance-single:
     :
     Hard:
     9:
     0.731,0.704,0.215,0.304,0.322: // measure 1
1000
0100
1000
0100
0010
0100
0010
0100
,  // measure 2
0010
0001
0010
0001
0100
0001
0100
0001
,  // measure 3
1000
0001
1000
0001
0100
0001
0100
0001
,  // measure 4
1000
0010
1000
0010
0100
0010
0100
0010
,  // measure 5
2002
0000
0000
0000
3003
0000
0000
0000
1000
0100
1000
0100
1000
0000
0001
0000
,  // measure 6
0100
0000
0000
0000
2002
0000
0000
0000
3003
0000
0000
0000
0100
0001
0100
0001
,  // measure 7
0100
0010
1000
0000
2002
0000
3003
0000
,  // measure 8
1000
0100
1000
0100
1000
0000
0001
0000
0100
0000
0000
0000
2002
0000
0000
0000
,  // measure 9
3003
0000
0000
0000
0100
0001
0100
0001
0100
0000
0010
0000
1000
0000
0000
0000
,  // measure 10
1001
1000
0001
1001
,  // measure 11
0100
0001
0110
1000
,  // measure 12
0100
0011
0100
0100
,  // measure 13
0110
0001
0001
0011
,  // measure 14
0100
0100
1100
0010
,  // measure 15
0010
1010
0001
0001
,  // measure 16
0002
0203
0302
0023
,  // measure 17
0230
2300
3002
0203
,  // measure 18
0320
2030
3200
0310
,  // measure 19
2002
0000
0000
0000
3003
0000
0000
0100
,  // measure 20
1000
0000
0010
0000
1000
0000
0010
0100
0000
0100
0010
0000
1000
0000
0001
0000
,  // measure 21
1000
0000
0100
0000
0010
0000
0100
1000
0000
1000
0100
0000
0010
0000
0100
0000
,  // measure 22
1000
0000
0001
0000
1000
0000
0001
0010
0000
0010
0001
0000
1000
0000
0001
0000
,  // measure 23
0100
0000
1000
0000
0100
0000
0001
0100
0000
0100
0001
0000
1000
0000
0001
0000
,  // measure 24
0100
0000
0001
0000
1000
0000
0001
1000
0000
1000
0001
0000
0100
0000
0001
0000
,  // measure 25
1000
0000
0010
0000
1000
0000
0010
1000
0000
1000
0010
0000
0100
0000
0001
0000
,  // measure 26
1000
0000
0001
0000
0100
0000
0010
0100
0000
0100
0010
0000
0100
0000
0010
0000
,  // measure 27
1000
0000
0001
0000
1000
0000
0010
0100
0000
0100
0001
0000
0100
0000
0001
0000
,  // measure 28
1000
0000
0001
0000
0100
0000
0001
1000
0000
0010
1000
0000
0100
0000
0010
0000
,  // measure 29
0100
0000
0010
0000
0001
0000
1000
0100
0000
0100
0010
0000
0001
0000
1000
0000
,  // measure 30
0001
0000
0100
0000
0001
0000
0010
0001
0000
1000
0100
0000
0010
0000
0001
0000
,  // measure 31
0010
0000
0100
0000
0010
0000
0001
1000
0000
0001
0010
0000
0001
0000
1000
0000
,  // measure 32
0001
0000
0100
0000
0010
0000
1000
0010
0000
1000
0010
0000
0100
0000
0001
0000
,  // measure 33
1000
0000
0010
0000
0100
0000
0001
0100
0000
0100
0001
0000
1000
0000
0100
0000
,  // measure 34
1000
0000
0100
0000
1000
0000
0001
1000
0000
0001
1000
0000
0010
0000
0100
0000
,  // measure 35
0001
0000
1000
0000
0010
0000
0100
0001
0000
1000
0001
0000
0100
0000
0000
0000
,  // measure 36
0100
0001
0100
0000
0010
0000
0100
0001
0000
0001
0100
0000
0010
0000
1000
0000
,  // measure 37
0001
1000
0001
0000
0100
0000
0001
1000
0000
1000
0001
0000
0010
0000
0001
0000
,  // measure 38
1000
0010
1000
0000
0010
0000
0100
0001
0000
0010
0001
0000
0010
0000
0001
0000
,  // measure 39
1000
0010
1000
0000
0001
0000
1000
0001
0000
0100
0010
0000
1000
0000
0010
0000
,  // measure 40
0100
0001
0100
0000
0010
0000
1000
0100
0000
0010
0100
0000
1000
0000
0100
0000
,  // measure 41
1000
0100
1000
0000
0010
0000
0100
0010
0000
0010
0100
0000
0001
0000
1000
0000
,  // measure 42
0001
0010
0001
0000
1000
0000
0010
0100
0000
0001
1000
0000
0010
0000
1000
0000
,  // measure 43
0010
1000
0010
0000
0100
0000
0001
0010
0000
0010
0001
0000
1000
0000
0001
0000
,  // measure 44
1000
0010
0100
0010
1000
0001
0010
0100
,  // measure 45
0010
0001
1000
0010
0100
0010
1000
0001
,  // measure 46
0010
0100
0010
0001
1000
0010
0100
0001
,  // measure 47
1000
0100
1000
0001
0100
0010
1000
0001
,  // measure 48
2002
0000
0000
3003
,  // measure 49
2002
0000
0000
3003
,  // measure 50
0220
0330
2002
3003
,  // measure 51
1001
0110
1001
0110
,  // measure 52
1001
0000
0010
0000
0100
0000
0001
0100
0000
0000
0010
0000
0100
0000
0001
0000
,  // measure 53
1000
0000
0010
0000
0100
0000
0010
1000
0000
0000
0010
0000
1000
0000
0100
0000
,  // measure 54
1000
0000
0010
0000
0100
0000
0001
0100
0000
0000
0010
0000
0100
0000
0001
0000
,  // measure 55
0100
0000
0010
0000
1000
0000
0100
1000
0000
0000
0010
0000
0100
0000
0001
0000
,  // measure 56
0100
0000
0010
0000
1000
0000
0100
0010
0000
0000
0100
0000
1000
0000
0001
0000
,  // measure 57
1000
0000
0010
0000
0100
0000
0001
0100
0000
0000
0010
0000
1000
0000
0100
0000
,  // measure 58
0010
0000
0100
0000
1000
0000
0001
1000
0000
0000
0010
0000
0100
0000
0001
0000
,  // measure 59
0010
0000
0001
0000
0100
0000
0010
0100
0000
0000
0001
0000
0100
0000
0010
0000
,  // measure 60
1000
0010
1000
0001
1000
0010
1000
0000
,  // measure 61
0100
1000
0100
0001
0100
1000
0100
0000
,  // measure 62
0010
1000
0010
0001
0010
1000
0010
0000
,  // measure 63
0001
0100
0001
1000
0001
0100
0001
0000
,  // measure 64
1000
0100
1000
0000
0010
1000
0010
0000
,  // measure 65
0100
0001
0100
0000
0010
0100
0010
0000
,  // measure 66
1000
0010
1000
0001
0100
0001
1000
0001
,  // measure 67
2000
0000
0000
0000
,  // measure 68
3002
0000
0000
1000
0000
0000
1000
0000
,  // measure 69
2003
0100
0100
3100
,  // measure 70
1100
0001
0001
0001
,  // measure 71
0210
0010
0010
0310
,  // measure 72
0001
0100
1000
0000
1000
0100
0001
0000
,  // measure 73
0001
0100
0001
0000
1000
0010
0100
0000
,  // measure 74
0001
0100
0001
1000
0010
0100
0010
1000
,  // measure 75
0002
0000
0000
0000
,  // measure 76
0003
0000
0000
0000
;

//---------------dance-single - ----------------
#NOTES:
     dance-single:
     :
     Medium:
     7:
     0.580,0.570,0.152,0.474,0.000: // measure 1
1000
0010
1000
0000
0001
0100
0001
0000
,  // measure 2
0010
0100
0010
0000
0100
1000
0100
0000
,  // measure 3
0010
0100
0010
0000
0001
0100
0001
0000
,  // measure 4
1000
0010
1000
0000
0100
1000
0100
0000
,  // measure 5
2000
0000
0000
0000
3001
1000
0001
1000
,  // measure 6
0001
0000
0200
0000
0000
0000
0310
0100
,  // measure 7
0010
0100
0010
0000
0200
0000
0000
0000
,  // measure 8
0301
0100
0001
0100
0001
0000
0020
0000
,  // measure 9
0000
0000
0031
0010
0001
0010
0001
0000
,  // measure 10
1000
0010
0100
0010
,  // measure 11
0100
0001
0100
0010
,  // measure 12
1000
0010
0100
0010
,  // measure 13
0001
0001
0010
0100
,  // measure 14
1000
0010
1000
0010
,  // measure 15
0100
0010
0100
0001
,  // measure 16
2000
3020
0230
0302
,  // measure 17
0023
0230
2300
3020
,  // measure 18
2030
3020
0230
0302
,  // measure 19
2003
0000
0000
0000
3000
0000
0000
0010
,  // measure 20
1000
0010
1000
0100
1000
0010
1000
0000
,  // measure 21
0001
0100
0010
0100
0001
0100
0010
0000
,  // measure 22
0001
1000
0100
1000
0001
1000
0010
0000
,  // measure 23
0100
1000
0100
0010
0001
0010
0100
0000
,  // measure 24
1000
0010
0100
0001
1000
0010
0100
0000
,  // measure 25
0001
0010
0100
0010
0001
1000
0001
0000
,  // measure 26
0001
1000
0010
0100
0001
0010
0100
0000
,  // measure 27
0100
1000
0010
0100
0001
1000
0010
0000
,  // measure 28
1000
0010
1000
0100
1000
0010
1000
0100
,  // measure 29
1000
0010
1000
0001
1000
0010
0100
0000
,  // measure 30
0001
0100
0010
0100
0001
1000
0100
0010
,  // measure 31
0001
1000
0010
0100
0001
1000
0010
0000
,  // measure 32
0100
1000
0001
1000
0010
1000
0100
1000
,  // measure 33
0100
0010
0001
1000
0010
0100
0001
0000
,  // measure 34
0001
1000
0100
0010
0001
1000
0010
1000
,  // measure 35
0100
1000
0010
0100
0001
0100
0010
0000
,  // measure 36
2000
0000
3010
0100
0001
1000
0010
0000
,  // measure 37
0200
0000
1300
0010
1000
0001
0100
0000
,  // measure 38
0002
0000
0013
0100
1000
0010
0100
0000
,  // measure 39
0200
0000
0310
1000
0001
1000
0100
0000
,  // measure 40
0200
0000
0310
0001
0010
0001
0010
0000
,  // measure 41
0002
0000
1003
0100
1000
0010
1000
0000
,  // measure 42
0200
0000
1300
0001
0100
0010
1000
0000
,  // measure 43
0002
0000
0013
0100
0010
0001
0010
0000
,  // measure 44
0100
0010
0100
0000
0010
0001
0010
0000
,  // measure 45
0001
1000
0100
0000
0100
1000
0010
0000
,  // measure 46
0010
1000
0100
0000
0001
1000
0010
0000
,  // measure 47
0010
0100
0010
0000
0100
0001
0100
0000
,  // measure 48
2002
0000
0000
3003
,  // measure 49
2002
0000
0000
3003
,  // measure 50
0020
0000
0200
0330
,  // measure 51
0010
0100
1001
0110
,  // measure 52
1000
0010
2000
0000
3100
0000
1000
0000
,  // measure 53
0001
0100
0020
0000
0130
0000
0001
0000
,  // measure 54
1000
0100
0020
0000
0031
0000
1000
0000
,  // measure 55
0010
0100
0020
0000
0130
0000
0001
0000
,  // measure 56
1000
0100
0020
0000
0031
0000
1000
0000
,  // measure 57
0010
0100
0002
0000
0013
0000
0100
0000
,  // measure 58
1000
0010
2000
0000
3010
0000
0100
0000
,  // measure 59
0001
0010
0200
0000
1300
0000
0010
0000
,  // measure 60
0010
1000
0001
0000
1010
0000
0101
0000
,  // measure 61
0010
1000
0100
0000
0011
0000
1100
0000
,  // measure 62
0010
0100
0010
0000
0110
0000
1001
0000
,  // measure 63
0001
0010
0100
0000
1100
0000
0011
0000
,  // measure 64
0002
1000
0100
1003
,  // measure 65
2000
0010
0001
3010
,  // measure 66
0020
0000
0100
0000
1000
0000
0100
0030
,  // measure 67
0200
0010
1000
0301
,  // measure 68
2002
0000
0000
3003
,  // measure 69
0020
0000
0130
0100
,  // measure 70
0201
0001
0001
0301
,  // measure 71
1020
1000
1000
0130
,  // measure 72
0020
0130
0200
0310
,  // measure 73
2001
3001
0120
1030
,  // measure 74
0001
1000
0010
1000
,  // measure 75
0002
0000
0000
0000
,  // measure 76
1003
0000
0000
0000
;

//---------------dance-single - ----------------
#NOTES:
     dance-single:
     :
     Easy:
     4:
     0.352,0.436,0.116,0.438,0.000: // measure 1
2002
0000
0000
3003
,  // measure 2
0220
0000
0000
0330
,  // measure 3
2002
0000
0000
3003
,  // measure 4
0220
0000
0000
0330
,  // measure 5
2000
0000
3000
0001
,  // measure 6
0100
0020
0000
0030
,  // measure 7
0100
0010
0200
0000
,  // measure 8
0300
0001
1000
0002
,  // measure 9
0000
0003
1000
0010
,  // measure 10
2000
0000
0000
3020
,  // measure 11
0000
0000
0230
0000
,  // measure 12
0000
0302
0000
0000
,  // measure 13
2003
0000
0000
3200
,  // measure 14
0000
0000
0320
0000
,  // measure 15
0000
0032
0000
0000
,  // measure 16
2003
0000
0000
0000
,  // measure 17
3020
0000
0000
0000
,  // measure 18
0230
0000
0000
0000
,  // measure 19
0301
0000
0000
0000
,  // measure 20
1000
0001
1000
0000
,  // measure 21
0010
0100
0010
0000
,  // measure 22
1000
0100
1000
0000
,  // measure 23
0100
0010
0100
0000
,  // measure 24
1000
0001
0100
0000
,  // measure 25
1000
0010
0100
0000
,  // measure 26
0001
1000
0100
0000
,  // measure 27
1000
0001
0100
0000
,  // measure 28
0001
1000
0100
1000
,  // measure 29
0010
0100
0001
1000
,  // measure 30
0100
0010
0001
1000
,  // measure 31
0010
0100
0001
1000
,  // measure 32
0100
0010
0001
0010
,  // measure 33
0001
1000
0010
1000
,  // measure 34
0010
0100
0001
1000
,  // measure 35
0100
1000
0010
0100
,  // measure 36
0002
0100
1000
0103
,  // measure 37
0200
0010
0001
0310
,  // measure 38
0020
1000
0100
1030
,  // measure 39
0200
0001
0010
0301
,  // measure 40
0002
1000
0100
1003
,  // measure 41
2000
0001
0010
3001
,  // measure 42
0002
0100
1000
0013
,  // measure 43
2000
0010
0001
3010
,  // measure 44
0100
0100
0200
0310
,  // measure 45
0001
0001
0002
1003
,  // measure 46
0100
0100
0200
1300
,  // measure 47
0001
0001
0002
1003
,  // measure 48
0002
0000
0000
0000
,  // measure 49
2003
0000
0000
0000
,  // measure 50
3002
0000
2003
0000
,  // measure 51
3002
0203
0320
2030
,  // measure 52
3001
1000
0100
0010
,  // measure 53
0001
1000
0010
0100
,  // measure 54
0001
1000
0100
1000
,  // measure 55
0001
0100
0010
1000
,  // measure 56
0001
0010
0100
1000
,  // measure 57
0010
1000
0001
0100
,  // measure 58
0010
1000
0001
0010
,  // measure 59
0100
1000
0001
0100
,  // measure 60
0010
1000
0100
1001
,  // measure 61
0010
0100
0001
0011
,  // measure 62
0100
1000
0010
0110
,  // measure 63
0001
1000
0100
0110
,  // measure 64
0001
0100
0110
0000
,  // measure 65
0001
1000
1100
0000
,  // measure 66
0010
0100
0110
0000
,  // measure 67
0001
0010
0110
0000
,  // measure 68
0020
0000
0000
0000
,  // measure 69
0230
0000
0000
0000
,  // measure 70
0302
0000
0000
0000
,  // measure 71
2003
0000
0000
0000
,  // measure 72
3001
0001
0001
0000
,  // measure 73
1000
1000
1000
0000
,  // measure 74
0010
0010
0010
0000
,  // measure 75
2002
0000
0000
0000
,  // measure 76
3003
0000
0000
0000
;

//---------------dance-single - ----------------
#NOTES:
     dance-single:
     :
     Beginner:
     2:
     0.153,0.235,0.045,0.161,0.000: // measure 1
0010
0000
0000
0000
,  // measure 2
0100
0000
0000
0000
,  // measure 3
0010
0000
0000
0000
,  // measure 4
0100
0000
0000
0000
,  // measure 5
0002
0000
0003
0000
,  // measure 6
0000
2000
0000
3000
,  // measure 7
0000
0000
0020
0000
,  // measure 8
0030
0000
0000
0200
,  // measure 9
0000
0300
0000
0000
,  // measure 10
0001
0000
0000
0000
,  // measure 11
0000
0000
1000
0000
,  // measure 12
0000
0000
0000
0000
,  // measure 13
0010
0000
0000
0000
,  // measure 14
0000
0000
0100
0000
,  // measure 15
0000
0000
0000
0000
,  // measure 16
0010
0000
0000
0000
,  // measure 17
0000
0000
0000
0000
,  // measure 18
0000
0000
0000
0000
,  // measure 19
0100
0000
0000
0000
,  // measure 20
1000
0000
0000
0000
,  // measure 21
0001
0000
0000
0000
,  // measure 22
1000
0000
0000
0000
,  // measure 23
0010
0000
0000
0000
,  // measure 24
0100
0000
0000
0000
,  // measure 25
0010
0000
0000
0000
,  // measure 26
0100
0000
0000
0000
,  // measure 27
0010
0000
0000
0000
,  // measure 28
0100
0100
0100
0000
,  // measure 29
0010
0010
0010
0000
,  // measure 30
0100
0100
0100
0000
,  // measure 31
0010
0010
0010
0000
,  // measure 32
1000
1000
1000
0000
,  // measure 33
0001
0001
0001
0000
,  // measure 34
1000
1000
1000
0000
,  // measure 35
0001
0001
0001
0000
,  // measure 36
1000
0000
0001
0000
,  // measure 37
1000
0000
0010
0000
,  // measure 38
0100
0000
0001
0000
,  // measure 39
0100
0000
0010
0000
,  // measure 40
1000
0000
0100
0000
,  // measure 41
1000
0000
0010
0000
,  // measure 42
0100
0000
0001
0000
,  // measure 43
1000
0000
0100
0000
,  // measure 44
2000
0000
0000
3000
,  // measure 45
0002
0000
0000
0003
,  // measure 46
0200
0000
0000
0300
,  // measure 47
0020
0000
0000
0030
,  // measure 48
2000
0000
0000
0000
,  // measure 49
0002
0000
0000
3003
,  // measure 50
0002
0000
0000
0000
,  // measure 51
2000
0000
0000
3003
,  // measure 52
0010
0000
0000
0000
,  // measure 53
0110
0000
0000
0000
,  // measure 54
0100
0000
0000
0000
,  // measure 55
0110
0000
0000
0000
,  // measure 56
0001
0000
0000
0000
,  // measure 57
1001
0000
0000
0000
,  // measure 58
1000
0000
0000
0000
,  // measure 59
1010
0000
0000
0000
,  // measure 60
0100
0000
0010
0000
,  // measure 61
0100
0000
0010
0000
,  // measure 62
1000
0000
0001
0000
,  // measure 63
1000
0000
0001
0000
,  // measure 64
0100
0000
0000
0000
,  // measure 65
0001
0000
0000
0000
,  // measure 66
1000
0000
0000
0000
,  // measure 67
0001
0000
0000
0000
,  // measure 68
0020
0000
0000
0000
,  // measure 69
0030
0000
0000
0000
,  // measure 70
0200
0000
0000
0000
,  // measure 71
0300
0000
0000
0000
,  // measure 72
0002
0000
0000
0003
,  // measure 73
2000
0000
0000
3000
,  // measure 74
0010
0000
0100
0000
,  // measure 75
2002
0000
0000
0000
,  // measure 76
3003
0000
0000
0000
;
