#VERSION:0.82;
#TITLE:ROCKET KID;
#SUBTITLE:;
#ARTIST:Ras.;
#TITLETRANSLIT:;
#SUBTITLETRANSLIT:;
#ARTISTTRANSLIT:;
#GENRE:J-CORE;
#ORIGIN:;
#CREDIT:;
#BANNER:;
#BACKGROUND:;
#PREVIEWVID:;
#JACKET:;
#CDIMAGE:;
#DISCIMAGE:;
#LYRICSPATH:;
#CDTITLE:;
#MUSIC:[Speed Changes] - ROCKET KID.mp3;
#OFFSET:-0.078980;
#SAMPLESTART:54.316204;
#SAMPLELENGTH:12.000000;
#SELECTABLE:YES;
#DISPLAYBPM:177.000000;
#BPMS:0.000=177.000,
46.000=132.750,
46.500=265.500,
47.000=132.750,
47.500=265.500,
48.000=177.000,
59.500=265.500,
63.000=88.500,
63.250=177.000,
63.500=354.000,
64.000=177.000,
78.000=132.750,
78.500=265.500,
79.000=132.750,
79.500=265.500,
80.000=177.000,
93.000=265.500,
94.000=88.500,
94.125=177.000,
94.250=354.000,
94.500=265.500,
96.000=177.000,
110.000=132.750,
110.500=265.500,
111.000=132.750,
111.500=265.500,
112.000=177.000,
123.500=265.500,
127.000=177.000,
128.000=265.500,
128.500=177.000,
130.000=265.500,
130.500=177.000,
132.000=265.500,
132.500=177.000,
134.000=265.500,
134.500=177.000,
136.000=265.500,
136.500=177.000,
137.000=265.500,
137.500=177.000,
138.000=265.500,
138.500=177.000,
139.000=265.500,
139.500=177.000,
144.000=354.000,
158.000=177.000,
160.000=132.750,
160.250=265.500,
160.500=177.000,
161.500=265.500,
161.750=132.750,
162.000=265.500,
163.000=177.000,
164.000=265.500,
165.500=177.000,
166.000=265.500,
166.375=88.500,
166.500=177.000,
168.000=265.500,
168.375=88.500,
168.500=177.000,
170.000=265.500,
170.375=88.500,
170.500=177.000,
171.500=265.500,
172.250=132.750,
172.500=265.500,
172.750=132.750,
173.000=265.500,
173.250=132.750,
173.500=265.500,
173.750=132.750,
174.000=265.500,
174.250=132.750,
174.500=265.500,
174.750=132.750,
175.000=265.500,
175.250=132.750,
175.500=265.500,
175.750=132.750,
176.250=265.000,
176.500=177.000,
178.000=265.500,
179.000=177.000,
180.000=265.500,
181.500=177.000,
182.000=265.500,
182.375=88.500,
182.500=177.000,
185.500=265.500,
185.750=132.750,
186.000=177.000,
186.500=265.500,
187.500=177.000,
188.000=265.500,
188.250=132.750,
188.500=265.500,
188.750=132.750,
189.000=265.500,
189.250=132.750,
189.500=265.500,
189.750=132.750,
190.000=354.000,
192.000=132.750,
192.250=265.000,
192.500=177.000,
193.500=265.500,
193.750=132.750,
194.000=265.500,
195.000=177.000,
196.000=265.500,
197.500=177.000,
198.000=265.500,
198.250=132.750,
198.500=177.000,
200.000=265.500,
200.375=88.500,
200.500=177.000,
202.000=265.500,
202.375=88.500,
202.500=177.000,
203.500=265.500,
204.250=132.750,
204.500=265.500,
204.750=132.750,
205.000=265.500,
205.250=132.750,
205.500=265.500,
205.750=132.750,
206.000=265.500,
206.250=132.750,
206.500=265.500,
206.750=132.750,
207.000=265.500,
207.250=132.750,
207.500=265.500,
207.750=132.750,
208.250=265.500,
208.500=177.000,
210.000=265.500,
211.000=177.000,
212.000=265.500,
213.500=177.000,
214.000=265.500,
214.250=132.750,
214.500=177.000,
217.500=132.750,
217.750=265.500,
218.000=177.000,
218.500=265.000,
220.000=354.000,
224.000=88.500,
240.000=177.000,
250.000=265.500,
251.000=177.000,
252.000=265.500,
253.500=177.000,
254.000=265.500,
254.250=132.750,
254.500=177.000,
264.000=265.500,
264.375=88.500,
264.500=177.000,
266.000=265.500,
266.375=88.500,
266.500=177.000,
268.000=354.000,
272.000=177.000,
286.000=132.750,
286.500=265.500,
287.000=132.750,
287.500=265.500,
288.000=177.000,
300.000=265.500,
302.500=177.000,
304.000=265.500,
304.500=177.000,
306.000=265.000,
306.500=177.000,
308.000=265.500,
308.500=177.000,
310.000=265.500,
310.500=177.000,
312.000=265.500,
312.500=177.000,
313.000=265.500,
313.500=177.000,
314.000=265.500,
314.500=177.000,
315.000=265.500,
315.500=177.000,
320.000=42.000;
#STOPS:59.500=0.028,
59.750=0.028,
60.000=0.028,
60.250=0.028,
60.500=0.028,
60.750=0.028,
61.000=0.056,
61.500=0.028,
61.750=0.028,
62.000=0.028,
62.250=0.028,
62.500=0.056,
93.000=0.028,
93.250=0.028,
93.500=0.028,
93.750=0.028,
94.500=0.028,
94.750=0.028,
95.000=0.056,
95.500=0.056,
123.500=0.028,
123.750=0.028,
124.000=0.028,
124.250=0.028,
124.500=0.056,
125.000=0.056,
125.500=0.028,
125.750=0.028,
126.000=0.028,
126.250=0.028,
126.500=0.056,
128.000=0.028,
128.250=0.028,
130.000=0.028,
130.250=0.028,
132.000=0.028,
132.250=0.028,
134.000=0.028,
134.250=0.028,
136.000=0.028,
136.250=0.028,
137.000=0.028,
137.250=0.028,
138.000=0.028,
138.250=0.028,
139.000=0.028,
139.250=0.028,
144.000=0.169,
145.000=0.169,
146.000=0.169,
147.000=0.169,
148.000=0.113,
148.667=0.113,
149.333=0.113,
150.000=0.113,
150.667=0.113,
151.333=0.113,
152.000=0.113,
152.667=0.113,
153.333=0.113,
154.000=0.113,
154.667=0.113,
155.333=0.113,
156.000=0.056,
156.333=0.056,
156.667=0.056,
157.000=0.056,
157.333=0.056,
157.667=0.056,
162.000=0.028,
162.250=0.028,
162.500=0.028,
162.750=0.028,
164.000=0.056,
164.500=0.028,
164.750=0.028,
165.000=0.028,
165.250=0.028,
171.500=0.028,
171.750=0.028,
178.000=0.028,
178.250=0.028,
178.500=0.028,
178.750=0.028,
180.000=0.056,
180.500=0.028,
180.750=0.028,
181.000=0.028,
181.250=0.028,
186.500=0.056,
187.000=0.028,
187.250=0.028,
190.000=0.127,
190.750=0.127,
191.500=0.085,
194.000=0.028,
194.250=0.028,
194.500=0.028,
194.750=0.028,
196.000=0.056,
196.500=0.028,
196.750=0.028,
197.000=0.028,
197.250=0.028,
203.500=0.028,
203.750=0.028,
210.000=0.028,
210.250=0.028,
210.500=0.028,
210.750=0.028,
212.000=0.056,
212.500=0.028,
212.750=0.028,
213.000=0.028,
213.250=0.028,
218.500=0.056,
219.000=0.028,
219.250=0.028,
219.500=0.028,
219.750=0.028,
220.000=0.169,
221.000=0.169,
222.000=0.169,
223.000=0.169,
250.000=0.028,
250.250=0.028,
250.500=0.028,
250.750=0.028,
252.000=0.056,
252.500=0.028,
252.750=0.028,
253.000=0.028,
253.250=0.028,
268.000=0.085,
268.500=0.169,
269.500=0.085,
270.000=0.127,
270.750=0.127,
271.500=0.085,
300.000=0.028,
300.250=0.028,
300.500=0.028,
300.750=0.028,
301.000=0.056,
301.500=0.028,
301.750=0.028,
302.000=0.028,
302.250=0.028,
304.000=0.028,
304.250=0.028,
306.000=0.028,
306.250=0.028,
308.000=0.028,
308.250=0.028,
310.000=0.028,
310.250=0.028,
312.000=0.028,
312.250=0.028,
313.000=0.028,
313.250=0.028,
314.000=0.028,
314.250=0.028,
315.000=0.028,
315.250=0.028;
#DELAYS:;
#WARPS:;
#TIMESIGNATURES:0.000=4=4;
#TICKCOUNTS:0.000=4;
#COMBOS:0.000=1;
#SPEEDS:0.000=1.000=0.000=0;
#SCROLLS:0.000=1.000;
#FAKES:;
#LABELS:0.000=Song Start;
#BGCHANGES:;
#KEYSOUNDS:;
#ATTACKS:
;

//---------------dance-single - ----------------
#NOTEDATA:;
#CHARTNAME:;
#STEPSTYPE:dance-single;
#DESCRIPTION:;
#CHARTSTYLE:;
#DIFFICULTY:Medium;
#METER:7;
#RADARVALUES:0.600554,0.707666,0.016849,0.252738,0.130581,467.000000,2.000000,30.000000,32.000000,0.000000,0.000000,0.000000,0.000000,0.600554,0.707666,0.016849,0.252738,0.130581,467.000000,2.000000,30.000000,32.000000,0.000000,0.000000,0.000000,0.000000;
#CREDIT:Akihiro;
#OFFSET:-0.078980;
#BPMS:0.000000=177.000000
,46.000000=132.750000
,46.500000=265.500000
,47.000000=132.750000
,47.500000=265.500000
,48.000000=177.000000
,59.500000=265.500000
,63.000000=88.500000
,63.250000=177.000000
,63.500000=354.000000
,64.000000=177.000000
,78.000000=132.750000
,78.500000=265.500000
,79.000000=132.750000
,79.500000=265.500000
,80.000000=177.000000
,93.000000=265.500000
,94.000000=88.500000
,94.125000=177.000000
,94.250000=354.000000
,94.500000=265.500000
,96.000000=177.000000
,110.000000=132.750000
,110.500000=265.500000
,111.000000=132.750000
,111.500000=265.500000
,112.000000=177.000000
,123.500000=265.500000
,127.000000=177.000000
,128.000000=265.500000
,128.500000=177.000000
,130.000000=265.500000
,130.500000=177.000000
,132.000000=265.500000
,132.500000=177.000000
,134.000000=265.500000
,134.500000=177.000000
,136.000000=265.500000
,136.500000=177.000000
,137.000000=265.500000
,137.500000=177.000000
,138.000000=265.500000
,138.500000=177.000000
,139.000000=265.500000
,139.500000=177.000000
,144.000000=354.000000
,158.000000=177.000000
,160.000000=132.750000
,160.250000=265.500000
,160.500000=177.000000
,161.500000=265.500000
,161.750000=132.750000
,162.000000=265.500000
,163.000000=177.000000
,164.000000=265.500000
,165.500000=177.000000
,166.000000=265.500000
,166.375000=88.500000
,166.500000=177.000000
,168.000000=265.500000
,168.375000=88.500000
,168.500000=177.000000
,170.000000=265.500000
,170.375000=88.500000
,170.500000=177.000000
,171.500000=265.500000
,172.250000=132.750000
,172.500000=265.500000
,172.750000=132.750000
,173.000000=265.500000
,173.250000=132.750000
,173.500000=265.500000
,173.750000=132.750000
,174.000000=265.500000
,174.250000=132.750000
,174.500000=265.500000
,174.750000=132.750000
,175.000000=265.500000
,175.250000=132.750000
,175.500000=265.500000
,175.750000=132.750000
,176.250000=265.000000
,176.500000=177.000000
,178.000000=265.500000
,179.000000=177.000000
,180.000000=265.500000
,181.500000=177.000000
,182.000000=265.500000
,182.375000=88.500000
,182.500000=177.000000
,185.500000=265.500000
,185.750000=132.750000
,186.000000=177.000000
,186.500000=265.500000
,187.500000=177.000000
,188.000000=265.500000
,188.250000=132.750000
,188.500000=265.500000
,188.750000=132.750000
,189.000000=265.500000
,189.250000=132.750000
,189.500000=265.500000
,189.750000=132.750000
,190.000000=354.000000
,192.000000=132.750000
,192.250000=265.000000
,192.500000=177.000000
,193.500000=265.500000
,193.750000=132.750000
,194.000000=265.500000
,195.000000=177.000000
,196.000000=265.500000
,197.500000=177.000000
,198.000000=265.500000
,198.250000=132.750000
,198.500000=177.000000
,200.000000=265.500000
,200.375000=88.500000
,200.500000=177.000000
,202.000000=265.500000
,202.375000=88.500000
,202.500000=177.000000
,203.500000=265.500000
,204.250000=132.750000
,204.500000=265.500000
,204.750000=132.750000
,205.000000=265.500000
,205.250000=132.750000
,205.500000=265.500000
,205.750000=132.750000
,206.000000=265.500000
,206.250000=132.750000
,206.500000=265.500000
,206.750000=132.750000
,207.000000=265.500000
,207.250000=132.750000
,207.500000=265.500000
,207.750000=132.750000
,208.250000=265.500000
,208.500000=177.000000
,210.000000=265.500000
,211.000000=177.000000
,212.000000=265.500000
,213.500000=177.000000
,214.000000=265.500000
,214.250000=132.750000
,214.500000=177.000000
,217.500000=132.750000
,217.750000=265.500000
,218.000000=177.000000
,218.500000=265.000000
,220.000000=354.000000
,224.000000=88.500000
,240.000000=177.000000
,250.000000=265.500000
,251.000000=177.000000
,252.000000=265.500000
,253.500000=177.000000
,254.000000=265.500000
,254.250000=132.750000
,254.500000=177.000000
,264.000000=265.500000
,264.375000=88.500000
,264.500000=177.000000
,266.000000=265.500000
,266.375000=88.500000
,266.500000=177.000000
,268.000000=354.000000
,272.000000=177.000000
,286.000000=132.750000
,286.500000=265.500000
,287.000000=132.750000
,287.500000=265.500000
,288.000000=177.000000
,300.000000=265.500000
,302.500000=177.000000
,304.000000=265.500000
,304.500000=177.000000
,306.000000=265.000000
,306.500000=177.000000
,308.000000=265.500000
,308.500000=177.000000
,310.000000=265.500000
,310.500000=177.000000
,312.000000=265.500000
,312.500000=177.000000
,313.000000=265.500000
,313.500000=177.000000
,314.000000=265.500000
,314.500000=177.000000
,315.000000=265.500000
,315.500000=177.000000
,320.000000=42.000000
;
#STOPS:59.500000=0.028248
,59.750000=0.028248
,60.000000=0.028248
,60.250000=0.028248
,60.500000=0.028248
,60.750000=0.028248
,61.000000=0.056496
,61.500000=0.028248
,61.750000=0.028248
,62.000000=0.028248
,62.250000=0.028248
,62.500000=0.056496
,93.000000=0.028248
,93.250000=0.028248
,93.500000=0.028248
,93.750000=0.028248
,94.500000=0.028248
,94.750000=0.028248
,95.000000=0.056496
,95.500000=0.056496
,123.500000=0.028248
,123.750000=0.028248
,124.000000=0.028248
,124.250000=0.028248
,124.500000=0.056496
,125.000000=0.056496
,125.500000=0.028248
,125.750000=0.028248
,126.000000=0.028248
,126.250000=0.028248
,126.500000=0.056496
,128.000000=0.028248
,128.250000=0.028248
,130.000000=0.028248
,130.250000=0.028248
,132.000000=0.028248
,132.250000=0.028248
,134.000000=0.028248
,134.250000=0.028248
,136.000000=0.028248
,136.250000=0.028248
,137.000000=0.028248
,137.250000=0.028248
,138.000000=0.028248
,138.250000=0.028248
,139.000000=0.028248
,139.250000=0.028248
,144.000000=0.169491
,145.000000=0.169491
,146.000000=0.169491
,147.000000=0.169491
,148.000000=0.112994
,148.666672=0.112994
,149.333328=0.112994
,150.000000=0.112994
,150.666672=0.112994
,151.333328=0.112994
,152.000000=0.112994
,152.666672=0.112994
,153.333328=0.112994
,154.000000=0.112994
,154.666672=0.112994
,155.333328=0.112994
,156.000000=0.056497
,156.333328=0.056497
,156.666672=0.056497
,157.000000=0.056497
,157.333328=0.056497
,157.666672=0.056497
,162.000000=0.028248
,162.250000=0.028248
,162.500000=0.028248
,162.750000=0.028248
,164.000000=0.056496
,164.500000=0.028248
,164.750000=0.028248
,165.000000=0.028248
,165.250000=0.028248
,171.500000=0.028248
,171.750000=0.028248
,178.000000=0.028248
,178.250000=0.028248
,178.500000=0.028248
,178.750000=0.028248
,180.000000=0.056496
,180.500000=0.028248
,180.750000=0.028248
,181.000000=0.028248
,181.250000=0.028248
,186.500000=0.056496
,187.000000=0.028248
,187.250000=0.028248
,190.000000=0.127118
,190.750000=0.127118
,191.500000=0.084745
,194.000000=0.028248
,194.250000=0.028248
,194.500000=0.028248
,194.750000=0.028248
,196.000000=0.056496
,196.500000=0.028248
,196.750000=0.028248
,197.000000=0.028248
,197.250000=0.028248
,203.500000=0.028248
,203.750000=0.028248
,210.000000=0.028248
,210.250000=0.028248
,210.500000=0.028248
,210.750000=0.028248
,212.000000=0.056496
,212.500000=0.028248
,212.750000=0.028248
,213.000000=0.028248
,213.250000=0.028248
,218.500000=0.056496
,219.000000=0.028248
,219.250000=0.028248
,219.500000=0.028248
,219.750000=0.028248
,220.000000=0.169491
,221.000000=0.169491
,222.000000=0.169491
,223.000000=0.169491
,250.000000=0.028248
,250.250000=0.028248
,250.500000=0.028248
,250.750000=0.028248
,252.000000=0.056496
,252.500000=0.028248
,252.750000=0.028248
,253.000000=0.028248
,253.250000=0.028248
,268.000000=0.084745
,268.500000=0.169491
,269.500000=0.084745
,270.000000=0.127118
,270.750000=0.127118
,271.500000=0.084745
,300.000000=0.028248
,300.250000=0.028248
,300.500000=0.028248
,300.750000=0.028248
,301.000000=0.056496
,301.500000=0.028248
,301.750000=0.028248
,302.000000=0.028248
,302.250000=0.028248
,304.000000=0.028248
,304.250000=0.028248
,306.000000=0.028248
,306.250000=0.028248
,308.000000=0.028248
,308.250000=0.028248
,310.000000=0.028248
,310.250000=0.028248
,312.000000=0.028248
,312.250000=0.028248
,313.000000=0.028248
,313.250000=0.028248
,314.000000=0.028248
,314.250000=0.028248
,315.000000=0.028248
,315.250000=0.028248
;
#DELAYS:;
#WARPS:;
#TIMESIGNATURES:0.000000=4=4
;
#TICKCOUNTS:0.000000=4
;
#COMBOS:0.000000=1
;
#SPEEDS:0.000000=1.000000=0.000000=0
;
#SCROLLS:0.000000=1.000000
;
#FAKES:;
#LABELS:0.000000=Song Start
;
#NOTES:
M000
000M
M000
000M
,
M000
000M
0M00
0M00
,
000M
M000
000M
M000
,
000M
M000
00M0
00M0
,
M000
000M
M000
000M
,
M000
000M
00M0
00M0
,
000M
M000
000M
M000
,
000M
M000
00M0
00M0
,
1000
0000
0001
0010
0001
0000
1000
0010
,
1000
0000
0001
0010
0100
1000
0001
0010
,
0001
0000
1000
0100
1000
0000
0001
0100
,
0001
0000
1000
0010
0200
0000
0302
0000
,
1003
0000
0001
0010
0001
0000
1000
0010
,
1000
0000
0001
0010
0100
1000
0001
0100
,
0001
0000
1000
0100
1000
0000
0001
0100
,
0002
0103
2000
3010
,
0001
0000
1000
0100
0010
0000
0001
0100
,
0001
0000
1000
0010
1000
0001
0010
0100
,
1000
0000
0001
0100
0010
0000
1000
0100
,
1000
0000
0001
1000
0020
0000
0230
0000
,
0301
0000
1000
0100
0010
0000
0001
0100
,
0001
0000
1000
0100
0010
0001
0100
0001
,
1000
0000
0010
0100
0001
0000
1000
0010
,
1000
0000
0002
0000
0013
0000
0100
1000
,
0001
0010
0001
0000
1000
0010
1000
0000
,
0001
0100
0001
0010
0100
1000
0001
0010
,
0001
1000
0010
0000
1000
0001
1000
0000
,
0001
0010
0100
1000
0020
0000
0230
0000
,
0301
0010
0001
0000
1000
0010
1000
0000
,
0001
0010
0100
1000
0001
0100
0001
1000
,
0100
0000
0010
0001
0010
0000
0001
1000
,
0002
0103
2000
3010
,
0001
0010
0001
0000
1000
0010
1000
0000
,
0001
0010
0100
0000
1000
0010
0100
0000
,
0001
0100
0001
0100
0010
1000
0010
1000
,
0001
0010
0100
1000
0010
0100
0001
1000
,
0010
0010
0010
0010
,
0010
0000
0100
0000
0001
0000
1000
0000
0001
0000
0010
0000
,
0100
0000
1000
0000
0001
0000
1000
0000
0100
0000
0010
0000
,
0001
0100
0010
1000
0001
0010
0100
1000
0001
0100
0010
1000
,
0002
0000
1003
0000
0100
0010
0001
0000
,
1000
0010
1000
0001
0020
0000
0130
0000
,
2000
3100
0000
0010
0002
0103
0000
0010
,
1000
0001
1000
0001
0010
0100
1000
0001
,
2000
0000
3100
0000
0010
0001
1000
0000
,
0001
0100
0001
0010
0200
0000
1300
0000
,
0001
0000
0100
0020
1030
0000
0001
0010
,
0100
0000
1000
0000
0001
0000
0100
0000
0001
0000
0000
1000
0000
0000
0001
0000
,
0020
0000
0130
0000
1000
0010
1000
0000
,
0001
0010
0001
1000
0200
0000
0310
0000
,
0002
0103
0000
0010
2000
3100
0000
0010
,
0001
0100
0001
0100
0010
1000
0100
0010
,
0002
0000
1003
0000
0010
0100
0001
0000
,
1000
0010
1000
0001
0020
0000
0130
0000
,
1000
0000
0001
0010
0001
1000
0010
0100
,
0001
0001
1000
1000
,
0010
0000
0100
0000
0001
0010
0001
0000
1000
0010
1000
0001
0010
0100
1000
0000
,
0001
0000
0000
0000
0000
0000
0000
0000
1100
0000
0000
0000
0000
0000
0000
0000
0001
0000
0000
1000
0000
0000
0100
0000
0010
0000
0000
0000
0000
0000
0000
0000
,
0001
0000
1000
0000
0001
0010
0001
0000
1000
0010
1000
0010
0100
0001
0010
0000
,
0100
0000
0000
0000
0000
0000
0000
0000
1010
0000
0000
0000
0000
0000
0000
0000
0001
0000
0000
0100
0000
0000
0010
0000
1000
0000
0001
0000
1000
0000
0000
0000
,
0002
0103
0002
1003
0100
0010
0100
1000
,
0001
0100
0001
0100
0010
1000
0001
0000
,
1000
0000
0100
0000
1000
0001
0010
0000
,
0100
1000
0001
0100
0001
0000
1000
0000
,
0001
0100
0010
1000
0001
0010
0001
0100
,
0010
1000
0010
0100
0001
0010
0100
1000
,
0002
0103
0000
0010
2000
3001
0000
0010
,
0001
0000
1000
0000
0000
0000
0100
0000
0010
0000
0000
0001
0000
0000
1000
0000
,
0010
0100
0010
0000
1000
0100
1000
0000
,
0001
0010
0001
0000
1000
0010
1000
0001
,
0010
0100
0010
0000
0001
0100
0001
0000
,
1000
0010
1000
0000
0002
0000
0203
0000
,
0310
1000
0010
0000
1000
0001
0010
0000
,
0100
1000
0100
0000
0010
0001
1000
0010
,
0100
0001
0010
0000
0001
1000
0001
0000
,
1000
0010
1000
0000
0010
0100
0001
0000
,
1000
0100
0010
0000
0001
1000
0010
0000
,
0100
0010
1000
0000
0001
1000
0100
0000
,
0010
0001
0010
0001
1000
0010
1000
0010
,
0100
0001
0010
0100
1000
0001
0100
0010
,
1000
0000
0000
0000
;

//---------------dance-single - ----------------
#NOTEDATA:;
#CHARTNAME:;
#STEPSTYPE:dance-single;
#DESCRIPTION:;
#CHARTSTYLE:;
#DIFFICULTY:Easy;
#METER:4;
#RADARVALUES:0.361054,0.404381,0.101095,0.126369,0.000000,273.000000,12.000000,15.000000,0.000000,0.000000,0.000000,0.000000,0.000000,0.361054,0.404381,0.101095,0.126369,0.000000,273.000000,12.000000,15.000000,0.000000,0.000000,0.000000,0.000000,0.000000;
#CREDIT:Akihiro;
#OFFSET:-0.078980;
#BPMS:0.000000=177.000000
,46.000000=132.750000
,46.500000=265.500000
,47.000000=132.750000
,47.500000=265.500000
,48.000000=177.000000
,59.500000=265.500000
,63.000000=88.500000
,63.250000=177.000000
,63.500000=354.000000
,64.000000=177.000000
,78.000000=132.750000
,78.500000=265.500000
,79.000000=132.750000
,79.500000=265.500000
,80.000000=177.000000
,93.000000=265.500000
,94.000000=88.500000
,94.125000=177.000000
,94.250000=354.000000
,94.500000=265.500000
,96.000000=177.000000
,110.000000=132.750000
,110.500000=265.500000
,111.000000=132.750000
,111.500000=265.500000
,112.000000=177.000000
,123.500000=265.500000
,127.000000=177.000000
,128.000000=265.500000
,128.500000=177.000000
,130.000000=265.500000
,130.500000=177.000000
,132.000000=265.500000
,132.500000=177.000000
,134.000000=265.500000
,134.500000=177.000000
,136.000000=265.500000
,136.500000=177.000000
,137.000000=265.500000
,137.500000=177.000000
,138.000000=265.500000
,138.500000=177.000000
,139.000000=265.500000
,139.500000=177.000000
,144.000000=354.000000
,158.000000=177.000000
,160.000000=132.750000
,160.250000=265.500000
,160.500000=177.000000
,161.500000=265.500000
,161.750000=132.750000
,162.000000=265.500000
,163.000000=177.000000
,164.000000=265.500000
,165.500000=177.000000
,166.000000=265.500000
,166.375000=88.500000
,166.500000=177.000000
,168.000000=265.500000
,168.375000=88.500000
,168.500000=177.000000
,170.000000=265.500000
,170.375000=88.500000
,170.500000=177.000000
,171.500000=265.500000
,172.250000=132.750000
,172.500000=265.500000
,172.750000=132.750000
,173.000000=265.500000
,173.250000=132.750000
,173.500000=265.500000
,173.750000=132.750000
,174.000000=265.500000
,174.250000=132.750000
,174.500000=265.500000
,174.750000=132.750000
,175.000000=265.500000
,175.250000=132.750000
,175.500000=265.500000
,175.750000=132.750000
,176.250000=265.000000
,176.500000=177.000000
,178.000000=265.500000
,179.000000=177.000000
,180.000000=265.500000
,181.500000=177.000000
,182.000000=265.500000
,182.375000=88.500000
,182.500000=177.000000
,185.500000=265.500000
,185.750000=132.750000
,186.000000=177.000000
,186.500000=265.500000
,187.500000=177.000000
,188.000000=265.500000
,188.250000=132.750000
,188.500000=265.500000
,188.750000=132.750000
,189.000000=265.500000
,189.250000=132.750000
,189.500000=265.500000
,189.750000=132.750000
,190.000000=354.000000
,192.000000=132.750000
,192.250000=265.000000
,192.500000=177.000000
,193.500000=265.500000
,193.750000=132.750000
,194.000000=265.500000
,195.000000=177.000000
,196.000000=265.500000
,197.500000=177.000000
,198.000000=265.500000
,198.250000=132.750000
,198.500000=177.000000
,200.000000=265.500000
,200.375000=88.500000
,200.500000=177.000000
,202.000000=265.500000
,202.375000=88.500000
,202.500000=177.000000
,203.500000=265.500000
,204.250000=132.750000
,204.500000=265.500000
,204.750000=132.750000
,205.000000=265.500000
,205.250000=132.750000
,205.500000=265.500000
,205.750000=132.750000
,206.000000=265.500000
,206.250000=132.750000
,206.500000=265.500000
,206.750000=132.750000
,207.000000=265.500000
,207.250000=132.750000
,207.500000=265.500000
,207.750000=132.750000
,208.250000=265.500000
,208.500000=177.000000
,210.000000=265.500000
,211.000000=177.000000
,212.000000=265.500000
,213.500000=177.000000
,214.000000=265.500000
,214.250000=132.750000
,214.500000=177.000000
,217.500000=132.750000
,217.750000=265.500000
,218.000000=177.000000
,218.500000=265.000000
,220.000000=354.000000
,224.000000=88.500000
,240.000000=177.000000
,250.000000=265.500000
,251.000000=177.000000
,252.000000=265.500000
,253.500000=177.000000
,254.000000=265.500000
,254.250000=132.750000
,254.500000=177.000000
,264.000000=265.500000
,264.375000=88.500000
,264.500000=177.000000
,266.000000=265.500000
,266.375000=88.500000
,266.500000=177.000000
,268.000000=354.000000
,272.000000=177.000000
,286.000000=132.750000
,286.500000=265.500000
,287.000000=132.750000
,287.500000=265.500000
,288.000000=177.000000
,300.000000=265.500000
,302.500000=177.000000
,304.000000=265.500000
,304.500000=177.000000
,306.000000=265.000000
,306.500000=177.000000
,308.000000=265.500000
,308.500000=177.000000
,310.000000=265.500000
,310.500000=177.000000
,312.000000=265.500000
,312.500000=177.000000
,313.000000=265.500000
,313.500000=177.000000
,314.000000=265.500000
,314.500000=177.000000
,315.000000=265.500000
,315.500000=177.000000
,320.000000=42.000000
;
#STOPS:59.500000=0.028248
,59.750000=0.028248
,60.000000=0.028248
,60.250000=0.028248
,60.500000=0.028248
,60.750000=0.028248
,61.000000=0.056496
,61.500000=0.028248
,61.750000=0.028248
,62.000000=0.028248
,62.250000=0.028248
,62.500000=0.056496
,93.000000=0.028248
,93.250000=0.028248
,93.500000=0.028248
,93.750000=0.028248
,94.500000=0.028248
,94.750000=0.028248
,95.000000=0.056496
,95.500000=0.056496
,123.500000=0.028248
,123.750000=0.028248
,124.000000=0.028248
,124.250000=0.028248
,124.500000=0.056496
,125.000000=0.056496
,125.500000=0.028248
,125.750000=0.028248
,126.000000=0.028248
,126.250000=0.028248
,126.500000=0.056496
,128.000000=0.028248
,128.250000=0.028248
,130.000000=0.028248
,130.250000=0.028248
,132.000000=0.028248
,132.250000=0.028248
,134.000000=0.028248
,134.250000=0.028248
,136.000000=0.028248
,136.250000=0.028248
,137.000000=0.028248
,137.250000=0.028248
,138.000000=0.028248
,138.250000=0.028248
,139.000000=0.028248
,139.250000=0.028248
,144.000000=0.169491
,145.000000=0.169491
,146.000000=0.169491
,147.000000=0.169491
,148.000000=0.112994
,148.666672=0.112994
,149.333328=0.112994
,150.000000=0.112994
,150.666672=0.112994
,151.333328=0.112994
,152.000000=0.112994
,152.666672=0.112994
,153.333328=0.112994
,154.000000=0.112994
,154.666672=0.112994
,155.333328=0.112994
,156.000000=0.056497
,156.333328=0.056497
,156.666672=0.056497
,157.000000=0.056497
,157.333328=0.056497
,157.666672=0.056497
,162.000000=0.028248
,162.250000=0.028248
,162.500000=0.028248
,162.750000=0.028248
,164.000000=0.056496
,164.500000=0.028248
,164.750000=0.028248
,165.000000=0.028248
,165.250000=0.028248
,171.500000=0.028248
,171.750000=0.028248
,178.000000=0.028248
,178.250000=0.028248
,178.500000=0.028248
,178.750000=0.028248
,180.000000=0.056496
,180.500000=0.028248
,180.750000=0.028248
,181.000000=0.028248
,181.250000=0.028248
,186.500000=0.056496
,187.000000=0.028248
,187.250000=0.028248
,190.000000=0.127118
,190.750000=0.127118
,191.500000=0.084745
,194.000000=0.028248
,194.250000=0.028248
,194.500000=0.028248
,194.750000=0.028248
,196.000000=0.056496
,196.500000=0.028248
,196.750000=0.028248
,197.000000=0.028248
,197.250000=0.028248
,203.500000=0.028248
,203.750000=0.028248
,210.000000=0.028248
,210.250000=0.028248
,210.500000=0.028248
,210.750000=0.028248
,212.000000=0.056496
,212.500000=0.028248
,212.750000=0.028248
,213.000000=0.028248
,213.250000=0.028248
,218.500000=0.056496
,219.000000=0.028248
,219.250000=0.028248
,219.500000=0.028248
,219.750000=0.028248
,220.000000=0.169491
,221.000000=0.169491
,222.000000=0.169491
,223.000000=0.169491
,250.000000=0.028248
,250.250000=0.028248
,250.500000=0.028248
,250.750000=0.028248
,252.000000=0.056496
,252.500000=0.028248
,252.750000=0.028248
,253.000000=0.028248
,253.250000=0.028248
,268.000000=0.084745
,268.500000=0.169491
,269.500000=0.084745
,270.000000=0.127118
,270.750000=0.127118
,271.500000=0.084745
,300.000000=0.028248
,300.250000=0.028248
,300.500000=0.028248
,300.750000=0.028248
,301.000000=0.056496
,301.500000=0.028248
,301.750000=0.028248
,302.000000=0.028248
,302.250000=0.028248
,304.000000=0.028248
,304.250000=0.028248
,306.000000=0.028248
,306.250000=0.028248
,308.000000=0.028248
,308.250000=0.028248
,310.000000=0.028248
,310.250000=0.028248
,312.000000=0.028248
,312.250000=0.028248
,313.000000=0.028248
,313.250000=0.028248
,314.000000=0.028248
,314.250000=0.028248
,315.000000=0.028248
,315.250000=0.028248
;
#DELAYS:;
#WARPS:;
#TIMESIGNATURES:0.000000=4=4
;
#TICKCOUNTS:0.000000=4
;
#COMBOS:0.000000=1
;
#SPEEDS:0.000000=1.000000=0.000000=0
;
#SCROLLS:0.000000=1.000000
;
#FAKES:;
#LABELS:0.000000=Song Start
;
#NOTES:
0000
0000
0000
0000
,
0000
0000
0000
0000
,
0000
0000
0000
0000
,
0000
0000
0000
0000
,
0000
0000
0000
0000
,
0000
0000
0000
0000
,
0000
0000
0000
0000
,
0000
0000
0000
0000
,
1000
0010
1000
0001
,
1000
0010
0100
0100
,
0001
1000
0001
0010
,
0001
1000
0200
0320
,
0031
0100
0001
1000
,
0001
0010
0100
0100
,
1000
0010
1000
0001
,
1000
0000
0010
0000
,
1000
0001
1000
0100
,
1000
0001
0100
0100
,
0001
0010
0001
0100
,
0001
1000
0020
0230
,
0301
0010
0001
1000
,
0001
0010
0100
0100
,
1000
0010
1000
0001
,
1000
0010
0100
0001
,
1000
0010
1000
0001
,
1000
0010
0100
0100
,
0001
0010
0001
1000
,
0001
1000
0020
0230
,
0301
0010
0001
1000
,
0001
0100
0010
0010
,
1000
0001
1000
0010
,
1000
0100
0010
0001
,
1100
0000
0101
0000
,
1010
0000
0011
0000
,
1000
0010
0001
0100
,
1000
0010
0001
0100
,
1000
0000
0001
0000
,
1000
0000
0010
0000
,
0100
0000
0000
0000
,
0002
0000
0000
0000
,
1003
0010
0100
0100
,
0001
0010
0100
1000
,
0002
0103
0002
1003
,
1000
0100
0010
0001
,
1000
0010
0100
0100
,
0001
0010
0100
1000
,
0001
0100
0001
0010
,
0001
1000
0010
0000
,
1000
0010
0100
0100
,
0001
0010
0100
1000
,
0002
0103
0002
1003
,
1000
0100
0010
0001
,
1000
0010
0100
0100
,
0001
0010
0100
1000
,
0001
0100
0001
1000
,
0010
0010
0100
0100
,
0001
0000
1100
0000
0001
0001
1000
0000
,
0100
0000
0011
0000
1000
1000
0001
0000
,
1000
0000
0101
0000
0010
0010
1000
0000
,
0001
0000
1010
0000
0100
0100
0001
0000
,
1000
1000
0100
0010
,
0001
0100
0001
0010
,
0100
1000
0010
0010
,
0100
0001
1000
0100
,
1000
1000
0010
0100
,
0001
0001
0010
0100
,
2000
3001
0200
0301
,
1000
0000
0000
0000
,
0001
0100
0001
0010
,
0001
0100
0100
0010
,
1000
0100
1000
0010
,
1000
0100
2000
3002
,
1003
0010
0100
0010
,
1000
0100
0010
0010
,
0001
0100
0010
0100
,
0001
0010
0100
1000
,
0101
0000
1010
0000
,
1100
0000
0011
0000
,
1000
0100
0010
0001
,
1000
0001
1000
0001
1000
0010
1000
0001
,
0100
0000
0000
0000
;

//---------------dance-single - ----------------
#NOTEDATA:;
#CHARTNAME:;
#STEPSTYPE:dance-single;
#DESCRIPTION:;
#CHARTSTYLE:;
#DIFFICULTY:Beginner;
#METER:1;
#RADARVALUES:0.192562,0.269587,0.067397,0.008425,0.000000,151.000000,8.000000,1.000000,0.000000,0.000000,0.000000,0.000000,0.000000,0.192562,0.269587,0.067397,0.008425,0.000000,151.000000,8.000000,1.000000,0.000000,0.000000,0.000000,0.000000,0.000000;
#CREDIT:Akihiro;
#OFFSET:-0.078980;
#BPMS:0.000000=177.000000
,46.000000=132.750000
,46.500000=265.500000
,47.000000=132.750000
,47.500000=265.500000
,48.000000=177.000000
,59.500000=265.500000
,63.000000=88.500000
,63.250000=177.000000
,63.500000=354.000000
,64.000000=177.000000
,78.000000=132.750000
,78.500000=265.500000
,79.000000=132.750000
,79.500000=265.500000
,80.000000=177.000000
,93.000000=265.500000
,94.000000=88.500000
,94.125000=177.000000
,94.250000=354.000000
,94.500000=265.500000
,96.000000=177.000000
,110.000000=132.750000
,110.500000=265.500000
,111.000000=132.750000
,111.500000=265.500000
,112.000000=177.000000
,123.500000=265.500000
,127.000000=177.000000
,128.000000=265.500000
,128.500000=177.000000
,130.000000=265.500000
,130.500000=177.000000
,132.000000=265.500000
,132.500000=177.000000
,134.000000=265.500000
,134.500000=177.000000
,136.000000=265.500000
,136.500000=177.000000
,137.000000=265.500000
,137.500000=177.000000
,138.000000=265.500000
,138.500000=177.000000
,139.000000=265.500000
,139.500000=177.000000
,144.000000=354.000000
,158.000000=177.000000
,160.000000=132.750000
,160.250000=265.500000
,160.500000=177.000000
,161.500000=265.500000
,161.750000=132.750000
,162.000000=265.500000
,163.000000=177.000000
,164.000000=265.500000
,165.500000=177.000000
,166.000000=265.500000
,166.375000=88.500000
,166.500000=177.000000
,168.000000=265.500000
,168.375000=88.500000
,168.500000=177.000000
,170.000000=265.500000
,170.375000=88.500000
,170.500000=177.000000
,171.500000=265.500000
,172.250000=132.750000
,172.500000=265.500000
,172.750000=132.750000
,173.000000=265.500000
,173.250000=132.750000
,173.500000=265.500000
,173.750000=132.750000
,174.000000=265.500000
,174.250000=132.750000
,174.500000=265.500000
,174.750000=132.750000
,175.000000=265.500000
,175.250000=132.750000
,175.500000=265.500000
,175.750000=132.750000
,176.250000=265.000000
,176.500000=177.000000
,178.000000=265.500000
,179.000000=177.000000
,180.000000=265.500000
,181.500000=177.000000
,182.000000=265.500000
,182.375000=88.500000
,182.500000=177.000000
,185.500000=265.500000
,185.750000=132.750000
,186.000000=177.000000
,186.500000=265.500000
,187.500000=177.000000
,188.000000=265.500000
,188.250000=132.750000
,188.500000=265.500000
,188.750000=132.750000
,189.000000=265.500000
,189.250000=132.750000
,189.500000=265.500000
,189.750000=132.750000
,190.000000=354.000000
,192.000000=132.750000
,192.250000=265.000000
,192.500000=177.000000
,193.500000=265.500000
,193.750000=132.750000
,194.000000=265.500000
,195.000000=177.000000
,196.000000=265.500000
,197.500000=177.000000
,198.000000=265.500000
,198.250000=132.750000
,198.500000=177.000000
,200.000000=265.500000
,200.375000=88.500000
,200.500000=177.000000
,202.000000=265.500000
,202.375000=88.500000
,202.500000=177.000000
,203.500000=265.500000
,204.250000=132.750000
,204.500000=265.500000
,204.750000=132.750000
,205.000000=265.500000
,205.250000=132.750000
,205.500000=265.500000
,205.750000=132.750000
,206.000000=265.500000
,206.250000=132.750000
,206.500000=265.500000
,206.750000=132.750000
,207.000000=265.500000
,207.250000=132.750000
,207.500000=265.500000
,207.750000=132.750000
,208.250000=265.500000
,208.500000=177.000000
,210.000000=265.500000
,211.000000=177.000000
,212.000000=265.500000
,213.500000=177.000000
,214.000000=265.500000
,214.250000=132.750000
,214.500000=177.000000
,217.500000=132.750000
,217.750000=265.500000
,218.000000=177.000000
,218.500000=265.000000
,220.000000=354.000000
,224.000000=88.500000
,240.000000=177.000000
,250.000000=265.500000
,251.000000=177.000000
,252.000000=265.500000
,253.500000=177.000000
,254.000000=265.500000
,254.250000=132.750000
,254.500000=177.000000
,264.000000=265.500000
,264.375000=88.500000
,264.500000=177.000000
,266.000000=265.500000
,266.375000=88.500000
,266.500000=177.000000
,268.000000=354.000000
,272.000000=177.000000
,286.000000=132.750000
,286.500000=265.500000
,287.000000=132.750000
,287.500000=265.500000
,288.000000=177.000000
,300.000000=265.500000
,302.500000=177.000000
,304.000000=265.500000
,304.500000=177.000000
,306.000000=265.000000
,306.500000=177.000000
,308.000000=265.500000
,308.500000=177.000000
,310.000000=265.500000
,310.500000=177.000000
,312.000000=265.500000
,312.500000=177.000000
,313.000000=265.500000
,313.500000=177.000000
,314.000000=265.500000
,314.500000=177.000000
,315.000000=265.500000
,315.500000=177.000000
,320.000000=42.000000
;
#STOPS:59.500000=0.028248
,59.750000=0.028248
,60.000000=0.028248
,60.250000=0.028248
,60.500000=0.028248
,60.750000=0.028248
,61.000000=0.056496
,61.500000=0.028248
,61.750000=0.028248
,62.000000=0.028248
,62.250000=0.028248
,62.500000=0.056496
,93.000000=0.028248
,93.250000=0.028248
,93.500000=0.028248
,93.750000=0.028248
,94.500000=0.028248
,94.750000=0.028248
,95.000000=0.056496
,95.500000=0.056496
,123.500000=0.028248
,123.750000=0.028248
,124.000000=0.028248
,124.250000=0.028248
,124.500000=0.056496
,125.000000=0.056496
,125.500000=0.028248
,125.750000=0.028248
,126.000000=0.028248
,126.250000=0.028248
,126.500000=0.056496
,128.000000=0.028248
,128.250000=0.028248
,130.000000=0.028248
,130.250000=0.028248
,132.000000=0.028248
,132.250000=0.028248
,134.000000=0.028248
,134.250000=0.028248
,136.000000=0.028248
,136.250000=0.028248
,137.000000=0.028248
,137.250000=0.028248
,138.000000=0.028248
,138.250000=0.028248
,139.000000=0.028248
,139.250000=0.028248
,144.000000=0.169491
,145.000000=0.169491
,146.000000=0.169491
,147.000000=0.169491
,148.000000=0.112994
,148.666672=0.112994
,149.333328=0.112994
,150.000000=0.112994
,150.666672=0.112994
,151.333328=0.112994
,152.000000=0.112994
,152.666672=0.112994
,153.333328=0.112994
,154.000000=0.112994
,154.666672=0.112994
,155.333328=0.112994
,156.000000=0.056497
,156.333328=0.056497
,156.666672=0.056497
,157.000000=0.056497
,157.333328=0.056497
,157.666672=0.056497
,162.000000=0.028248
,162.250000=0.028248
,162.500000=0.028248
,162.750000=0.028248
,164.000000=0.056496
,164.500000=0.028248
,164.750000=0.028248
,165.000000=0.028248
,165.250000=0.028248
,171.500000=0.028248
,171.750000=0.028248
,178.000000=0.028248
,178.250000=0.028248
,178.500000=0.028248
,178.750000=0.028248
,180.000000=0.056496
,180.500000=0.028248
,180.750000=0.028248
,181.000000=0.028248
,181.250000=0.028248
,186.500000=0.056496
,187.000000=0.028248
,187.250000=0.028248
,190.000000=0.127118
,190.750000=0.127118
,191.500000=0.084745
,194.000000=0.028248
,194.250000=0.028248
,194.500000=0.028248
,194.750000=0.028248
,196.000000=0.056496
,196.500000=0.028248
,196.750000=0.028248
,197.000000=0.028248
,197.250000=0.028248
,203.500000=0.028248
,203.750000=0.028248
,210.000000=0.028248
,210.250000=0.028248
,210.500000=0.028248
,210.750000=0.028248
,212.000000=0.056496
,212.500000=0.028248
,212.750000=0.028248
,213.000000=0.028248
,213.250000=0.028248
,218.500000=0.056496
,219.000000=0.028248
,219.250000=0.028248
,219.500000=0.028248
,219.750000=0.028248
,220.000000=0.169491
,221.000000=0.169491
,222.000000=0.169491
,223.000000=0.169491
,250.000000=0.028248
,250.250000=0.028248
,250.500000=0.028248
,250.750000=0.028248
,252.000000=0.056496
,252.500000=0.028248
,252.750000=0.028248
,253.000000=0.028248
,253.250000=0.028248
,268.000000=0.084745
,268.500000=0.169491
,269.500000=0.084745
,270.000000=0.127118
,270.750000=0.127118
,271.500000=0.084745
,300.000000=0.028248
,300.250000=0.028248
,300.500000=0.028248
,300.750000=0.028248
,301.000000=0.056496
,301.500000=0.028248
,301.750000=0.028248
,302.000000=0.028248
,302.250000=0.028248
,304.000000=0.028248
,304.250000=0.028248
,306.000000=0.028248
,306.250000=0.028248
,308.000000=0.028248
,308.250000=0.028248
,310.000000=0.028248
,310.250000=0.028248
,312.000000=0.028248
,312.250000=0.028248
,313.000000=0.028248
,313.250000=0.028248
,314.000000=0.028248
,314.250000=0.028248
,315.000000=0.028248
,315.250000=0.028248
;
#DELAYS:;
#WARPS:;
#TIMESIGNATURES:0.000000=4=4
;
#TICKCOUNTS:0.000000=4
;
#COMBOS:0.000000=1
;
#SPEEDS:0.000000=1.000000=0.000000=0
;
#SCROLLS:0.000000=1.000000
;
#FAKES:;
#LABELS:0.000000=Song Start
;
#NOTES:
0000
0000
0000
0000
,
0000
0000
0000
0000
,
0000
0000
0000
0000
,
0000
0000
0000
0000
,
0000
0000
0000
0000
,
0000
0000
0000
0000
,
0000
0000
0000
0000
,
0000
0000
0000
0000
,
1000
0000
1000
0000
,
0001
0000
0001
0000
,
1000
0000
1000
0000
,
0001
0000
0100
0100
,
0001
0000
0001
0000
,
0100
0000
0100
0000
,
0010
0000
0010
0000
,
1000
0000
0001
0000
,
1000
0000
1000
0000
,
0001
0000
0001
0000
,
1000
0000
1000
0000
,
0001
0000
0100
0100
,
0001
0000
0001
0000
,
0100
0000
0100
0000
,
0010
0000
0010
0000
,
1000
0000
0001
0000
,
1000
0000
1000
0000
,
0010
0000
0010
0000
,
0100
0000
0100
0000
,
0001
0000
1000
1000
,
0001
0000
0001
0000
,
0100
0000
0100
0000
,
0010
0000
0010
0000
,
1000
0000
0001
0000
,
1001
0000
1001
0000
,
1001
0000
1001
0000
,
1000
0000
0010
0000
,
0100
0000
0001
0000
,
1000
0000
0000
0000
,
0000
0000
0000
0000
,
0000
0000
0000
0000
,
0000
0000
0000
0000
,
0001
0000
0100
0000
,
0010
0000
1000
0000
,
0001
0000
0001
0000
,
1000
0000
0100
0000
,
0010
0000
0001
0000
,
1000
0000
1000
0000
,
0001
0000
0001
0000
,
1000
0000
0010
0000
,
0100
0000
0001
0000
,
1000
0000
1000
0000
,
0001
0000
0001
0000
,
1000
0000
0100
0000
,
0010
0000
0001
0000
,
1000
0000
1000
0000
,
0001
0000
0001
0000
,
1000
0000
0000
0000
,
0001
0100
0001
1000
,
1000
0010
1000
0001
,
1000
0100
0010
0001
,
1000
0010
0100
0001
,
1000
1000
1000
0000
,
0001
0000
0001
0000
,
0100
0000
0100
0000
,
0001
0000
1000
0000
,
0001
0001
0001
0000
,
1000
0000
1000
0000
,
0010
0000
0100
0000
,
0001
0000
0000
0000
,
1000
0000
1000
0000
,
0001
0000
0001
0000
,
1000
0000
1000
0000
,
0010
0000
0100
0100
,
0001
0000
0001
0000
,
1000
0000
1000
0000
,
0001
0000
0001
0000
,
0010
0000
0100
0000
,
1001
0000
1001
0000
,
1001
0000
1001
0000
,
1000
0100
0010
0001
,
2000
0000
0000
0000
,
3001
0000
0000
0000
;

//---------------dance-single - ----------------
#NOTEDATA:;
#CHARTNAME:;
#STEPSTYPE:dance-single;
#DESCRIPTION:;
#CHARTSTYLE:;
#DIFFICULTY:Hard;
#METER:10;
#RADARVALUES:0.967625,1.000000,0.000000,0.438079,0.914069,752.000000,0.000000,52.000000,74.000000,0.000000,0.000000,0.000000,0.000000,0.967625,1.000000,0.000000,0.438079,0.914069,752.000000,0.000000,52.000000,74.000000,0.000000,0.000000,0.000000,0.000000;
#CREDIT:Akihiro;
#OFFSET:-0.078980;
#BPMS:0.000000=177.000000
,46.000000=132.750000
,46.500000=265.500000
,47.000000=132.750000
,47.500000=265.500000
,48.000000=177.000000
,59.500000=265.500000
,63.000000=88.500000
,63.250000=177.000000
,63.500000=354.000000
,64.000000=177.000000
,78.000000=132.750000
,78.500000=265.500000
,79.000000=132.750000
,79.500000=265.500000
,80.000000=177.000000
,93.000000=265.500000
,94.000000=88.500000
,94.125000=177.000000
,94.250000=354.000000
,94.500000=265.500000
,96.000000=177.000000
,110.000000=132.750000
,110.500000=265.500000
,111.000000=132.750000
,111.500000=265.500000
,112.000000=177.000000
,123.500000=265.500000
,127.000000=177.000000
,128.000000=265.500000
,128.500000=177.000000
,130.000000=265.500000
,130.500000=177.000000
,132.000000=265.500000
,132.500000=177.000000
,134.000000=265.500000
,134.500000=177.000000
,136.000000=265.500000
,136.500000=177.000000
,137.000000=265.500000
,137.500000=177.000000
,138.000000=265.500000
,138.500000=177.000000
,139.000000=265.500000
,139.500000=177.000000
,144.000000=354.000000
,158.000000=177.000000
,160.000000=132.750000
,160.250000=265.500000
,160.500000=177.000000
,161.500000=265.500000
,161.750000=132.750000
,162.000000=265.500000
,163.000000=177.000000
,164.000000=265.500000
,165.500000=177.000000
,166.000000=265.500000
,166.375000=88.500000
,166.500000=177.000000
,168.000000=265.500000
,168.375000=88.500000
,168.500000=177.000000
,170.000000=265.500000
,170.375000=88.500000
,170.500000=177.000000
,171.500000=265.500000
,172.250000=132.750000
,172.500000=265.500000
,172.750000=132.750000
,173.000000=265.500000
,173.250000=132.750000
,173.500000=265.500000
,173.750000=132.750000
,174.000000=265.500000
,174.250000=132.750000
,174.500000=265.500000
,174.750000=132.750000
,175.000000=265.500000
,175.250000=132.750000
,175.500000=265.500000
,175.750000=132.750000
,176.250000=265.000000
,176.500000=177.000000
,178.000000=265.500000
,179.000000=177.000000
,180.000000=265.500000
,181.500000=177.000000
,182.000000=265.500000
,182.375000=88.500000
,182.500000=177.000000
,185.500000=265.500000
,185.750000=132.750000
,186.000000=177.000000
,186.500000=265.500000
,187.500000=177.000000
,188.000000=265.500000
,188.250000=132.750000
,188.500000=265.500000
,188.750000=132.750000
,189.000000=265.500000
,189.250000=132.750000
,189.500000=265.500000
,189.750000=132.750000
,190.000000=354.000000
,192.000000=132.750000
,192.250000=265.000000
,192.500000=177.000000
,193.500000=265.500000
,193.750000=132.750000
,194.000000=265.500000
,195.000000=177.000000
,196.000000=265.500000
,197.500000=177.000000
,198.000000=265.500000
,198.250000=132.750000
,198.500000=177.000000
,200.000000=265.500000
,200.375000=88.500000
,200.500000=177.000000
,202.000000=265.500000
,202.375000=88.500000
,202.500000=177.000000
,203.500000=265.500000
,204.250000=132.750000
,204.500000=265.500000
,204.750000=132.750000
,205.000000=265.500000
,205.250000=132.750000
,205.500000=265.500000
,205.750000=132.750000
,206.000000=265.500000
,206.250000=132.750000
,206.500000=265.500000
,206.750000=132.750000
,207.000000=265.500000
,207.250000=132.750000
,207.500000=265.500000
,207.750000=132.750000
,208.250000=265.500000
,208.500000=177.000000
,210.000000=265.500000
,211.000000=177.000000
,212.000000=265.500000
,213.500000=177.000000
,214.000000=265.500000
,214.250000=132.750000
,214.500000=177.000000
,217.500000=132.750000
,217.750000=265.500000
,218.000000=177.000000
,218.500000=265.000000
,220.000000=354.000000
,224.000000=88.500000
,240.000000=177.000000
,250.000000=265.500000
,251.000000=177.000000
,252.000000=265.500000
,253.500000=177.000000
,254.000000=265.500000
,254.250000=132.750000
,254.500000=177.000000
,264.000000=265.500000
,264.375000=88.500000
,264.500000=177.000000
,266.000000=265.500000
,266.375000=88.500000
,266.500000=177.000000
,268.000000=354.000000
,272.000000=177.000000
,286.000000=132.750000
,286.500000=265.500000
,287.000000=132.750000
,287.500000=265.500000
,288.000000=177.000000
,300.000000=265.500000
,302.500000=177.000000
,304.000000=265.500000
,304.500000=177.000000
,306.000000=265.000000
,306.500000=177.000000
,308.000000=265.500000
,308.500000=177.000000
,310.000000=265.500000
,310.500000=177.000000
,312.000000=265.500000
,312.500000=177.000000
,313.000000=265.500000
,313.500000=177.000000
,314.000000=265.500000
,314.500000=177.000000
,315.000000=265.500000
,315.500000=177.000000
,320.000000=42.000000
;
#STOPS:59.500000=0.028248
,59.750000=0.028248
,60.000000=0.028248
,60.250000=0.028248
,60.500000=0.028248
,60.750000=0.028248
,61.000000=0.056496
,61.500000=0.028248
,61.750000=0.028248
,62.000000=0.028248
,62.250000=0.028248
,62.500000=0.056496
,93.000000=0.028248
,93.250000=0.028248
,93.500000=0.028248
,93.750000=0.028248
,94.500000=0.028248
,94.750000=0.028248
,95.000000=0.056496
,95.500000=0.056496
,123.500000=0.028248
,123.750000=0.028248
,124.000000=0.028248
,124.250000=0.028248
,124.500000=0.056496
,125.000000=0.056496
,125.500000=0.028248
,125.750000=0.028248
,126.000000=0.028248
,126.250000=0.028248
,126.500000=0.056496
,128.000000=0.028248
,128.250000=0.028248
,130.000000=0.028248
,130.250000=0.028248
,132.000000=0.028248
,132.250000=0.028248
,134.000000=0.028248
,134.250000=0.028248
,136.000000=0.028248
,136.250000=0.028248
,137.000000=0.028248
,137.250000=0.028248
,138.000000=0.028248
,138.250000=0.028248
,139.000000=0.028248
,139.250000=0.028248
,144.000000=0.169491
,145.000000=0.169491
,146.000000=0.169491
,147.000000=0.169491
,148.000000=0.112994
,148.666672=0.112994
,149.333328=0.112994
,150.000000=0.112994
,150.666672=0.112994
,151.333328=0.112994
,152.000000=0.112994
,152.666672=0.112994
,153.333328=0.112994
,154.000000=0.112994
,154.666672=0.112994
,155.333328=0.112994
,156.000000=0.056497
,156.333328=0.056497
,156.666672=0.056497
,157.000000=0.056497
,157.333328=0.056497
,157.666672=0.056497
,162.000000=0.028248
,162.250000=0.028248
,162.500000=0.028248
,162.750000=0.028248
,164.000000=0.056496
,164.500000=0.028248
,164.750000=0.028248
,165.000000=0.028248
,165.250000=0.028248
,171.500000=0.028248
,171.750000=0.028248
,178.000000=0.028248
,178.250000=0.028248
,178.500000=0.028248
,178.750000=0.028248
,180.000000=0.056496
,180.500000=0.028248
,180.750000=0.028248
,181.000000=0.028248
,181.250000=0.028248
,186.500000=0.056496
,187.000000=0.028248
,187.250000=0.028248
,190.000000=0.127118
,190.750000=0.127118
,191.500000=0.084745
,194.000000=0.028248
,194.250000=0.028248
,194.500000=0.028248
,194.750000=0.028248
,196.000000=0.056496
,196.500000=0.028248
,196.750000=0.028248
,197.000000=0.028248
,197.250000=0.028248
,203.500000=0.028248
,203.750000=0.028248
,210.000000=0.028248
,210.250000=0.028248
,210.500000=0.028248
,210.750000=0.028248
,212.000000=0.056496
,212.500000=0.028248
,212.750000=0.028248
,213.000000=0.028248
,213.250000=0.028248
,218.500000=0.056496
,219.000000=0.028248
,219.250000=0.028248
,219.500000=0.028248
,219.750000=0.028248
,220.000000=0.169491
,221.000000=0.169491
,222.000000=0.169491
,223.000000=0.169491
,250.000000=0.028248
,250.250000=0.028248
,250.500000=0.028248
,250.750000=0.028248
,252.000000=0.056496
,252.500000=0.028248
,252.750000=0.028248
,253.000000=0.028248
,253.250000=0.028248
,268.000000=0.084745
,268.500000=0.169491
,269.500000=0.084745
,270.000000=0.127118
,270.750000=0.127118
,271.500000=0.084745
,300.000000=0.028248
,300.250000=0.028248
,300.500000=0.028248
,300.750000=0.028248
,301.000000=0.056496
,301.500000=0.028248
,301.750000=0.028248
,302.000000=0.028248
,302.250000=0.028248
,304.000000=0.028248
,304.250000=0.028248
,306.000000=0.028248
,306.250000=0.028248
,308.000000=0.028248
,308.250000=0.028248
,310.000000=0.028248
,310.250000=0.028248
,312.000000=0.028248
,312.250000=0.028248
,313.000000=0.028248
,313.250000=0.028248
,314.000000=0.028248
,314.250000=0.028248
,315.000000=0.028248
,315.250000=0.028248
;
#DELAYS:;
#WARPS:;
#TIMESIGNATURES:0.000000=4=4
;
#TICKCOUNTS:0.000000=4
;
#COMBOS:0.000000=1
;
#SPEEDS:0.000000=1.000000=0.000000=0
;
#SCROLLS:0.000000=1.000000
;
#FAKES:;
#LABELS:0.000000=Song Start
;
#DISPLAYBPM:177.000000;
#NOTES:
// measure 0
MM00
00MM
MM00
00MM
,  // measure 1
MM00
0000
0000
0000
0000
0000
00MM
0000
0000
M000
0M00
00M0
000M
0000
0000
00M0
0000
0000
0M00
0000
0000
M000
0000
0000
,  // measure 2
0M0M
M0M0
0M0M
M0M0
,  // measure 3
0M0M
M0M0
0MM0
0MM0
,  // measure 4
00MM
MM00
00MM
MM00
,  // measure 5
00MM
0000
0000
0000
0000
0000
MM00
0000
0000
000M
00M0
0M00
M000
0000
0000
0M00
0000
0000
00M0
0000
0000
000M
0000
0000
,  // measure 6
M0M0
0M0M
M0M0
0M0M
,  // measure 7
M0M0
0M0M
0MM0
0MM0
,  // measure 8
1000
0000
0001
0000
0100
0000
0001
0000
1000
0000
0001
0010
0001
0000
1000
0000
,  // measure 9
0010
0000
0100
0001
0100
0000
0010
1000
0100
0000
0010
0000
0001
0000
0100
0000
,  // measure 10
0001
0000
1000
0000
0100
0000
1000
0000
0001
0000
1000
0100
0010
0001
1000
0000
,  // measure 11
0001
0000
0000
0000
0000
0000
0000
0000
0000
0000
0000
0000
0000
0000
0000
0000
0000
0000
0000
0000
0000
0000
0000
0000
0100
0000
0000
0000
0000
0000
0000
0000
0000
0000
0000
0000
0000
0000
0000
0000
0000
0000
0000
0000
0000
0000
0000
0000
0001
0000
0000
0000
0000
0000
0000
0000
0000
0000
0000
0000
0010
0000
0000
0000
0000
0000
0000
0000
0000
0000
0000
0000
0100
0000
0000
0000
0000
0000
0000
0000
0000
0000
0000
0000
1000
0000
0000
0000
0000
0000
0000
0000
0000
0000
0000
0000
0002
0000
0000
0000
0000
0000
0000
0000
0000
0000
0000
0000
0000
0000
0000
0000
0000
0100
0000
0000
0000
0000
0000
0000
0003
0000
0000
0000
0000
0000
0000
0000
0000
0000
0000
0000
0000
0000
0000
0000
0000
0000
0000
0000
0000
0000
0000
0000
0020
0000
0000
0000
0000
0000
0000
0000
0000
0000
0000
0000
0000
0000
0000
0000
0000
1000
0000
0000
0000
0000
0000
0000
0030
0000
0000
0000
0000
0000
0000
0000
0000
0000
0000
0000
0000
0000
0000
0000
0000
0000
0000
0000
0000
0000
0000
0000
,  // measure 12
0001
0000
1000
0000
0010
0000
1000
0000
0001
0000
1000
0100
1000
0000
0001
0000
,  // measure 13
0100
0000
0010
1000
0010
0000
0100
0001
0010
0000
0100
0000
1000
0000
0010
0000
,  // measure 14
1000
0000
0001
0000
0010
0000
0001
0000
1000
0000
0001
0100
0001
0000
1000
0010
,  // measure 15
1000
0001
0010
0100
1000
0000
0001
0100
0010
1000
0100
0000
0020
0000
0000
0000
,  // measure 16
0031
0000
1000
0000
0010
0000
1000
0000
0001
0000
1000
0100
1000
0000
0010
0000
,  // measure 17
0100
0000
0001
0010
0001
0000
1000
0100
0010
0000
0001
0000
0100
0000
0010
0000
,  // measure 18
1000
0000
0001
0000
0010
0000
0001
0000
1000
0000
0001
0010
0100
1000
0001
0000
,  // measure 19
1000
0000
0000
0000
0000
0000
0000
0000
0000
0000
0000
0000
0000
0000
0000
0000
0000
0000
0000
0000
0000
0000
0000
0000
0010
0000
0000
0000
0000
0000
0000
0000
0000
0000
0000
0000
0000
0000
0000
0000
0000
0000
0000
0000
0000
0000
0000
0000
1000
0000
0000
0000
0000
0000
0000
0000
0000
0000
0000
0000
0100
0000
0000
0000
0000
0000
0000
0000
0000
0000
0000
0000
0010
0000
0000
0000
0000
0000
0000
0000
0000
0000
0000
0000
0001
0000
0000
0000
0000
0000
0000
0000
0000
0000
0000
0000
2000
0000
0000
0000
0000
0000
0000
0000
0000
0000
0000
0000
0000
0000
0000
0000
0000
0010
0000
0000
0000
0000
0000
0000
3000
0000
0000
0000
0000
0000
0000
0000
0000
0000
0000
0000
0000
0000
0000
0000
0000
0000
0000
0000
0000
0000
0000
0000
0200
0000
0000
0000
0000
0000
0000
0000
0000
0000
0000
0000
0000
0000
0000
0000
0000
0001
0000
0000
0000
0000
0000
0000
0300
0000
0000
0000
0000
0000
0000
0000
0000
0000
0000
0000
0000
0000
0000
0000
0000
0000
0000
0000
0000
0000
0000
0000
,  // measure 20
1000
0000
0001
0000
0100
0000
0001
0000
1000
0000
0001
0010
0001
0000
0100
0000
,  // measure 21
0010
0000
1000
0100
1000
0000
0001
0010
0100
0000
1000
0000
0010
0000
0100
0000
,  // measure 22
0001
0000
1000
0000
0100
0000
1000
0000
0001
0000
1000
0100
1000
0001
0100
0000
,  // measure 23
0001
0000
1000
0000
0001
0010
0100
1000
0001
0000
0100
0010
1000
0000
0100
0000
,  // measure 24
0010
0000
0001
0000
0100
0000
0001
0000
1000
0000
0001
0010
0001
0000
0100
0000
,  // measure 25
0010
0000
1000
0100
1000
0000
0001
0010
0100
0000
1000
0000
0010
0000
0100
0000
,  // measure 26
0001
0000
1000
0000
0100
0000
1000
0000
0001
0000
1000
0100
0010
0001
1000
0000
,  // measure 27
0001
0000
0000
0000
0000
0000
0000
0000
0000
0000
0000
0000
0000
0000
0000
0000
0000
0000
0000
0000
0000
0000
0000
0000
0100
0000
0000
0000
0000
0000
0000
0000
0000
0000
0000
0000
0000
0000
0000
0000
0000
0000
0000
0000
0000
0000
0000
0000
0001
0000
0000
0000
0000
0000
0000
0000
0000
0000
0000
0000
0010
0000
0000
0000
0000
0000
0000
0000
0000
0000
0000
0000
0100
0000
0000
0000
0000
0000
0000
0000
0000
0000
0000
0000
1000
0000
0000
0000
0000
0000
0000
0000
0000
0000
0000
0000
0002
0000
0000
0000
0000
0000
0000
0000
0000
0000
0000
0000
0000
0000
0000
0000
0000
0100
0000
0000
0000
0000
0000
0000
0003
0000
0000
0000
0000
0000
0000
0000
0000
0000
0000
0000
0000
0000
0000
0000
0000
0000
0000
0000
0000
0000
0000
0000
0020
0000
0000
0000
0000
0000
0000
0000
0000
0000
0000
0000
0000
0000
0000
0000
0000
1000
0000
0000
0000
0000
0000
0000
0030
0000
0000
0000
0000
0000
0000
0000
0000
0000
0000
0000
0000
0000
0000
0000
0000
0000
0000
0000
0000
0000
0000
0000
,  // measure 28
0001
0000
1000
0000
0010
0000
1000
0000
0001
0000
1000
0100
1000
0000
0010
0000
,  // measure 29
0100
0000
0001
0010
0001
0000
1000
0100
0010
0000
0001
0000
0100
0000
0010
0000
,  // measure 30
1000
0000
0001
0000
0010
0000
0001
0000
1000
0000
0001
0010
0001
0000
1000
0010
,  // measure 31
1000
0001
0010
0000
0100
0000
1000
0010
0100
0001
0010
0000
0100
0000
1000
0000
,  // measure 32
0001
0100
0001
0000
1000
0000
0001
0000
1000
0100
1000
0000
0001
0000
1000
0000
,  // measure 33
0001
0010
0001
0000
1000
0000
0001
0000
1000
0010
1000
0000
0001
0000
1000
0000
,  // measure 34
0001
0010
0100
0000
0010
0100
1000
0000
0001
0100
0010
0000
0100
0010
1000
0000
,  // measure 35
0001
0000
0000
0100
0000
0000
0001
0000
0000
0100
0000
0000
0010
0000
0000
1000
0000
0000
0010
0000
0000
1000
0000
0000
0001
0000
0000
0010
0000
0000
0100
0000
0000
1000
0000
0000
0010
0000
0100
0000
0001
0000
0100
0000
0010
0000
1000
0000
,  // measure 36
0010
0010
0010
0010
,  // measure 37
0010
0000
0100
0000
0001
0000
0010
0000
0001
0000
1000
0000
,  // measure 38
0001
0000
0100
0000
1000
0000
0001
0000
0010
0000
1000
0000
,  // measure 39
0010
0000
0100
0000
0001
0000
0010
0000
0100
0000
1000
0000
0001
0100
0001
1000
0010
1000
0001
1000
0010
0100
0001
1000
,  // measure 40
0200
0000
0310
0000
0001
0000
0100
0000
0010
1000
0010
1000
0001
0000
0010
0000
,  // measure 41
0100
0000
1000
0100
0010
0001
1000
0000
0020
0000
0130
0000
0001
0000
0010
0000
,  // measure 42
0002
0000
2003
0000
3010
0000
0100
0010
2000
0000
3002
0000
0013
0000
0100
1000
,  // measure 43
0002
0203
0302
2003
3020
2030
3002
2003
,  // measure 44
3200
0000
0310
0000
0001
0000
0100
0000
0001
1000
0001
1000
0010
0000
0100
0000
,  // measure 45
0001
0000
1000
0100
0010
0001
1000
0000
0002
0000
0013
0000
0100
0000
1000
0000
,  // measure 46
0010
0000
1000
0000
0001
0000
0200
0000
0301
0000
1000
0000
0001
0100
0001
0000
,  // measure 47
0020
0000
0230
0000
2300
0000
3200
0000
0310
0000
0000
0001
0000
0000
0001
0000
,  // measure 48
0200
0000
0310
0000
1000
0000
0010
0000
0100
0001
0100
0001
1000
0000
0100
0000
,  // measure 49
0010
0000
0001
0010
0100
1000
0001
0000
0200
0000
0310
0000
1000
0000
0100
0000
,  // measure 50
2000
0000
3002
0000
0103
0000
0010
0100
0002
0000
2003
0000
3100
0000
0010
0001
,  // measure 51
2000
3020
2030
3002
0203
0302
2003
3020
,  // measure 52
0230
0000
0301
0000
0010
0000
0100
0000
0010
0001
0010
0001
1000
0000
0010
0000
,  // measure 53
0100
0000
0001
0010
0100
1000
0001
0000
2000
0000
3010
0000
1000
0000
0100
0000
,  // measure 54
0010
0000
0001
0000
0100
0000
0020
0000
1030
0000
0010
0000
0100
0001
1000
0010
,  // measure 55
0100
0001
0010
0100
,  // measure 56
1000
0000
0100
0000
0010
0000
0001
1000
0001
0000
0100
0000
0010
0000
1000
0000
0001
0010
0001
0010
0100
0000
1000
0001
1000
0000
0100
0000
0010
0000
0001
0000
,  // measure 57
1000
0000
0001
0000
0100
0000
0010
0000
1000
0001
1000
0001
1000
0000
0001
0000
0010
0000
0100
1000
0100
1000
0001
0000
0100
0000
0010
0000
1000
0000
0001
0000
,  // measure 58
1000
0000
0100
0000
0010
0000
0001
1000
0001
0000
0010
0000
0100
0000
1000
0000
0001
0100
0001
0100
0010
0000
1000
0100
1000
0000
0010
0000
0100
0000
0001
0000
,  // measure 59
1000
0000
0001
0000
0100
0000
0010
1000
0001
0000
1000
0000
0100
0000
0010
0001
1000
0000
0000
0010
0000
0000
0100
0000
0001
0000
0010
0000
0001
0000
1000
0000
,  // measure 60
0100
0000
0010
0000
0001
0000
1000
0010
1000
0000
0010
0000
0100
0000
0001
0000
,  // measure 61
1000
0010
1000
0010
1000
0000
0001
0010
0001
0000
0100
0000
0010
0000
1000
0000
,  // measure 62
0001
0000
0100
0000
0001
0000
0010
0000
0100
1000
0001
1000
0001
0000
0100
0000
,  // measure 63
0001
0000
1000
0100
0010
0001
1000
0000
0020
0000
0130
0000
0001
0000
0010
0000
,  // measure 64
0100
0000
1000
0000
0001
0000
1000
0010
1000
0000
0001
0100
0010
0000
1000
0000
,  // measure 65
0001
0010
0001
1000
0001
0000
0100
0010
1000
0000
0100
0000
0010
0000
0001
0000
,  // measure 66
2000
0000
3020
0000
0130
0000
0001
0010
0002
0000
0203
0000
0310
0000
1000
0100
,  // measure 67
1000
0000
0010
0000
0000
0000
0100
0000
0001
0000
0000
0010
0000
0000
0100
0000
,  // measure 68
1000
0000
0001
0000
0100
0000
0001
0000
1000
0000
0001
0010
0001
0000
0100
0000
,  // measure 69
0010
0000
1000
0100
1000
0000
0001
0010
0100
0000
1000
0000
0010
0000
0100
0000
,  // measure 70
0001
0000
1000
0000
0100
0000
1000
0000
0001
0000
1000
0100
0010
0001
1000
0000
,  // measure 71
0001
0000
0000
0000
0000
0000
0000
0000
0000
0000
0000
0000
0000
0000
0000
0000
0000
0000
0000
0000
0000
0000
0000
0000
0100
0000
0000
0000
0000
0000
0000
0000
0000
0000
0000
0000
0000
0000
0000
0000
0000
0000
0000
0000
0000
0000
0000
0000
0001
0000
0000
0000
0000
0000
0000
0000
0000
0000
0000
0000
0010
0000
0000
0000
0000
0000
0000
0000
0000
0000
0000
0000
0100
0000
0000
0000
0000
0000
0000
0000
0000
0000
0000
0000
1000
0000
0000
0000
0000
0000
0000
0000
0000
0000
0000
0000
0002
0000
0000
0000
0000
0000
0000
0000
0000
0000
0000
0000
0000
0000
0000
0000
0000
0100
0000
0000
0000
0000
0000
0000
0003
0000
0000
0000
0000
0000
0000
0000
0000
0000
0000
0000
0000
0000
0000
0000
0000
0000
0000
0000
0000
0000
0000
0000
0020
0000
0000
0000
0000
0000
0000
0000
0000
0000
0000
0000
0000
0000
0000
0000
0000
1000
0000
0000
0000
0000
0000
0000
0030
0000
0000
0000
0000
0000
0000
0000
0000
0000
0000
0000
0000
0000
0000
0000
0000
0000
0000
0000
0000
0000
0000
0000
,  // measure 72
0001
0000
1000
0000
0010
0000
1000
0000
0001
0000
1000
0100
1000
0000
0010
0000
,  // measure 73
0100
0000
0001
0010
0001
0000
1000
0100
0010
0000
0001
0000
0100
0000
0010
0000
,  // measure 74
1000
0000
0001
0000
0010
0000
0001
0000
1000
0000
0001
0010
0001
0000
1000
0100
,  // measure 75
1000
0001
0010
0100
1000
0000
0001
0100
0010
0100
0001
0000
0010
0000
0100
0000
,  // measure 76
1000
0010
1000
0000
0100
0000
0010
0000
0001
0100
0001
0000
0010
0000
0100
0000
,  // measure 77
1000
0100
1000
0000
0010
0000
0100
0000
0001
0100
0001
0000
0010
0000
0100
0000
,  // measure 78
1000
0001
1000
0000
0001
0100
0001
0000
1000
0010
1000
0000
0001
1000
0001
0000
,  // measure 79
1000
0000
0000
0100
0000
0000
1000
0000
0000
0100
0000
0000
0010
0000
0000
0001
0000
0000
0010
0000
0000
0001
0000
0000
1000
0000
0000
0010
0000
0000
0100
0000
0000
0001
0000
0000
1000
0000
0100
0000
0010
0000
0001
0000
1000
0000
0001
0000
,  // measure 80
1000
MMMM
0000
0000
0000
0000
0000
0000
0000
0000
0000
0000
0000
0000
0000
0000
;
