#VERSION:0.81;
#TITLE:Mirror;
#SUBTITLE:;
#ARTIST:Ellie Goulding;
#TITLETRANSLIT:;
#SUBTITLETRANSLIT:;
#ARTISTTRANSLIT:;
#GENRE:;
#ORIGIN:;
#CREDIT:;
#BANNER:[Speed Changes] - Mirror.png;
#BACKGROUND:[Speed Changes] - Mirror-bg.png;
#PREVIEWVID:;
#JACKET:[Speed Changes] - Mirror-jacket.png;
#CDIMAGE:;
#DISCIMAGE:;
#LYRICSPATH:;
#CDTITLE:;
#MUSIC:[Speed Changes] - Mirror.ogg;
#OFFSET:-0.268;
#SAMPLESTART:85.305;
#SAMPLELENGTH:14.925;
#SELECTABLE:YES;
#DISPLAYBPM:67.000:134.000;
#BPMS:0.000=67.000,
94.000=33.500,
95.000=134.000,
109.000=67.000,
110.000=134.000,
124.000=67.000,
125.000=134.000,
155.000=33.500;
#STOPS:;
#DELAYS:;
#WARPS:;
#TIMESIGNATURES:0.000=4=4,
92.000=3=4,
95.000=4=4,
107.000=3=4,
110.000=4=4,
122.000=3=4,
125.000=4=4,
153.000=3=4;
#TICKCOUNTS:0.000=4;
#COMBOS:0.000=1;
#SPEEDS:0.000=1.000=0.000=0;
#SCROLLS:0.000=1.000;
#FAKES:;
#LABELS:0.000=Song Start;
#BGCHANGES:;
#KEYSOUNDS:;
#ATTACKS:
;

//---------------dance-single - ----------------
#NOTEDATA:;
#CHARTNAME:;
#STEPSTYPE:dance-single;
#DESCRIPTION:;
#CHARTSTYLE:;
#DIFFICULTY:Hard;
#METER:6;
#RADARVALUES:0.286,0.269,0.026,0.251,0.009,200.000,3.000,29.000,0.000,0.000,0.000,0.000,0.000,0.286,0.269,0.026,0.251,0.009,200.000,3.000,29.000,0.000,0.000,0.000,0.000,0.000;
#CREDIT:;
#DISPLAYBPM:67.000:134.000;
#NOTES:
0000
0000
0000
0000
,
0000
0000
0000
0000
,
0000
0000
0000
0000
,
0000
0000
0000
0000
,
1000
0010
1000
0010
1000
0020
0000
0030
,
1000
0000
0100
0000
1000
0000
0100
0000
1000
0000
0100
0000
0000
0100
0000
0000
,
0100
0010
0100
0010
0100
0020
0000
0030
,
0001
0000
1000
0000
0001
0000
1000
0000
0001
0000
1000
0000
0000
1000
0000
0000
,
1000
1000
0001
0001
1000
1000
0000
1000
,
0010
0010
0100
0100
0010
0010
0000
0010
,
1000
1000
0001
0001
1000
1000
0000
1000
,
0100
0100
0010
0010
0100
0100
1000
1000
,
2000
3020
0032
0023
,
2030
3200
0020
0330
,
0010
0001
1000
0001
0100
0100
0000
0100
,
0010
1000
0001
1000
0001
0010
0000
0000
,
0200
0000
1300
0100
1000
0001
0100
0100
,
0200
0000
0310
1000
0001
1000
0001
0001
,
0002
0000
0013
0001
0010
0100
1000
0100
,
2000
0000
3001
1000
0001
0100
0010
0100
,
0020
2030
3002
2003
,
3100
0100
0010
0010
0001
0000
1001
0000
,
2000
3200
0320
0032
,
0103
0001
0100
0010
2000
3000
0001
0000
,
0010
0000
0100
0000
1000
0000
0010
0010
,
2000
0001
0001
3001
,
1000
0000
0010
0000
0001
0000
0010
0010
,
1000
0000
2002
3003
1000
0000
0100
0000
,
0010
0000
0001
0000
0100
0100
0002
0000
,
1000
1000
1003
0001
,
0100
0000
1000
0000
0100
0100
0001
0000
,
2002
3003
1000
0000
0100
0000
0010
0000
,
0001
0000
1000
0010
0100
0000
0010
0100
,
0001
0000
0100
0001
1000
0000
0001
1000
,
0100
0000
1000
0100
0010
0000
0100
0000
,
1000
0000
0001
0100
0001
0000
0100
0010
,
0100
0000
0010
1000
0010
0000
1000
0001
,
1000
0000
0001
0010
0001
0000
1000
0010
,
1000
0000
0001
0010
0100
1000
0002
0003
;

//---------------dance-single - REFLECTION----------------
#NOTEDATA:;
#CHARTNAME:;
#STEPSTYPE:dance-single;
#DESCRIPTION:REFLECTION;
#CHARTSTYLE:;
#DIFFICULTY:Edit;
#METER:6;
#RADARVALUES:0.286,0.421,0.026,0.251,0.043,200.000,3.000,29.000,0.000,0.000,0.000,0.000,85.000,0.286,0.421,0.026,0.251,0.043,200.000,3.000,29.000,0.000,0.000,0.000,0.000,85.000;
#CREDIT:;
#OFFSET:-0.268;
#BPMS:0.000=67.000
,142.000=33.500
,143.000=134.000
,165.000=67.000
,174.000=134.000
,188.000=67.000
,205.000=134.000
,235.000=33.500
;
#STOPS:;
#DELAYS:;
#WARPS:49.000=8.000
,58.000=8.000
,67.000=8.000
,76.000=8.000
,85.000=8.000
,94.000=8.000
,157.000=8.000
,166.000=8.000
,188.000=8.000
,197.000=8.000
,235.000=8.000
;
#TIMESIGNATURES:0.000=4=4
,140.000=3=4
,143.000=4=4
,155.000=3=4
,174.000=4=4
,186.000=3=4
,205.000=4=4
,233.000=3=4
;
#TICKCOUNTS:0.000=4
;
#COMBOS:0.000=1
;
#SPEEDS:0.000=1.000=0.000=0
;
#SCROLLS:0.000=1.000
;
#FAKES:;
#LABELS:0.000=Song Start
;
#ATTACKS:TIME=57.622810:LEN=26.865677:MODS=Beat, Overhead;
#DISPLAYBPM:67.000:134.000;
#NOTES:
// measure 0
0000
0000
0000
0000
,  // measure 1
0000
0000
0000
0000
,  // measure 2
0000
0000
0000
0000
,  // measure 3
0000
0000
0000
0000
,  // measure 4
1000
0010
1000
0010
1000
0020
0000
0030
,  // measure 5
1000
0000
0100
0000
1000
0000
0100
0000
1000
0000
0100
0000
0000
0100
0000
0000
,  // measure 6
0100
0010
0100
0010
0100
0020
0000
0030
,  // measure 7
0001
0000
1000
0000
0001
0000
1000
0000
0001
0000
1000
0000
0000
1000
0000
0000
,  // measure 8
1000
1000
0001
0001
1000
1000
0000
1000
,  // measure 9
0010
0010
0100
0100
0010
0010
0000
0010
,  // measure 10
1000
1000
0001
0001
1000
1000
0000
1000
,  // measure 11
0100
0100
0010
0010
0100
0100
1000
1000
,  // measure 12
2000
30M0
M000
000M
,  // measure 13
00M0
0M00
000M
0000
,  // measure 14
0000
0020
003M
0M00
,  // measure 15
M000
000M
0M00
0000
,  // measure 16
0000
0000
0002
00M3
,  // measure 17
00M0
0M00
000M
0000
,  // measure 18
00M0
000M
0M00
0000
0000
0000
0020
0000
,  // measure 19
M030
000M
0M00
0000
,  // measure 20
M000
00M0
000M
000M
0000
0000
0000
0000
,  // measure 21
2000
3M00
000M
0000
,  // measure 22
00M0
M000
0M00
0M00
0000
000M
0000
0000
,  // measure 23
0000
0200
00M0
0000
,  // measure 24
00M0
000M
M000
00M0
0000
0000
0000
0000
,  // measure 25
0000
0000
0020
0330
,  // measure 26
0010
0001
1000
0001
0100
0100
0000
0100
,  // measure 27
0010
1000
0001
1000
0001
0010
0000
0000
,  // measure 28
0200
0000
1300
0100
1000
0001
0100
0100
,  // measure 29
0200
0000
0310
1000
0001
1000
0001
0001
,  // measure 30
0002
0000
0013
0001
0010
0100
1000
0100
,  // measure 31
2000
0000
3001
1000
0001
0100
0010
0100
,  // measure 32
0020
2030
3002
2003
,  // measure 33
3100
0100
0010
0010
0001
0000
1001
0000
,  // measure 34
2000
3200
0320
0032
,  // measure 35
0103
0001
0100
0010
2000
3000
0001
0000
,  // measure 36
0010
0000
0100
0000
1000
0000
0010
0010
,  // measure 37
2000
0001
0001
3001
,  // measure 38
1000
0000
0010
0000
0001
0000
0010
0010
,  // measure 39
1000
M00M
F000
0F00
,  // measure 40
00F0
0000
000F
0000
0F00
0F00
0000
0000
,  // measure 41
0000
0000
2002
3003
M000
0000
0M00
0000
,  // measure 42
00M0
0000
000M
0000
0M00
0M00
000M
0000
,  // measure 43
0000
0000
1000
0100
,  // measure 44
0010
0000
0001
0000
0100
0100
0002
0000
,  // measure 45
1000
1000
1003
0001
,  // measure 46
0100
0000
1000
0000
0100
0100
0001
0000
,  // measure 47
M00M
F000
0F00
00F0
,  // measure 48
000F
0000
F000
00F0
0F00
0000
0000
0000
,  // measure 49
2002
3003
M000
0000
0M00
0000
00M0
0000
,  // measure 50
000M
0000
M000
00M0
0M00
0000
0000
0000
,  // measure 51
0000
1000
0100
0010
,  // measure 52
0001
0000
1000
0010
0100
0000
0010
0100
,  // measure 53
0001
0000
0100
0001
1000
0000
0001
1000
,  // measure 54
0100
0000
1000
0100
0010
0000
0100
0000
,  // measure 55
1000
0000
0001
0100
0001
0000
0100
0010
,  // measure 56
0100
0000
0010
1000
0010
0000
1000
0001
,  // measure 57
1000
0000
0001
0010
0001
0000
1000
0010
,  // measure 58
1000
0000
0000
0000
0001
0000
0010
0000
0100
0000
1000
0000
000M
F000
0F00
00F0
,  // measure 59
000F
F000
00F0
0F00
000F
F000
0F00
00F0
000F
0F00
000F
F000
0F00
0000
0000
0000
,  // measure 60
0000
0000
0000
0000
0000
0000
0002
0003
;

//---------------dance-single - ----------------
#NOTEDATA:;
#CHARTNAME:;
#STEPSTYPE:dance-single;
#DESCRIPTION:;
#CHARTSTYLE:;
#DIFFICULTY:Medium;
#METER:4;
#RADARVALUES:0.190,0.218,0.069,0.095,0.004,135.000,8.000,11.000,0.000,0.000,0.000,0.000,0.000,0.190,0.218,0.069,0.095,0.004,135.000,8.000,11.000,0.000,0.000,0.000,0.000,0.000;
#CREDIT:;
#DISPLAYBPM:67.000:134.000;
#NOTES:
0000
0000
0000
0000
,
0000
0000
0000
0000
,
0000
0000
0000
0000
,
0000
0000
0000
0000
,
0001
0000
0001
0000
0001
0001
0000
0000
,
1000
0000
1000
0000
1000
1000
0000
0000
,
0010
0000
0010
0000
0010
0010
0000
0000
,
0100
0000
0000
0000
0100
0000
0000
0000
0100
0000
0100
0000
0000
0100
0000
0000
,
0001
0001
0001
0000
,
0010
0010
0010
0000
,
0100
0100
0100
0000
,
1000
0000
1000
0000
1000
0000
0001
0001
,
0002
0103
2000
3100
,
0002
1003
2002
3003
,
1000
0001
1000
0000
,
0010
0100
0010
0000
,
1000
0000
0100
0000
0010
0001
0010
0000
,
0001
0000
0100
0000
0010
1000
0010
0000
,
1000
0000
0100
0000
0001
0100
1000
0000
,
0001
0000
0100
0000
1000
0100
0001
0000
,
0010
0011
0001
1001
,
2000
0010
0100
3001
,
0001
0101
0100
0110
,
0020
0000
1000
0000
0200
0330
0010
0000
,
0000
0000
1000
0000
0000
0000
0010
1000
,
0010
1000
1000
0001
,
0000
0000
0010
0000
0000
0000
0001
0010
,
0001
0000
2000
3000
0100
0000
0000
0000
,
0010
0000
0000
0000
0001
0100
0010
0000
,
1000
1000
0100
0000
,
0010
0000
0000
0000
0001
1000
0001
0000
,
0200
0300
0010
0000
0000
0000
1010
0000
,
0000
0000
1000
0000
0010
1000
0001
0000
,
0000
1000
0000
1001
,
0000
0000
0001
0000
0010
0001
1000
0000
,
0010
0100
0001
0000
0000
0000
1001
0000
,
0000
0000
1000
0000
0100
1000
0100
0000
,
0000
0000
0010
0000
0001
0010
0001
0000
,
1000
0001
1000
0000
0010
1000
0020
0030
;

//---------------dance-single - ----------------
#NOTEDATA:;
#CHARTNAME:;
#STEPSTYPE:dance-single;
#DESCRIPTION:;
#CHARTSTYLE:;
#DIFFICULTY:Easy;
#METER:2;
#RADARVALUES:0.132,0.134,0.000,0.000,0.000,107.000,0.000,0.000,0.000,0.000,0.000,0.000,0.000,0.132,0.134,0.000,0.000,0.000,107.000,0.000,0.000,0.000,0.000,0.000,0.000,0.000;
#CREDIT:;
#DISPLAYBPM:67.000:134.000;
#NOTES:
0000
0000
0000
0000
,
0000
0000
0000
0000
,
0000
0000
0000
0000
,
0000
0000
0000
0000
,
0001
0001
0001
0000
,
0010
0010
0010
0000
,
0100
0100
0100
0000
,
1000
1000
1000
0000
,
0001
0001
0001
0000
,
0100
0100
0100
0000
,
0001
0001
0001
0000
,
1000
0000
1000
0000
1000
0000
0100
0100
,
0100
0100
0010
0010
,
0001
0001
1000
0000
,
0001
0001
0001
0000
,
1000
1000
1000
0000
,
0010
1000
0010
1000
,
0001
1000
0001
1000
,
0001
0010
0001
0010
,
0001
1000
0001
1000
,
0010
0010
0010
0000
,
0100
0100
0100
0000
,
0001
0001
0001
0000
,
1000
1000
1000
0001
,
0000
1000
0000
0001
,
0001
0001
0000
0010
,
0000
0100
0000
0010
,
0010
0010
0001
0000
,
1000
0000
0001
0001
,
0001
0000
0100
0000
,
0010
0000
0100
0100
,
0100
0010
0000
1000
,
0000
0010
0010
0010
,
0000
0100
0000
0001
,
0000
0100
0100
0100
,
0000
0001
0000
0010
,
0000
0001
0001
0001
,
0000
1000
0000
0100
,
0000
1000
1000
1000
;

//---------------dance-single - ----------------
#NOTEDATA:;
#CHARTNAME:;
#STEPSTYPE:dance-single;
#DESCRIPTION:;
#CHARTSTYLE:;
#DIFFICULTY:Beginner;
#METER:1;
#RADARVALUES:0.079,0.100,0.000,0.000,0.000,64.000,0.000,0.000,0.000,0.000,0.000,0.000,0.000,0.079,0.100,0.000,0.000,0.000,64.000,0.000,0.000,0.000,0.000,0.000,0.000,0.000;
#CREDIT:;
#DISPLAYBPM:67.000:134.000;
#NOTES:
0000
0000
0000
0000
,
0000
0000
0000
0000
,
0000
0000
0000
0000
,
0000
0000
0000
0000
,
1000
0000
1000
0000
,
0001
0000
0001
0000
,
1000
0000
1000
0000
,
0001
0000
0001
0000
,
0010
0000
0010
0000
,
0001
0000
0001
0000
,
1000
0000
1000
0000
,
0010
0000
0010
0000
,
0100
0000
0100
0000
,
0010
0000
0100
0000
,
0001
0000
0000
0000
,
1000
0000
0000
0000
,
0100
0000
0100
0100
,
0100
0000
0010
0010
,
0010
0000
0001
0001
,
0001
0000
0100
0100
,
0100
0000
0100
0000
,
0010
0000
0000
0000
,
1000
0000
1000
0000
,
0001
0000
0000
1000
,
0000
0000
0000
1000
,
0000
1000
0000
0100
,
0000
0000
0000
0010
,
0000
0010
0010
0000
,
0000
0000
0001
0000
,
0001
0000
0100
0000
,
0000
0000
0010
0000
,
0010
0010
0000
0000
,
0000
1000
0000
1000
,
0000
1000
0000
0000
,
0000
0001
0000
0001
,
0000
0001
0000
0000
,
0000
1000
0000
0000
,
0000
0001
0000
0001
,
0000
1000
0000
1000
;
