#TITLE:Hungarian Dances No.5;
#SUBTITLE:;
#ARTIST:Johannes Brahms;
#TITLETRANSLIT:;
#SUBTITLETRANSLIT:;
#ARTISTTRANSLIT:;
#GENRE:;
#CREDIT:mf32892;
#BANNER:Hungarian Dances No.5-bn.png;
#BACKGROUND:Hungarian Dances No.5-bg.png;
#LYRICSPATH:;
#CDTITLE:;
#MUSIC:Hungarian Dances No.5.ogg;
#OFFSET:-1.013926;
#SAMPLESTART:106.089996;
#SAMPLELENGTH:12.640000;
#SELECTABLE:YES;
#BPMS:0.000000=153.955994
,63.000000=99.959000
,63.500000=90.433998
,65.500000=101.543999
,66.500000=113.577003
,67.500000=126.302002
,68.500000=133.529999
,69.500000=143.473999
,70.500000=150.802994
,71.500000=155.526001
,79.000000=77.650002
,85.000000=76.549004
,85.500000=72.217003
,86.000000=64.348000
,87.500000=154.792007
,95.500000=153.371994
,111.000000=77.276001
,117.000000=70.938004
,117.500000=64.120003
,119.500000=154.953995
,127.500000=153.513000
,151.000000=72.012001
,151.500000=35.476002
,155.500000=153.427002
,158.500000=71.839996
,159.000000=35.439999
,163.000000=153.677002
,166.000000=76.837997
,166.500000=35.432999
,170.500000=153.865997
,173.500000=71.021004
,174.000000=35.111000
,177.500000=37.351002
,178.000000=153.046005
,182.000000=153.606003
,214.000000=155.425995
,229.500000=77.023003
,236.000000=70.425003
,236.500000=64.405998
,237.500000=66.185997
,238.000000=155.001999
;
#STOPS:63.000000=0.502000,
79.000000=0.629000,
111.000000=0.609000,
151.000000=0.535000,
158.500000=0.317000,
166.000000=0.390000,
173.500000=0.309000,
181.000000=0.804000,
229.500000=0.620000
;
#BGCHANGES:;
#KEYSOUNDS:;
#ATTACKS:;

//---------------dance-single - ----------------
#NOTES:
     dance-single:
     :
     Edit:
     1:
     0.479022,0.377588,0.100308,0.014330,0.010747,452.000000,14.000000,2.000000,0.000000,0.000000,0.000000,0.479022,0.377588,0.100308,0.014330,0.010747,452.000000,14.000000,2.000000,0.000000,0.000000,0.000000:
1000
0001
1000
0001
1000
0001
1000
0001
,
1000
0001
1000
0001
1000
0001
1000
0001
,
1000
0001
1000
0001
1000
0001
1000
0001
,
1000
0001
1000
0001
1000
0001
1000
0001
,
1000
0001
1000
0001
1000
0001
1000
0001
,
1000
0001
1000
0001
1000
0001
1000
0001
,
1000
0001
1000
0001
1000
0001
1000
0001
,
1000
0001
1000
0001
1000
0001
1000
0001
,
1000
0001
1000
0001
1000
0001
1000
0001
,
1000
0001
1000
0001
1000
0001
1000
0001
,
1000
0001
1000
0001
1000
0001
1000
0001
,
1000
0001
1000
0001
1000
0001
1000
0001
,
1000
0001
1000
0001
1000
0001
1000
0001
,
1000
0001
1000
0001
1000
0001
1000
0001
,
1000
0001
1000
0001
1000
0001
1000
0001
,
1000
0001
1000
0001
1000
0001
1000
1000
,
0001
1000
0001
1000
0001
1000
0001
1000
,
0001
1000
0001
1000
0001
1000
0001
1000
,
0001
1000
0001
1000
0001
1000
0001
1000
,
0001
1000
0001
1000
0001
1000
0001
0100
,
0001
1000
0001
0100
0010
1000
0010
0100
,
0001
1000
0001
0010
0100
1000
0001
0101
,
0000
0000
0000
0000
0000
1000
0100
0000
0000
0000
0010
0000
0000
0000
0001
0000
,
0001
0000
1000
0001
1000
0100
0000
0001
,
1000
0001
1000
0001
1000
0001
1000
0001
,
1000
0001
1000
0001
1000
0001
1000
0001
,
1000
0001
1000
0001
1000
0001
1000
0001
,
1000
0001
1000
0001
1000
0001
0100
0010
,
1000
0001
1000
0100
0100
0010
0001
1000
,
0010
0100
0001
1000
0001
0100
0010
1010
,
0000
0000
0000
0000
0000
0001
0100
0000
0000
0000
0010
0000
0000
0000
1000
0000
,
1000
0000
0100
0010
0100
1000
0000
0001
,
0100
0010
0100
0001
0010
0100
0010
0011
,
0000
0011
0000
1000
0010
0100
0010
1000
,
0100
0010
0100
1100
0000
1100
0000
0001
,
0100
0100
0100
0010
1000
0100
0010
0011
,
0000
0011
0000
1000
0001
0100
0100
0010
,
1000
0100
0010
0011
0000
0022
0033
0001
,
0000
0010
0000
0100
0000
1000
0000
1000
,
1000
0100
0100
0010
0001
0100
0010
0000
,
1000
0000
0100
0000
0010
0000
0001
0010
,
0100
1000
0001
0100
0010
1000
0000
0001
,
0000
0100
0000
0010
0000
1000
0100
0010
,
0100
1000
0001
0100
0010
0000
1000
0000
,
0100
0000
0010
0000
0001
0010
0100
1000
,
0001
0100
0010
0000
1000
0001
1000
0001
,
1000
0001
1000
0001
1000
0001
1000
0001
,
1000
0001
1000
0001
1000
0001
1000
0001
,
1000
0001
1000
0001
1000
0001
1000
0001
,
1000
0001
1000
0001
1000
0001
1000
0001
,
1000
0001
1000
0001
1000
0001
1000
0001
,
1000
0001
1000
0001
1000
0001
1000
0001
,
1000
0001
1000
0001
1000
0001
1000
0001
,
1000
0001
1000
0001
1000
0001
1000
0001
,
1000
0001
1000
0001
1000
0001
1000
0001
,
1000
0001
1000
0001
1000
0001
1000
0001
,
1000
0001
1000
0001
1000
0001
1000
0001
,
1000
0001
1000
0001
0100
0010
1000
0001
,
1000
0100
0001
0100
0010
0001
1000
0001
,
0100
0000
0010
0000
1000
0000
0001
0000
1100
0000
0000
0000
0000
0000
0000
1000
,
0001
0000
0100
0000
0010
0010
0000
1000
,
0001
1000
0100
0000
0011
0000
1100
0000
,
0101
0000
0000
0000
;

//---------------dance-single - ----------------
#NOTES:
     dance-single:
     :
     Hard:
     10:
     0.631532,0.599699,0.401232,0.616178,0.333166,475.000000,56.000000,86.000000,0.000000,0.000000,0.000000,0.631532,0.599699,0.401232,0.616178,0.333166,475.000000,56.000000,86.000000,0.000000,0.000000,0.000000:
// measure 0
2000
0100
3000
0100
0002
0100
0003
0100
,  // measure 1
2000
0000
0010
0000
3000
0000
0010
0001
0020
0000
0100
0000
0030
0000
0100
0000
,  // measure 2
0002
0000
1000
0000
0003
0000
1000
0100
2000
0000
0010
0000
3000
0000
0010
0000
,  // measure 3
0100
0001
0100
0001
0100
0000
0000
0010
2000
0000
0001
0000
0000
0000
3001
0000
,  // measure 4
0020
0000
0100
0000
0000
0000
0130
0010
0002
0000
1000
0000
0000
0000
1003
0000
,  // measure 5
0020
0000
0100
0000
0000
0000
0130
0001
0020
0000
0100
0000
0000
0000
0130
0000
,  // measure 6
1000
0010
1000
0010
1000
0001
1000
0001
1000
0100
1000
0100
0010
0001
0010
0001
,  // measure 7
0100
0010
0100
0010
0100
0000
0000
0001
1000
0000
0100
0000
0001
0000
0000
0000
,  // measure 8
0110
0000
1000
0001
0100
0000
0100
0010
,  // measure 9
1000
0000
0000
0000
1000
0000
0100
0010
0100
0000
0010
0000
0001
0000
0000
0000
,  // measure 10
2100
0000
0000
0000
3001
0000
0100
0001
0100
0000
0010
0000
1000
0000
0000
0000
,  // measure 11
0001
0010
0001
0010
0100
0000
0000
1000
0001
0000
0100
0000
1000
0000
0000
0000
,  // measure 12
0120
0000
0000
0000
1030
0000
0100
0010
0002
0000
0000
0000
0103
0000
0010
0000
,  // measure 13
0120
0000
0000
0000
0031
0000
0010
0100
0020
0000
0000
0000
1030
0000
0000
0000
,  // measure 14
0001
0010
0001
0010
0100
1000
0100
1000
0001
0100
0001
0100
0010
1000
0010
1000
,  // measure 15
0100
0010
0100
0010
0100
0000
0000
1000
0001
0000
0100
0000
1000
0000
0101
0000
,  // measure 16
0001
0011
0100
2200
0000
3300
0001
0000
,  // measure 17
0200
0000
0000
0000
0310
0100
0001
0100
0010
1000
0001
0000
0000
0000
1100
0000
,  // measure 18
0010
0011
0001
0202
0000
0003
0310
0000
,  // measure 19
2010
0000
0000
0000
3100
0010
0001
1000
0001
0010
0100
0000
0000
0000
2000
0000
,  // measure 20
0001
0100
0001
0010
3020
0100
2030
0100
,  // measure 21
3002
0000
0100
0000
0013
0100
1000
0010
0100
0001
2000
0000
3001
0000
1001
0000
,  // measure 22
0000
0000
0000
0000
0000
1000
0100
0000
0000
0000
0010
0000
0000
0000
0011
0000
,  // measure 23
0021
0000
0000
0000
0130
0010
0001
0010
0100
1000
0001
0000
0000
0000
1010
0000
,  // measure 24
0100
0101
0001
0021
0000
0000
0130
1100
,  // measure 25
0020
0000
0000
0000
0130
0010
0001
0010
0100
1000
0001
0000
1000
0000
0101
0000
,  // measure 26
0001
0011
0100
1200
0000
0000
0310
0011
,  // measure 27
0200
0000
0000
0000
1300
0010
0100
0001
0100
0010
1000
0000
0000
0000
0002
0000
,  // measure 28
1000
0010
1000
0100
0203
0010
0302
0010
,  // measure 29
2003
0000
0010
0000
3100
0010
0001
0100
0010
1000
0002
0000
1003
0000
1001
0000
,  // measure 30
0000
0000
0000
0000
0000
0001
0100
0000
0000
0000
0010
0000
0000
0000
1010
0000
,  // measure 31
2010
0000
0000
0000
3100
0010
0001
0010
0100
1000
0001
0000
0000
0000
0001
0000
,  // measure 32
0100
0100
0100
0001
0010
0100
0010
0011
,  // measure 33
0000
0011
0000
1000
0010
0010
0010
0100
,  // measure 34
0010
1000
0100
1100
0000
1100
0000
0001
,  // measure 35
0010
0010
0010
0100
0010
0001
0100
0101
,  // measure 36
0000
0101
0000
1000
0100
0100
0100
0010
,  // measure 37
0100
1000
0010
1010
0000
2020
3030
0002
,  // measure 38
0003
0020
0030
0200
0300
2000
3000
0010
,  // measure 39
0010
0100
0100
0001
1000
0001
2000
3000
,  // measure 40
0200
0300
0020
0030
0002
0003
0001
0010
,  // measure 41
0100
1000
0001
1000
0010
2020
3030
0202
,  // measure 42
0303
0022
0033
2200
3300
1000
1000
0100
,  // measure 43
0100
0010
0001
1000
0202
0303
2020
3030
,  // measure 44
2002
3003
0022
0033
0001
0010
0100
1000
,  // measure 45
0001
0100
0010
0000
2000
0010
3000
0010
,  // measure 46
0002
0000
0010
0000
0003
0000
0010
0000
2000
0000
0100
0000
3000
0000
0100
0001
,  // measure 47
0200
0000
0010
0000
0000
0000
0310
0000
0002
0000
1000
0000
0003
0000
1000
0010
,  // measure 48
2000
0000
0100
0000
3000
0000
0100
0000
0010
0001
0010
0001
0010
0000
0000
0100
,  // measure 49
2000
0000
0001
0000
0000
0000
3001
0000
0200
0000
0010
0000
0000
0000
0310
0100
,  // measure 50
0002
0000
1000
0000
0000
0000
1003
0000
0200
0000
0010
0000
0000
0000
0310
0001
,  // measure 51
0200
0000
0010
0000
0000
0000
0310
0000
1000
0100
1000
0100
1000
0001
1000
0001
,  // measure 52
1000
0010
1000
0010
0100
0001
0100
0001
0010
0100
0010
0100
0010
0000
0000
0001
,  // measure 53
1000
0200
0001
0300
1100
1000
1010
0100
,  // measure 54
0102
0000
0000
0000
0000
0000
0013
0000
0011
0000
0200
0000
0000
0000
1300
0100
,  // measure 55
0010
0100
1000
0001
0100
0000
0000
0000
0101
0000
0010
0000
1010
0000
1000
0000
,  // measure 56
1200
0000
0000
0000
0000
0000
0310
0000
0110
0000
2000
0000
0000
0000
3100
0010
,  // measure 57
0001
1000
0001
0100
0010
0000
0000
0000
0020
0000
0100
0000
0001
0000
0100
0000
,  // measure 58
1000
0000
2030
0000
0001
0000
3020
0000
0001
0000
0230
0000
1000
0000
0301
0010
,  // measure 59
0100
0001
0100
1000
0020
0000
0130
0000
1001
0000
0000
0000
0000
0000
0000
1000
,  // measure 60
0100
0000
0000
0000
0110
0000
0000
0000
0011
0000
0012
0000
0000
0000
0103
0010
,  // measure 61
1000
0100
0010
0001
1000
0000
0000
0000
1100
0000
0000
0000
0011
0000
0000
0000
,  // measure 62
1001
0000
0000
0000
;

//---------------dance-single - ----------------
#NOTES:
     dance-single:
     :
     Medium:
     7:
     0.479022,0.488644,0.286595,0.587519,0.042989,346.000000,40.000000,82.000000,0.000000,0.000000,0.000000,0.479022,0.488644,0.286595,0.587519,0.042989,346.000000,40.000000,82.000000,0.000000,0.000000,0.000000:
2000
0000
3100
1000
0002
0000
0103
0010
,
2000
0000
3100
0010
0200
0000
1300
0000
,
0002
0000
0103
0010
2000
0000
3001
0000
,
0010
0000
0100
0000
0010
0000
0000
0010
0200
0000
0000
0000
1300
0000
0000
0000
,
0002
0000
0103
0010
2000
0000
3100
0010
,
0020
0000
0031
1000
0002
0000
0103
0000
,
0001
0010
0100
1000
0001
0010
0100
1000
,
0001
0000
0100
0000
0010
0000
0000
0010
0100
0000
0000
0000
1001
0000
0000
0000
,
1000
0000
1000
0200
0010
0300
0010
0002
,
0100
0003
0100
0002
2003
0100
3100
0000
,
0020
0000
0031
2000
3020
0100
0130
0000
,
0001
0000
0010
0000
0100
0000
0000
0100
1000
0000
0001
0000
0100
0000
0000
0000
,
0120
0000
1030
0010
2010
0000
3001
0010
,
0021
0000
0130
1000
2100
0000
3001
0000
,
1000
0010
0100
0001
1000
0010
0100
0001
,
1000
0000
0100
0000
0010
0000
0000
0010
0200
0000
0000
0000
1300
0000
1100
0000
,
0000
1100
0000
1002
0000
0000
0103
0000
,
0020
0000
1030
0001
1000
0100
0000
0011
,
0000
0011
0000
2001
0000
0000
3010
0000
,
0200
0000
0310
1000
0001
1000
0000
0002
,
0000
0010
0000
1000
2003
0000
3020
0000
,
0230
0000
0310
1000
0001
0020
0130
0110
,
0000
0000
0000
0000
0000
1000
0100
0000
0000
0000
0010
0000
0000
0000
0001
0000
,
0002
0000
0013
0001
1000
0010
0000
0101
,
0000
0101
0000
2001
0000
0000
3100
0000
,
0020
0000
0031
1000
0001
0100
0000
1010
,
0000
1010
0000
1002
0000
0000
0013
0000
,
0200
0000
0310
0001
1000
0001
0000
2000
,
0000
0010
0000
0001
3002
0000
0023
0000
,
0230
0000
0310
0001
1000
0020
0130
0110
,
0000
0000
0000
0000
0000
0001
0100
0000
0000
0000
0010
0000
0000
0000
1000
0000
,
2000
0000
3010
1000
0001
0010
0000
0001
,
0010
0001
0000
0010
0100
1000
0000
1010
,
0000
1010
0000
1000
0010
1000
0000
1000
,
0100
0010
0000
0011
0000
0011
0000
0001
,
0100
0001
0000
1000
0100
0010
0000
0110
,
0000
0110
0000
1000
0001
0100
0000
0010
,
1000
0100
0000
0110
0000
0220
0330
0020
,
0030
0002
0003
0020
0030
0200
0300
1000
,
0100
1000
0000
0001
0100
0010
2000
3000
,
0200
0300
0020
0030
0002
0003
0010
0100
,
0010
0000
0001
1000
0100
2000
3000
0002
,
0003
0200
0300
0020
0030
1000
0010
0100
,
0001
1000
0010
0100
0002
0003
0020
0030
,
0200
0300
2000
3000
0001
0010
0100
1000
,
0001
0010
0100
0000
0002
0000
0013
0001
,
2000
0000
3010
0100
0002
0000
0013
0100
,
0020
0000
0031
0000
2000
0000
3010
0100
,
0002
0000
0000
0000
1003
0000
0000
0000
0100
0000
0010
0000
0100
0000
0000
0100
,
0020
0000
0031
0000
2000
0000
3010
0100
,
0002
0000
0013
0100
0200
0000
1300
0001
,
2000
0000
3010
0000
1000
0100
0010
0001
,
1000
0000
0100
0000
0010
0000
0001
0000
1000
0000
0010
0000
0100
0000
0000
0100
,
0010
1001
1100
1100
,
1002
0000
0000
0103
0000
0020
0000
1030
,
0001
1000
0100
0000
0011
0000
0011
0000
,
2001
0000
0000
3010
0000
0200
0000
0310
,
1000
0001
1000
0000
0200
0010
2300
0010
,
0001
0000
3002
0000
0100
0000
2003
0000
0100
0000
3002
0000
0013
0000
1000
0010
,
1000
0010
1000
0001
0020
0000
0130
0000
1001
0000
0000
0000
0000
0000
0000
1000
,
0100
0000
0010
0000
0011
0011
0000
1000
,
0001
1000
0010
0000
1100
0000
0101
0000
,
0110
0000
0000
0000
;

//---------------dance-single - ----------------
#NOTES:
     dance-single:
     :
     Easy:
     5:
     0.246676,0.266533,0.164792,0.229276,0.000000,186.000000,23.000000,32.000000,0.000000,0.000000,0.000000,0.246676,0.266533,0.164792,0.229276,0.000000,186.000000,23.000000,32.000000,0.000000,0.000000,0.000000:
1000
0000
0001
0000
,
1000
0000
0010
0000
,
0100
0000
0001
0000
,
1000
1000
1000
0000
,
1001
0000
0110
0000
,
1001
0000
0110
0000
,
0001
1000
0001
1000
,
0100
0100
0200
0300
,
0010
0000
0001
0000
,
1000
0000
0001
0000
,
0100
0000
0010
0000
,
1000
1000
1000
0000
,
1100
0000
0101
0000
,
1100
0000
0101
0000
,
1000
0001
1000
0001
,
0100
0000
0100
0000
0200
0000
0300
0010
,
0000
0010
0000
0020
0000
0000
0000
1030
,
0000
0000
0000
0001
0000
0001
0000
0010
,
0000
0010
0000
0020
0000
0000
0000
0130
,
0000
0000
0000
1000
0000
0001
0000
0200
,
0000
0000
0000
0301
0002
0000
2003
0000
,
3200
0000
0000
0310
0000
0100
0000
1001
,
0000
0000
0000
1000
0000
0100
0000
0020
,
0000
0000
0000
0031
0000
1001
0000
0001
,
0000
0001
0000
0002
0000
0000
0000
0103
,
0000
0000
0000
0010
0000
0010
0000
1000
,
0000
1000
0000
2000
0000
0000
0000
3001
,
0000
0000
0000
0010
0000
0001
0000
0200
,
0000
0000
0000
0301
0002
0000
2003
0000
,
3200
0000
0000
0310
0000
0100
0000
1001
,
0000
0000
0000
0001
0000
0100
0000
0020
,
0000
0000
0000
1030
0000
1001
0000
0001
,
0000
0000
0000
1000
0000
0000
0000
0100
,
0000
0100
0000
0010
0000
0000
0000
0100
,
0000
0000
0000
1000
0000
1000
0000
0001
,
0000
0000
0000
0100
0000
0000
0000
0010
,
0000
0010
0000
0100
0000
0000
0000
0001
,
0000
0000
0000
1000
0000
1001
0000
1000
,
0000
0100
0000
0010
0000
0001
0000
1000
,
0000
0010
0000
1000
0000
0001
0001
0000
,
0100
0010
1000
0001
,
1000
0000
0100
0000
0010
0002
0003
0020
,
0030
0200
0300
2000
3000
0001
0000
1000
,
0000
0010
0000
0100
0020
0030
2000
3000
,
0002
0003
0200
0300
0001
0000
1000
0000
,
0100
0110
0001
0000
,
1000
0000
0001
0000
,
0100
0000
0010
0000
,
1000
0000
0001
0001
,
0001
0000
1001
0000
,
0110
0000
1001
0000
,
0110
0000
1000
0001
,
1000
0001
0010
0010
,
0020
0030
0100
0100
,
0200
0000
1300
0000
,
0001
0001
0100
0100
,
0200
0000
0310
0000
,
1000
0001
0020
0000
,
0031
0002
0000
2003
0000
3020
0000
0000
,
0130
0010
1001
0000
,
0001
0100
0020
0000
,
1030
1001
1010
1001
,
0110
0000
0000
0000
;
