#TITLE:Hideous;
#SUBTITLE:(Haywyre Remix);
#ARTIST:Noisia & BSE;
#TITLETRANSLIT:;
#SUBTITLETRANSLIT:;
#ARTISTTRANSLIT:;
#GENRE:;
#CREDIT:;
#BANNER:[Speed Changes] - Hideous (Haywyre Remix)-bn.png;
#BACKGROUND:[Speed Changes] - Hideous (Haywyre Remix)-bg.png;
#LYRICSPATH:;
#CDTITLE:cdtitle.png;
#MUSIC:[Speed Changes] - Hideous (Haywyre Remix).ogg;
#OFFSET:-0.092000;
#SAMPLESTART:38.508999;
#SAMPLELENGTH:13.000004;
#SELECTABLE:YES;
#DISPLAYBPM:100.000000;
#BPMS:0.000000=100.000000
,46.000000=50.000000
,47.000000=100.000000
,69.000000=50.000000
,69.500000=100.000000
,72.500000=50.000000
,73.000000=100.000000
,74.000000=249.999985
,75.000000=200.000000
,75.666664=50.000000
,76.000000=249.999985
,76.125000=62.499996
,76.250000=249.999985
,76.375000=62.499996
,76.500000=249.999985
,76.625000=62.499996
,76.750000=249.999985
,76.875000=62.499996
,77.000000=100.000000
,84.500000=249.999985
,84.625000=62.499996
,84.750000=249.999985
,84.875000=62.499996
,85.000000=100.000000
,93.000000=200.000000
,94.000000=100.000000
,100.000000=50.000000
,100.500000=100.000000
,103.500000=50.000000
,104.000000=100.000000
,105.000000=249.999985
,106.000000=200.000000
,106.666664=50.000000
,107.000000=249.999985
,107.125000=62.499996
,107.250000=249.999985
,107.375000=62.499996
,107.500000=249.999985
,107.625000=62.499996
,107.750000=249.999985
,107.875000=62.499996
,108.000000=100.000000
,123.000000=200.000000
,124.000000=100.000000
,138.000000=200.000000
,140.000000=100.000000
,155.500000=150.000000
,156.000000=100.000000
,163.500000=150.000000
,164.000000=100.000000
,169.000000=175.000000
,170.000000=200.000000
,171.000000=225.000000
,172.000000=100.000000
;
#STOPS:61.000000=0.600000,
74.000000=0.180000,
74.500000=0.180000,
93.000000=0.300000,
105.000000=0.180000,
105.500000=0.180000,
123.000000=0.050000,
123.166664=0.050000,
123.333336=0.050000,
123.500000=0.050000,
123.666664=0.050000,
123.833336=0.050000,
138.000000=0.150000,
138.500000=0.150000,
139.000000=0.150000,
139.500000=0.150000,
155.500000=0.033000,
155.666672=0.034000,
155.833328=0.033000,
163.500000=0.033000,
163.666672=0.034000,
163.833328=0.033000,
169.000000=0.043000,
169.166672=0.043000,
169.333328=0.042000,
169.500000=0.043000,
169.666672=0.043000,
169.833328=0.043000,
170.000000=0.050000,
170.166672=0.050000,
170.333328=0.050000,
170.500000=0.050000,
170.666672=0.050000,
170.833328=0.050000,
171.000000=0.056000,
171.166672=0.055000,
171.333328=0.056000,
171.500000=0.055000,
171.666672=0.056000,
171.833328=0.055000
;
#BGCHANGES:;
#KEYSOUNDS:;
#ATTACKS:;

//---------------dance-single - ----------------
#NOTES:
     dance-single:
     :
     Hard:
     7:
     0.380689,0.492139,0.430529,0.282071,0.330320,359.000000,301.000000,58.000000,38.000000,55.000000,0.000000,0.380689,0.492139,0.430529,0.282071,0.330320,359.000000,301.000000,58.000000,38.000000,55.000000,0.000000:
0000
0000
0000
0000
,
0000
0000
0000
0000
,
0000
0000
0000
0000
,
0000
0000
0000
0000
,
0010
0000
0000
0000
0000
1010
0000
0000
0000
0000
0000
0000
0100
0000
0000
0001
0000
0000
1000
0000
0000
0000
0000
0000
,
0001
0000
0000
0000
0000
0011
0000
0000
0000
0010
0000
0000
0100
0000
0000
1000
0000
0000
0100
0000
0000
0000
0000
0000
,
1000
0000
0000
0000
0000
1001
0000
0000
0000
0000
0000
0000
0001
0000
0000
0100
0000
0000
0010
0000
0000
1000
0000
0000
,
0001
1000
0100
0010
0001
1000
1100
0000
,
1002
0100
0100
0100
,
0203
0010
0010
0010
,
0320
1000
1000
1000
,
2030
0000
0001
0000
3002
0000
0013
0100
,
0010
0001
1000
0100
0010
0100
1000
0010
,
0001
0010
1000
0001
0100
1000
0100
0001
,
1000
0100
0010
0001
0100
0010
4000
0000
,
0000
0000
0000
3000
0000
0000
1001
0000
0000
0000
0000
0000
0011
0000
0000
0000
0000
0001
0100
0000
0000
0201
0000
0000
,
0300
1010
1000
0001
0100
1000
0100
0120
,
1030
0000
0000
0001
0000
0000
2001
0000
0000
3001
0000
0000
0010
0000
0000
1100
0000
0000
0100
0000
1000
0001
0000
0000
,
1000
0000
0000
1020
0000
0000
0230
0000
0000
0300
0000
0010
1000
0000
0000
1000
0000
0000
1002
0000
0000
0000
0000
0000
,
0043
0000
0000
0000
0000
0000
0130
0000
0000
1000
0000
0001
1000
0000
0000
0220
0000
0000
0330
0000
0000
0110
0000
0000
,
2M02
00M0
0M00
00M0
0M00
00M0
0M00
00M0
0M00
00M0
0M00
00M0
3M03
0000
0000
0000
0000
0000
1100
0000
0000
0000
0000
0000
1000
0000
0000
0000
0000
0000
2002
0000
0000
0000
0000
0000
3003
0000
0000
0000
0000
0000
1001
0000
0000
0000
0000
0000
,
0101
0000
0000
0040
0000
0000
1030
0000
0000
0100
0000
0010
0100
0000
0000
2002
0000
0000
3003
0000
0000
1001
0000
0000
,
M220
000M
M000
000M
M000
000M
M000
000M
M000
000M
M000
000M
M000
000M
M000
000M
M000
000M
M000
000M
M000
000M
M000
000M
M330
0000
0000
0000
0000
0000
0000
0000
0000
0000
0000
0000
2020
0000
0000
0000
0000
0000
0000
0000
0000
0000
0000
0000
,
3030
1000
11MM
0000
0001
0011
0000
0101
,
0010
0100
0010
0100
0010
0000
0100
0000
0101
0000
1002
0000
1003
0000
0100
0000
,
0210
0000
0000
0310
0000
0000
0001
0000
0000
0011
0000
0000
1000
0000
0001
1000
0000
0000
0001
0000
0000
0201
0000
0000
,
0320
0000
0000
0000
0000
0130
0001
0000
0000
0001
0000
0000
0020
0000
0000
0000
0000
0000
0430
0000
0000
0000
0000
0000
,
2300
0001
0100
0001
,
3200
0010
0001
0010
,
0302
1000
0010
1000
,
0023
0000
0000
0000
0000
0000
0000
0000
0000
0000
0000
0000
0000
0000
0000
0000
0000
0000
0M00
0M00
0M00
0M00
0M00
0M00
,
2030
0100
0000
0010
,
3002
0010
0000
1000
,
0M03
0000
0000
0000
0000
00M0
0000
0000
0000
M000
0000
0000
0000
0000
0000
0M00
0000
0000
000M
0000
0000
0000
0000
0000
,
M000
0000
0000
0000
0000
000M
0000
0000
0000
00M0
0000
0000
0100
0000
0000
0100
0000
0000
0100
0000
0000
0100
0000
0000
,
1000
0000
0000
0000
0000
1010
0000
0000
0000
0001
0000
0000
0101
0000
0000
0001
0000
0000
1001
0000
0000
0000
0000
0000
,
1000
0000
0000
0000
0000
1100
0000
0000
0000
0001
0000
0000
0011
0000
0000
0010
0000
0000
0110
0000
0000
0000
0000
0000
,
0100
0000
1000
0000
0000
1010
0000
0000
0000
0010
0000
0000
1010
0000
0000
1000
0000
0000
1001
0000
0000
0000
0000
0000
,
0001
0000
0010
0001
0000
0000
1001
0000
0000
1000
0000
0000
1010
0000
0000
0010
0000
0000
0101
0000
0000
0001
1000
0001
,
1000
0000
0000
0000
0000
1100
0000
0000
0000
0010
0000
0000
0011
0000
0000
0001
0000
0000
0101
0000
0000
0000
0000
0000
,
1000
0000
0000
0000
0000
1010
0000
0000
0000
0001
0000
0000
1001
0000
0000
1000
0000
0000
1100
0000
0000
0100
0010
0100
,
0010
0000
0001
0000
0000
1001
0000
0000
0000
1000
0000
0000
1010
0000
0000
0001
0000
0000
0101
0000
0000
0000
0000
0000
,
1004
0403
0340
4030
,
3001
0000
0000
0000
0000
0000
0010
0000
0000
0001
0000
0000
0000
0000
0000
0000
0001
0000
1000
0000
0000
0000
1000
0000
0010
0000
0000
0000
0000
0000
0001
0000
0000
0000
0000
0000
0010
0000
0000
0000
0000
0000
1000
0000
0000
0000
1000
0000
,
0001
0000
0000
0000
0000
0000
0100
0000
0000
0001
0000
0000
0000
0000
0000
0000
0001
0000
1000
0000
0000
0000
1000
0000
0100
0000
0000
0000
0000
0000
0001
0000
0000
0000
0000
0000
0100
0000
0000
0000
0000
0000
1000
0000
0000
0000
1000
0000
,
0010
0000
0000
0000
0000
0000
0000
0000
0000
0000
0100
0000
0001
0000
0000
0000
0000
0000
0001
0000
0000
0010
0000
0000
0000
0000
0000
0000
0100
0000
1000
0000
0000
0000
0000
0000
1001
0000
0000
0000
0000
0000
0010
0000
0000
0000
0010
0000
,
0100
0000
0000
0000
0000
0000
0000
0000
0000
0000
0010
0000
1000
0000
0000
0000
0000
0000
1000
0000
0000
0100
0000
0000
0000
0000
0000
0000
0010
0000
0001
0000
0000
0000
0000
0000
1001
0000
0000
0000
0000
0000
0100
0000
0000
0000
0100
0000
,
0001
0000
0000
0000
0000
0000
1000
0000
0000
0100
0000
0000
0000
0000
0000
0000
0100
0000
1000
0000
0000
0000
1000
0000
0001
0000
0000
0000
0000
0000
0100
0000
0000
0000
0000
0000
0001
0000
0000
0000
0000
0000
1000
0000
0000
0000
0010
0000
,
1000
0000
0000
0000
0000
0000
0001
0000
0000
0010
0000
0000
0000
0000
0000
0000
0010
0000
0001
0000
0000
0000
0001
0000
1000
0000
0000
0000
0000
0000
0010
0000
0000
0000
0000
0000
1000
0000
0000
0000
0000
0000
0001
0000
0000
0000
0100
0000
,
0001
0000
0000
0000
0000
0000
0000
0000
0000
0000
0010
0000
0100
0000
0000
0000
0000
0000
0010
0000
0000
0001
0000
0000
0000
0000
0000
0000
0001
0000
1000
0000
0000
0000
0000
0000
1010
0000
0000
0000
0000
0000
0010
0000
0000
0000
0100
0000
,
0020
0230
0302
2003
,
3M00
0000
0000
0000
;

//---------------dance-single - ----------------
#NOTES:
     dance-single:
     :
     Challenge:
     8:
     0.443254,0.548924,0.460221,0.311762,0.545584,418.000000,356.000000,62.000000,42.000000,70.000000,0.000000,0.443254,0.548924,0.460221,0.311762,0.545584,418.000000,356.000000,62.000000,42.000000,70.000000,0.000000:
// measure 0
0000
0000
0000
0000
,  // measure 1
0000
0000
0000
0000
,  // measure 2
0000
0000
0000
0000
,  // measure 3
0000
0000
0000
0000
,  // measure 4
0002
0000
0000
0000
0000
1000
0003
0000
0010
0100
0000
0100
0001
0000
0001
0000
0000
1000
0000
0000
0001
0000
0000
0000
,  // measure 5
2000
0000
0000
0000
0000
3001
0000
0000
0100
0010
0000
0010
1000
0000
0100
0000
0000
1000
0000
0000
0001
0100
0000
0100
,  // measure 6
0020
0000
0000
0000
0000
1030
0000
0000
0001
1000
0000
1000
0100
0000
0010
0000
0000
0001
0000
0000
1000
0000
0000
0000
,  // measure 7
0020
0000
0000
0000
0000
0130
0000
0000
0001
1000
0000
1000
0001
0000
0000
0010
0000
0000
0110
0000
0000
0000
0000
0000
,  // measure 8
2100
0000
0001
0000
0100
0000
0001
3000
,  // measure 9
0102
0000
1000
0000
0100
0000
1000
0003
,  // measure 10
2010
0001
0010
3001
,  // measure 11
0012
0000
0000
0000
0000
0000
0000
0000
0000
0000
0000
0000
1003
0000
0000
0000
0000
0000
0000
0000
0000
0000
0000
0000
M22M
0000
M00M
0000
M00M
0000
M00M
0000
M00M
0330
M00M
0000
1000
0000
0000
0010
0000
0000
1000
0000
0000
0000
0000
0000
,  // measure 12
0010
0100
0010
0000
0100
0001
0100
0000
0001
1000
0001
0000
0010
0100
1000
0000
,  // measure 13
0001
0010
0100
0000
1000
0001
0100
0000
0010
1000
0001
0000
1000
0100
1000
0100
,  // measure 14
0010
0001
0010
0001
1000
0010
1000
0010
0100
0001
0100
0004
4000
0000
0000
0000
,  // measure 15
0000
0000
0000
0000
0000
0000
3MM3
0000
0000
0000
0000
0000
0220
0000
0000
0330
0000
0100
1100
0000
0000
2002
0000
0000
,  // measure 16
3003
0001
0102
0103
1001
1000
0100
0012
,  // measure 17
1003
0000
0000
1010
0000
0000
0210
0000
0000
0310
0000
0000
0100
0000
0000
0101
0000
0000
0001
0000
0001
0100
0000
0100
,  // measure 18
0010
0000
0000
1020
0000
0000
1030
0000
0000
0001
0000
0001
0010
0000
0000
0110
0000
0000
0220
0000
0000
0000
0330
0000
,  // measure 19
4000
0000
0000
3004
0000
0000
4003
0000
0000
3004
0000
0000
1003
0000
0000
0000
0000
0000
0001
0000
0000
0000
0001
0000
0100
0000
0000
0000
0000
0000
1010
0000
0000
0000
0000
0000
1000
0000
0000
0000
1000
0000
0001
0000
0000
0000
0000
0000
,  // measure 20
20M2
0M00
00M0
0M00
00M0
0M00
00M0
0M00
00M0
0M00
00M0
0M00
30M3
0000
0000
0000
0000
0000
0010
0000
0000
0000
0000
0000
0110
0000
0000
0000
0000
0000
0100
0000
0000
0000
0100
0000
1000
0000
0000
0000
1000
0000
0001
0000
0000
0000
0000
0000
,  // measure 21
1001
0000
0000
0000
0000
0000
0400
0000
0000
0340
0000
0000
0130
0000
0000
0000
0000
0000
0001
0000
0000
0000
0001
0000
1000
0000
0000
0000
0000
0000
1100
0000
0000
0000
0000
0000
1000
0000
0000
0000
1000
0000
0001
0000
0000
0000
0000
0000
,  // measure 22
2M02
00M0
0M00
00M0
0M00
00M0
0M00
00M0
0M00
00M0
0M00
00M0
0M00
00M0
0M00
00M0
0M00
00M0
0M00
00M0
0M00
00M0
0M00
00M0
3M03
0000
0000
0000
0000
0000
0000
0000
0000
0000
0000
0000
0220
0000
0000
0000
0000
0000
0000
0000
0000
0000
0000
0000
,  // measure 23
0330
0010
1M1M
0100
0101
1001
0000
1100
,  // measure 24
0100
0000
0000
0010
0000
0000
0001
0000
1000
0000
0001
0000
1000
0000
0000
0000
0000
0000
0010
0000
0000
0000
0000
0000
0100
0000
0000
0000
0000
0000
0210
0000
0000
0000
0000
0000
0310
0000
0000
0000
0000
0000
0101
0000
0000
0000
0000
0000
,  // measure 25
2001
0000
0000
3100
0000
0000
0010
0000
0000
0011
0000
0000
1000
0000
1000
0001
0000
0001
0100
0000
0000
0201
0000
0000
,  // measure 26
0310
0000
0000
0000
0000
0000
1000
0000
0000
0000
1000
0000
0001
0000
0000
0000
0000
0000
1001
0000
0000
0000
0000
0000
2002
0000
0000
0000
0000
0000
0000
0000
3003
0000
0000
0000
0400
0000
0000
0340
0000
0000
0430
0000
0000
0340
0000
0000
,  // measure 27
0032
0100
1000
0100
,  // measure 28
2003
0010
0001
0010
,  // measure 29
3200
0001
1000
0001
,  // measure 30
0320
0000
0000
0000
0000
0000
0000
0000
0000
0000
0000
0000
0000
0000
0000
0000
0000
0000
0M00
0M00
0M00
0M00
0M00
0M00
,  // measure 31
0M32
0100
0000
1000
,  // measure 32
2003
0100
0000
0001
,  // measure 33
30M0
0000
0000
0000
0000
0M00
0000
0000
0000
M000
0000
0000
0000
0000
0000
000M
0000
0000
M000
0000
0000
0000
0000
0000
,  // measure 34
0M00
0000
0000
0000
0000
00M0
0000
0000
0000
000M
0000
0000
4000
0000
0000
0000
0000
0000
0000
0000
0000
3000
0000
0000
,  // measure 35
0001
0000
0000
0000
0000
0101
0000
0000
0000
1010
0000
0000
0100
0000
0000
0001
0000
0000
1001
0000
0000
0000
0000
0000
,  // measure 36
1000
0000
0100
0000
0000
1100
0000
0000
0000
0110
0000
0000
0010
0000
0000
0001
0000
0000
1001
0000
0000
0000
0000
0000
,  // measure 37
0001
0000
1000
0000
0000
1010
0000
0000
0000
0110
0000
0000
1000
0000
0000
0100
0000
0000
1100
0000
0000
0000
0000
0000
,  // measure 38
1000
0000
0001
1000
0000
0000
1001
0000
0000
0001
0000
0000
0100
0000
0000
0010
0000
0000
1000
0000
0000
0001
1000
0001
,  // measure 39
1000
0000
0000
0000
0000
1100
0000
0000
0000
1001
0000
0000
0010
0000
0000
0100
0000
0000
0101
0000
0000
0000
0000
0000
,  // measure 40
0001
0000
1000
0000
0000
1010
0000
0000
0000
0110
0000
0000
1000
0000
0000
0001
0000
0000
1001
0000
0000
0100
0010
0100
,  // measure 41
0010
0001
0010
0100
1000
0010
0110
0000
,  // measure 42
0104
0043
0430
4300
,  // measure 43
3001
0000
0000
0000
0000
0000
0010
0000
0000
0001
0000
0000
0000
0000
0000
0000
0001
0000
0100
0000
0000
0000
0100
0000
0010
0000
0000
0000
0000
0000
2010
0000
0000
0000
0000
0000
3001
0000
0000
0000
1000
0000
0001
0000
0000
0000
0001
0000
,  // measure 44
0010
0000
0000
0000
0000
0000
0100
0000
0000
1000
0000
0000
0000
0000
0000
0000
1000
0000
0010
0000
0000
0000
0010
0000
0100
0000
0000
0000
0000
0000
0102
0000
0000
0000
0000
0000
1003
0000
0000
0000
0001
0000
0010
0000
0000
0000
0010
0000
,  // measure 45
0100
0000
0000
0000
0000
0000
0000
0000
0000
0000
1000
0000
1100
0000
0000
0000
0000
0000
0001
0000
0000
1000
0000
0000
0000
0000
0000
0000
1000
0000
0010
0000
0000
0000
0000
0000
0101
0000
0000
0000
0000
0000
0100
0000
0000
0000
0100
0000
,  // measure 46
0001
0000
0001
0010
0000
0010
1000
0000
1000
0010
0000
0010
0000
0000
0001
1000
0000
1000
0010
0000
0010
0100
0000
0100
,  // measure 47
0001
0000
0000
0000
0000
0000
0010
0000
0000
1000
0000
0000
0000
0000
0000
0000
0010
0000
0001
0000
0000
0000
0001
0000
0100
0000
0000
0000
0000
0000
0120
0000
0000
0000
0000
0000
1030
0000
0000
0000
0001
0000
0100
0000
0000
0000
0100
0000
,  // measure 48
0001
0000
0000
0000
0000
0000
0010
0000
0000
0100
0000
0000
0000
0000
0000
0000
1000
0000
0001
0000
0000
0000
0001
0000
1000
0000
0000
0000
0000
0000
1020
0000
0000
0000
0000
0000
0130
0000
0000
0000
0000
0000
0001
0000
0000
0000
0001
0000
,  // measure 49
1000
0000
0000
0000
0000
0000
0000
0000
0000
0000
1000
0000
1100
0000
0000
0000
0000
0000
0001
0000
0000
0100
0000
0000
0000
0000
0000
0000
0100
0000
0010
0000
0000
0000
0000
0000
0110
0000
0000
0000
0000
0000
1000
0000
0000
0000
1000
0000
,  // measure 50
0004
0043
0430
2300
,  // measure 51
300M
0000
0000
0000
;

//---------------dance-single - ----------------
#NOTES:
     dance-single:
     :
     Medium:
     5:
     0.258742,0.340712,0.230110,0.356300,0.085363,244.000000,213.000000,31.000000,48.000000,34.000000,0.000000,0.258742,0.340712,0.230110,0.356300,0.085363,244.000000,213.000000,31.000000,48.000000,34.000000,0.000000:
0000
0000
0000
0000
,
0000
0000
0000
0000
,
0000
0000
0000
0000
,
0000
0000
0000
0000
,
2000
0000
3000
0000
1000
0001
0100
0000
,
0002
0000
0003
0000
0001
1000
0100
0000
,
0020
0000
0031
0000
1000
0001
1000
0000
,
0010
0100
0001
1001
,
2000
0000
0000
3000
,
0200
0000
0000
0300
,
0020
0000
0000
0030
,
0002
0003
2001
3010
,
0100
0001
1000
0100
,
0001
0000
0100
0000
1000
0000
0001
0100
,
0001
0000
1000
0010
1000
0000
0220
0000
,
0000
0000
M33M
0000
1001
0000
1000
1100
,
0000
0011
0010
0001
0010
0000
0100
1000
,
0001
1000
2000
3010
0001
0010
1000
0000
,
0001
0000
0000
0002
0000
0000
1003
0000
0000
0000
0000
0000
0100
0000
0000
0100
0000
0000
0220
0000
0000
0000
0330
0000
,
0002
0003
0002
0003
1000
0000
0010
0000
0100
0000
0100
0000
0000
0000
0001
0000
,
2M02
00M0
0M00
00M0
0M00
00M0
3M03
0000
0000
1000
0000
0000
1010
0000
0000
1000
0000
0000
0100
0000
0000
0010
0000
0000
,
0001
0000
0002
0003
0100
0000
0001
0000
0001
0000
0011
0000
0000
0000
0010
0000
,
022M
M000
000M
M000
000M
M000
000M
M000
000M
M000
000M
M000
033M
0000
0000
0000
0000
0000
2002
0000
0000
0000
0000
0000
,
3003
1000
2020
0000
3030
1010
0000
0001
,
1001
1000
0100
0001
0100
1000
0100
0100
,
2000
3010
0001
0010
1000
0010
0010
0200
,
0301
0000
0000
0000
0000
0000
1000
0000
0000
1000
0000
0000
2002
0000
0000
0000
3003
0000
0200
0000
0000
0000
0000
0000
,
0320
0000
0000
0030
,
0002
0000
0000
0003
,
0200
0000
0000
0300
,
0020
0000
0000
0000
0000
0000
0000
0000
0000
0000
0000
0000
0000
0000
0000
0000
0000
0000
M030
M000
M000
M000
M000
0000
,
2000
0100
0000
0010
,
3002
0100
0000
0010
,
M003
000M
00M0
0M00
,
M000
000M
0200
0320
,
1030
0000
0000
0000
0000
1001
0000
0000
0000
0001
0000
0000
0100
0000
0000
0001
0000
0000
0100
0000
0000
0000
0000
0000
,
0010
0000
0000
0000
0000
1010
0000
0000
0000
1000
0000
0000
0001
0000
0000
1000
0000
0000
0001
0000
0000
0000
0000
0000
,
0010
0011
0001
1001
,
1000
0010
0010
1000
0100
0000
0011
0002
,
1003
0000
0000
0000
0000
1001
0000
0000
0000
0001
0000
0000
0100
0000
0000
0001
0000
0000
0100
0000
0000
0000
0000
0000
,
0010
0000
0000
0000
0000
1010
0000
0000
0000
1000
0000
0000
0100
0000
0000
1000
0000
0000
0100
0000
0000
0020
0000
0000
,
0031
0101
0100
0110
,
2010
3002
0023
0230
,
1300
0000
0000
0000
0000
0010
0000
0000
0000
0100
0000
0000
0001
0000
0000
0001
0000
0000
1000
0000
0000
0100
0000
0000
,
0100
0000
0000
0000
0000
0001
0000
0000
0000
0100
0000
0000
0100
0000
0000
1000
0000
0000
0001
0000
0000
0100
0000
0000
,
0100
0000
0010
0110
0000
1000
1001
0001
,
0010
1000
0010
0001
0000
1000
1010
0010
,
1000
0000
0000
0000
0000
0001
0000
0000
0000
0010
0000
0000
0010
0000
0000
0100
0000
0000
1000
0000
0000
0001
0000
0000
,
0001
0000
0000
0000
0000
1000
0000
0000
0000
0010
0000
0000
0010
0000
0000
0100
0000
0000
0001
0000
0000
1000
0000
0000
,
1000
0000
0100
0110
0000
0001
1001
1000
,
0020
0230
0302
2003
,
300M
0000
0000
0000
;

//---------------dance-single - ----------------
#NOTES:
     dance-single:
     :
     Easy:
     3:
     0.216325,0.283926,0.192996,0.334031,0.029692,204.000000,178.000000,26.000000,45.000000,27.000000,0.000000,0.216325,0.283926,0.192996,0.334031,0.029692,204.000000,178.000000,26.000000,45.000000,27.000000,0.000000:
0000
0000
0000
0000
,
0000
0000
0000
0000
,
0000
0000
0000
0000
,
0000
0000
0000
0000
,
0010
1010
1000
1000
,
0001
0011
0010
0010
,
0100
1100
1000
1000
,
0001
0100
0010
1000
,
0002
0000
0000
0003
,
0020
0000
0000
0030
,
0200
0000
0000
0300
,
2000
3000
1002
1003
,
0010
0001
0100
1000
,
0010
0100
0001
0010
,
1000
0100
0001
2000
,
0000
0000
3MM1
0000
1001
0000
1000
0010
,
0000
0010
1000
0000
0100
0000
0010
0010
,
0010
0000
0012
0013
0000
1000
0000
0010
,
0000
0120
0130
0000
0001
0001
2002
0000
,
3003
0000
1000
1000
0001
0002
0003
0010
,
022M
M000
000M
M000
033M
0000
0000
0000
1001
0000
0000
0000
1000
0000
1000
0000
,
1000
0000
0010
0010
0100
0200
0300
0001
,
2M02
00M0
0M00
00M0
0M00
00M0
0M00
00M0
3M03
0000
0000
0000
2200
0000
0000
0000
,
3300
0000
0202
0000
0303
0001
0000
0001
,
1000
1000
1000
0000
0001
0100
0001
0000
,
2001
3001
0000
0010
0000
0100
0000
1200
,
1300
0000
0010
0010
0220
0000
0330
0000
,
2000
0000
0000
3000
,
0200
0000
0000
0300
,
0002
0000
0000
0003
,
0020
0000
0000
0000
0000
0000
0000
0000
0000
0000
0000
0000
0M30
0M00
0M00
0M00
,
2000
0100
0000
3100
,
0002
0010
0000
0013
,
M000
000M
0M00
00M0
,
M000
000M
2000
0000
,
3001
0000
0101
0000
0100
0100
0001
0000
,
1000
0000
1100
0000
0100
0100
1000
0000
,
1020
0230
0302
2003
,
3001
0001
0001
0000
1000
0000
1000
0000
,
0001
0000
0011
0000
0010
0010
0001
0000
,
1000
0000
1010
0000
0010
0010
1000
0000
,
1200
0320
0032
2003
,
3020
0000
0230
0000
,
0301
0000
0101
0000
0001
1000
0001
0000
,
1000
0000
1100
0000
1000
0001
1000
0001
,
0100
0000
0100
0010
0000
0010
1000
0001
,
1000
0000
0001
0010
0000
0010
0001
1000
,
0001
0100
0001
0000
1000
0000
1010
0000
,
1000
0100
1000
0000
0001
0000
0011
0010
,
0001
0000
1000
0001
0000
0001
1000
0010
,
2000
3200
0320
0032
,
M003
0000
0000
0000
;
