#TITLE:ヒデオ体操第一;
#SUBTITLE:;
#ARTIST:すわパンチとギターの人;
#TITLETRANSLIT:Hideo taisou daiichi;
#SUBTITLETRANSLIT:;
#ARTISTTRANSLIT:SUWAPUNCH TO GUITAR NO HITO;
#CREDIT:;
#BANNER:Hideo taisou daiichi.png;
#BACKGROUND:;
#LYRICSPATH:;
#CDTITLE:;
#MUSIC:Hideo taisou daiichi.mp3;
#OFFSET:-0.050;
#SAMPLESTART:91.520;
#SAMPLELENGTH:9.720;
#SELECTABLE:YES;
#DISPLAYBPM:35.000:200.000;
#BPMS:0.000=95.000,24.000=150.000,32.000=140.000,34.000=135.000,36.000=130.000,37.000=118.000,38.000=95.000,39.000=60.000,40.000=175.001,48.000=178.001,52.000=183.000,56.000=188.000,60.000=192.000,64.000=200.000,68.000=100.000,73.000=130.000,77.000=70.000,83.000=35.000,84.000=70.000,90.000=35.000,91.000=80.000,107.000=50.000,108.000=200.000,140.000=120.000,144.000=90.000,156.000=120.000,160.000=140.000,168.000=130.000,169.000=100.000,170.000=75.000,171.000=60.000,172.000=175.000,180.000=178.000,184.000=183.000,188.000=188.000,192.000=192.000,196.000=200.000,200.000=100.000,209.000=120.000;
#STOPS:;
#BGCHANGES:0.000=Hideo taisou daiichi.avi=1.000=1=1=0,
99999=-nosongbg-=1.000=0=0=0 // don't automatically add -songbackground-
;

//---------------dance-single - ----------------
#NOTES:
     dance-single:
     :
     Hard:
     8:
     0.496,0.556,0.260,0.285,0.247: // measure 1
0000
0000
0000
0000
,  // measure 2
0000
0000
0000
0000
,  // measure 3
0001
0000
0000
0100
0000
0000
0001
0000
0000
0000
0000
0001
1000
0000
0000
0100
0000
0000
1000
0000
0000
1001
0000
0000
,  // measure 4
0001
0000
0000
0010
0000
0000
0100
0000
0000
0000
0000
0010
0100
0000
0000
1000
0000
0000
0001
0000
0000
1001
0000
0000
,  // measure 5
1000
0000
0000
0010
0000
0000
0100
0000
0000
0000
0000
0001
1000
0000
0000
0100
0000
0000
0010
0000
0000
0110
0000
0000
,  // measure 6
2002
0000
0000
3003
,  // measure 7
1000
0000
0000
0000
1000
0000
0000
1000
0010
0000
0100
0000
0000
0000
0010
0000
,  // measure 8
0100
0000
0000
0000
0001
0000
0000
0001
0010
0000
0100
0000
0000
0000
0010
0000
,  // measure 9
0001
1000
0100
0010
0001
0100
0010
1000
,  // measure 10
0001
0000
1000
0001
1000
0000
0100
0010
0200
0000
0000
0000
0310
0000
0000
0000
,  // measure 11
2002
0000
0000
0000
3003
0001
1000
0001
,  // measure 12
0200
0000
0310
1000
0200
0000
0310
0001
,  // measure 13
1000
0100
0010
0100
1000
0000
0001
0000
,  // measure 14
2000
0000
3010
1000
0002
0000
0013
0001
,  // measure 15
0100
0010
1000
0100
0010
0000
0001
0000
,  // measure 16
0100
0001
0100
0001
1000
0010
1000
0010
,  // measure 17
1000
0100
0010
0001
1000
0010
0100
0001
,  // measure 18
1001
0000
0000
0000
0000
0000
0000
2000
0002
0000
0000
0000
0000
0000
0000
0000
,  // measure 19
3003
0220
0000
0330
,  // measure 20
0000
0000
0000
1000
0000
0000
0001
0000
0000
0000
1000
0000
0100
0000
0000
0000
0100
0000
1000
0000
0000
0000
0000
0000
,  // measure 21
1001
0000
0000
0000
0000
0000
0000
0000
0000
0000
0000
0000
0000
0000
0000
0000
0000
0000
0000
0000
0000
0000
0000
0000
0000
0000
0000
0000
0000
0000
0000
0000
0001
0000
0000
0000
0000
0000
0000
0000
0000
0000
0000
0000
0000
0000
0000
0000
0100
0000
0000
0000
0000
0000
0000
0000
0000
0000
0000
0000
0000
0000
0000
0000
0000
0000
0000
0000
0000
0000
0000
0000
0000
0000
0000
0000
0000
0000
0000
0000
0000
0000
0000
0000
0010
0000
0000
0000
0000
0000
0100
0000
0000
0000
0000
0000
0010
0000
0000
0000
0000
0000
0000
0000
0000
0000
0000
0000
0000
0000
0000
0000
0000
0000
0000
0000
0000
0000
0000
0000
0000
0000
0000
0000
0000
0000
0000
0000
0000
0000
0000
0000
1000
0000
0000
0000
0000
0000
0001
0000
0000
0000
0000
0000
2000
0000
0000
0000
0000
0000
0000
0000
0000
0000
0000
0000
0000
0000
0000
0000
0000
0000
0000
0000
0000
0000
0000
0000
0000
0000
0000
0000
0000
0000
0000
0000
0000
0000
0000
0000
0000
0000
0000
0000
0000
0000
0000
0000
0000
0000
0000
0000
,  // measure 22
3001
0000
0001
0100
0000
0100
0001
0000
0000
1000
0000
0001
,  // measure 23
0010
0000
0000
0000
0000
0000
0000
0000
0000
0000
0000
0000
0000
0000
0000
0000
0000
0000
0000
0000
0000
0000
0000
0000
0000
0000
0000
0000
0000
0000
0000
0000
0000
0000
0000
0000
0100
0000
0000
0000
0000
0000
0010
0000
0000
0000
0000
0000
0100
0000
0000
0000
0000
0000
0000
0000
0000
0000
0000
0000
0000
0000
0000
0000
0000
0000
0000
0000
0000
0000
0000
0000
0000
0000
0000
0000
0000
0000
0000
0000
0000
0000
0000
0000
1000
0000
0000
0000
0000
0000
0001
0000
0000
0000
0000
0000
2000
0000
0000
0000
0000
0000
0000
0000
0000
0000
0000
0000
0000
0000
0000
0000
0000
0000
0000
0000
0000
0000
0000
0000
0000
0000
0000
0000
0000
0000
0000
0000
0000
0000
0000
0000
0000
0000
0000
0000
0000
0000
0000
0000
0000
0000
0000
0000
3010
0000
0000
0000
0000
0000
0000
0000
0000
0000
0000
0000
0000
0000
0000
0000
0000
0000
0000
0000
0000
0000
0000
0000
0000
0000
0000
0000
0000
0000
0000
0000
1000
0000
0000
0000
0000
0000
0000
0000
0000
0000
0000
0000
0000
0000
0000
0000
,  // measure 24
0010
0000
0000
0000
0000
0000
0000
0000
0000
0000
0000
0000
0000
0000
0000
0000
0000
0000
0000
0000
0000
0000
0000
0000
0000
0000
0000
0000
0000
0000
0000
0000
0100
0000
0000
0000
0000
0000
0000
0000
0000
0000
0000
0000
0000
0000
0000
0000
0001
0000
0000
0000
0000
0000
0000
0000
0000
0000
0000
0000
0000
0000
0000
0000
0000
0000
0000
0000
0000
0000
0000
0000
0000
0000
0000
0000
0000
0000
0000
0000
0000
0000
0000
0000
0000
0000
0000
0000
0000
0000
0000
0000
0000
0000
0000
0000
0101
0000
0000
0000
0000
0000
0000
0000
0000
0000
0000
0000
0000
0000
0000
0000
0000
0000
0000
0000
0000
0000
0000
0000
0000
0000
0000
0000
0000
0000
0000
0000
0000
0000
0000
0000
0000
0000
0000
0000
0000
0000
0000
0000
0000
0000
0000
0000
1000
0000
0000
0000
0000
0000
0000
0000
0000
0000
0000
0000
0000
0000
0000
0000
0000
0000
0000
0000
0000
0000
0000
0000
0000
0000
0000
0000
0000
0000
0000
0000
0000
0000
0000
0000
0100
0000
0000
0000
0000
0000
1000
0000
0000
0000
0000
0000
,  // measure 25
0100
0000
0000
0000
0000
0000
0000
0000
0000
0000
0000
0000
0000
0000
0000
0000
0000
0000
0000
0000
0000
0000
0000
0000
0000
0000
0000
0000
0000
0000
0000
0000
0010
0000
0000
0000
0000
0000
0000
0000
0000
0000
0000
0000
0000
0000
0000
0000
0001
0000
0000
0000
0000
0000
0000
0000
0000
0000
0000
0000
0000
0000
0000
0000
0000
0000
0000
0000
0000
0000
0000
0000
0000
0000
0000
0000
0000
0000
0000
0000
0000
0000
0000
0000
0000
0000
0000
0000
0000
0000
0000
0000
0000
0000
0000
0000
0011
0000
0000
0000
0000
0000
0000
0000
0000
0000
0000
0000
0000
0000
0000
0000
0000
0000
0000
0000
0000
0000
0000
0000
0000
0000
0000
0000
0000
0000
0000
0000
0000
0000
0000
0000
0000
0000
0000
0000
0000
0000
0000
0000
0000
0000
0000
0000
1000
0000
0000
0000
0000
0000
0000
0000
0000
0000
0000
0000
0000
0000
0000
0000
0000
0000
0000
0000
0000
0000
0000
0000
0000
0000
0000
0000
0000
0000
0000
0000
0000
0000
0000
0000
0001
0000
0000
0000
0000
0000
0100
0000
0000
0000
0000
0000
,  // measure 26
0001
0000
1000
0100
0000
0000
1001
0000
0000
0011
0000
0000
,  // measure 27
1100
2002
3003
0110
,  // measure 28
0010
0100
0010
0100
0001
0100
0001
0000
,  // measure 29
0001
1000
0001
1000
0100
1000
0100
0000
,  // measure 30
0010
0001
1000
0100
0010
0100
1000
0001
,  // measure 31
0100
0010
1000
0010
0100
0001
0100
0000
,  // measure 32
0001
1000
0001
0000
0100
0001
0100
0000
,  // measure 33
0010
0100
0010
0000
0001
1000
0001
0000
,  // measure 34
1000
0100
0010
0001
0100
0010
1000
0100
,  // measure 35
0010
0001
0010
0001
1000
0100
1000
0100
,  // measure 36
2000
0002
0000
3003
,  // measure 37
1000
0000
0100
0010
0000
0001
1001
0000
1000
0010
0000
0100
,  // measure 38
0001
0000
0010
0100
0000
0010
0011
0000
0100
1000
0000
1000
,  // measure 39
0010
0100
0010
0100
0001
1000
0100
0010
0001
1000
0010
0100
,  // measure 40
0001
0000
0100
0001
0100
0000
0001
0000
1000
0000
0100
0000
0010
0000
0001
0000
,  // measure 41
0011
0000
0000
0001
0100
0000
0000
0000
1010
0000
0000
0000
1001
0000
0000
0001
,  // measure 42
0100
0000
0000
0000
0011
0000
0000
0000
1100
0000
0000
1000
0001
0000
0000
0000
,  // measure 43
0101
0000
0000
0000
0120
0000
0000
1000
1000
0000
0000
0000
0130
0000
0000
0000
,  // measure 44
0010
0000
1000
0000
0001
1000
0001
1000
,  // measure 45
0200
0000
0310
0001
0200
0000
0301
0100
,  // measure 46
0010
1000
0010
1000
0001
0000
1000
0000
,  // measure 47
0002
0000
1003
0100
2000
0000
3001
0100
,  // measure 48
0010
1000
0100
0010
0100
0000
0010
0000
,  // measure 49
0100
0010
0001
0010
0100
1000
0100
1000
,  // measure 50
0001
0100
0010
1000
0010
0100
0001
1000
,  // measure 51
0002
0000
0000
0000
0003
0000
0000
1000
2002
0000
0000
0000
3003
0000
0000
0000
,  // measure 52
0000
0000
0000
0010
0220
0000
0000
0000
0330
0000
0000
0000
0010
0000
1000
0000
,  // measure 53
0001
0000
1000
0000
0001
0000
0000
0000
0001
0000
0000
1000
0001
0000
1000
0000
,  // measure 54
0000
1000
0010
0100
0000
0010
0100
0000
,  // measure 55
0001
0000
0000
2000
0200
0000
0000
0000
3300
0000
0000
0000
0011
0000
0000
0000
,  // measure 56
0101
0000
0000
0000
0110
0000
0010
1000
0010
1000
0001
0100
0001
0000
0000
0000
,  // measure 57
1000
0000
0000
0001
0020
0000
0000
0000
0130
0000
0000
0000
0110
0000
0000
0000
,  // measure 58
2002
0000
0000
3003
;

//---------------dance-single - ----------------
#NOTES:
     dance-single:
     :
     Medium:
     5:
     0.343,0.363,0.151,0.226,0.021: // measure 1
0000
0000
0000
0000
,  // measure 2
0000
0000
0000
0000
,  // measure 3
0001
0000
1000
0000
0010
0001
0100
0001
,  // measure 4
0001
0000
1000
0000
0010
0100
0001
1000
,  // measure 5
1000
0000
0100
0000
0010
0001
0010
0002
,  // measure 6
2000
0000
0000
3003
,  // measure 7
0001
0000
1000
0000
0001
0100
0000
0010
,  // measure 8
1000
0000
0001
0000
1000
0000
0100
0010
,  // measure 9
0100
0000
0010
0000
0001
0000
1000
0001
,  // measure 10
0100
0010
2000
3000
,  // measure 11
2002
0000
3003
0000
,  // measure 12
0001
1000
0100
1000
,  // measure 13
0001
0100
0000
0100
0001
0000
0000
0000
,  // measure 14
1000
0100
0010
0001
,  // measure 15
0010
0100
0000
0100
0010
0000
0000
0000
,  // measure 16
0001
0010
0001
0000
0010
0100
0010
0000
,  // measure 17
0100
1000
0100
0000
1000
0001
1000
0000
,  // measure 18
0020
0000
0200
0000
,  // measure 19
0330
2002
0000
3003
,  // measure 20
0000
0000
0000
1000
0000
0000
0001
0000
0100
0001
0000
0000
,  // measure 21
1000
0100
0010
1001
,  // measure 22
0001
0000
0000
0100
0000
0010
0100
0000
0000
0010
0000
0000
,  // measure 23
1000
0001
1001
1000
,  // measure 24
0100
0000
1000
0100
0000
0000
0010
0000
0000
0100
0000
0000
,  // measure 25
1000
0001
0100
0010
,  // measure 26
0100
0000
0100
0001
0000
0000
1000
0000
0000
0100
0000
0000
,  // measure 27
0010
0000
0010
0200
0000
0000
0310
0000
0000
1001
0000
0000
,  // measure 28
0001
0000
1000
0000
0010
0100
0010
0000
,  // measure 29
1000
0000
0001
0000
0010
0100
0010
0000
,  // measure 30
0001
0010
0001
0000
1000
0100
1000
0000
,  // measure 31
0001
1000
0010
0000
0100
0001
1000
0000
,  // measure 32
0001
0100
1000
0100
,  // measure 33
0001
0010
1000
0010
,  // measure 34
0001
0010
0100
0000
0010
0100
1000
0000
,  // measure 35
1000
0001
0100
0000
0001
1000
0001
1000
,  // measure 36
0002
2000
0000
3003
,  // measure 37
0001
0010
0100
0010
,  // measure 38
0100
1000
0010
0100
,  // measure 39
0010
0100
0001
1000
,  // measure 40
0001
0000
1000
0000
0010
0100
0010
0100
,  // measure 41
0010
1000
1001
0001
,  // measure 42
0010
0110
0100
1000
,  // measure 43
1001
1010
1002
1003
,  // measure 44
0220
0000
0000
0330
,  // measure 45
0010
0000
1000
0100
1000
0000
0001
0000
,  // measure 46
0010
0100
0000
0010
0100
0000
0010
0000
,  // measure 47
0001
0000
0100
0010
1000
0000
0010
0000
,  // measure 48
0100
0001
0000
0001
1000
0000
0001
0000
,  // measure 49
1000
0100
1000
0000
0001
0100
0001
0000
,  // measure 50
1000
0010
0100
0000
0010
0100
0001
0000
,  // measure 51
2002
3003
0220
0000
,  // measure 52
0330
0000
2002
0000
3003
0000
0010
1000
,  // measure 53
0010
1000
0001
0000
1000
0000
0001
0010
,  // measure 54
0000
0010
0001
0100
0000
0100
0010
0000
,  // measure 55
1000
2002
3003
0001
,  // measure 56
0100
0000
0001
1000
0001
1000
0001
0000
,  // measure 57
1000
2002
3003
1001
,  // measure 58
0220
0000
0000
0330
;

//---------------dance-single - ----------------
#NOTES:
     dance-single:
     :
     Easy:
     4:
     0.268,0.290,0.193,0.260,0.000: // measure 1
0000
0000
0000
0000
,  // measure 2
0000
0000
0000
0000
,  // measure 3
1000
0000
0001
0000
1000
1000
1000
0000
,  // measure 4
0001
0000
1000
0000
0001
0001
0001
0000
,  // measure 5
0010
0000
0100
0000
0010
0010
0010
0000
,  // measure 6
2002
0000
0000
3003
,  // measure 7
1000
0001
0100
0000
,  // measure 8
0001
1000
0100
0000
,  // measure 9
1000
0100
0010
0001
,  // measure 10
0100
0010
0200
0300
,  // measure 11
2002
0000
3003
0000
,  // measure 12
0001
1000
0001
1000
,  // measure 13
0010
0100
0010
0000
,  // measure 14
0100
0010
0100
0010
,  // measure 15
1000
0001
1000
0000
,  // measure 16
0001
0010
0100
1000
,  // measure 17
0100
0001
0100
2000
,  // measure 18
0002
0000
3003
0000
,  // measure 19
0000
0220
0000
0330
,  // measure 20
0000
1000
0001
1000
,  // measure 21
0001
0100
0010
2000
,  // measure 22
3001
0010
0001
1000
,  // measure 23
0100
0010
0002
1003
,  // measure 24
0001
0100
0100
0010
,  // measure 25
1000
0200
0300
0010
,  // measure 26
0001
2000
3000
0001
,  // measure 27
1000
0020
0030
0110
,  // measure 28
0001
1000
0001
0000
,  // measure 29
1000
0100
1000
0000
,  // measure 30
0001
0010
0001
0010
,  // measure 31
0100
1000
0100
0000
,  // measure 32
1001
0000
0110
0000
,  // measure 33
1001
0000
0110
0000
,  // measure 34
1001
0000
0110
0000
,  // measure 35
1001
0000
0110
0000
,  // measure 36
2002
3003
0000
0000
,  // measure 37
0002
0000
0013
0100
,  // measure 38
1000
0100
0010
0001
,  // measure 39
2000
0000
3001
0100
,  // measure 40
1001
0000
0001
1000
,  // measure 41
0100
0100
0100
0010
,  // measure 42
0010
0010
0001
0001
,  // measure 43
0001
2000
0002
3003
,  // measure 44
2002
0000
0000
3003
,  // measure 45
1000
0001
1000
0001
,  // measure 46
0100
0010
0100
0000
,  // measure 47
0001
1000
0001
1000
,  // measure 48
0100
0010
0100
0000
,  // measure 49
0010
0001
0010
0001
,  // measure 50
1000
0100
1000
0100
,  // measure 51
2000
3000
2002
0000
,  // measure 52
3003
0220
0000
0330
,  // measure 53
0000
0001
1000
0001
,  // measure 54
0000
0100
0010
1000
,  // measure 55
0001
1001
0000
0001
,  // measure 56
0010
0110
0110
1001
,  // measure 57
1000
2002
0000
3003
,  // measure 58
0220
0000
0000
0330
;

//---------------dance-single - ----------------
#NOTES:
     dance-single:
     :
     Beginner:
     2:
     0.140,0.239,0.151,0.000,0.000: // measure 1
0000
0000
0000
0000
,  // measure 2
0000
0000
0000
0000
,  // measure 3
0001
0000
1000
0000
,  // measure 4
0001
0000
0010
0000
,  // measure 5
0110
0000
0100
0000
,  // measure 6
1001
0000
0000
0000
,  // measure 7
0001
0000
1000
0000
,  // measure 8
0001
0000
0000
0000
,  // measure 9
0100
0000
0010
0000
,  // measure 10
0100
0100
0100
0000
,  // measure 11
1001
0000
0000
0000
,  // measure 12
0001
0000
1000
0000
,  // measure 13
0100
0000
0000
0000
,  // measure 14
0010
0000
0100
0000
,  // measure 15
0010
0000
0000
0000
,  // measure 16
0001
0000
0010
0000
,  // measure 17
0100
0000
1000
0000
,  // measure 18
1001
0000
0000
0000
,  // measure 19
0000
0100
0000
0000
,  // measure 20
0000
0010
0000
0001
,  // measure 21
0000
1000
1000
1000
,  // measure 22
1000
0000
0001
0000
,  // measure 23
0100
0100
0100
0100
,  // measure 24
0000
0010
0000
1000
,  // measure 25
1000
1000
0000
0001
,  // measure 26
0001
0001
0000
0010
,  // measure 27
0010
0010
0000
0110
,  // measure 28
0110
0000
0000
0000
,  // measure 29
1001
0000
0000
0000
,  // measure 30
0001
0000
1000
0000
,  // measure 31
0001
0000
0100
0000
,  // measure 32
0010
0000
0010
0000
,  // measure 33
1000
0000
1000
0000
,  // measure 34
0001
0000
0001
0000
,  // measure 35
0010
0000
0010
0000
,  // measure 36
0110
0000
0000
0000
,  // measure 37
0100
0000
0000
0000
,  // measure 38
0010
0000
0000
0000
,  // measure 39
0001
0000
0000
0000
,  // measure 40
1000
0000
0001
0000
,  // measure 41
0100
0000
0000
0001
,  // measure 42
0000
0000
1000
0000
,  // measure 43
0000
0001
0000
0000
,  // measure 44
1001
0000
0000
0000
,  // measure 45
0001
0000
1000
0000
,  // measure 46
0100
0000
0000
0000
,  // measure 47
1000
0000
0001
0000
,  // measure 48
0100
0000
0000
0000
,  // measure 49
0001
0000
1000
0000
,  // measure 50
0001
0000
0100
0000
,  // measure 51
0010
0000
0110
0000
,  // measure 52
0000
1001
0000
0000
,  // measure 53
0000
1000
0000
0001
,  // measure 54
0000
1000
0000
0100
,  // measure 55
0000
0110
0000
1001
,  // measure 56
1001
1001
0000
0000
,  // measure 57
0110
0110
0000
0000
,  // measure 58
1001
0000
0000
0000
;

//---------------dance-single - ----------------
#NOTES:
     dance-single:
     :
     Challenge:
     6:
     0.368,0.435,0.461,0.243,0.029: // measure 1
0000
0000
0000
0000
,  // measure 2
0000
0000
0000
0000
,  // measure 3
0001
0000
0101
0000
0100
0001
1000
MMMM
,  // measure 4
1001
0000
0011
0000
1000
0010
0100
MMMM
,  // measure 5
0110
0000
1001
0000
0001
1000
0100
MMMM
,  // measure 6
2002
0000
0000
3003
,  // measure 7
1000
0000
0001
0000
1000
0001
0000
1000
,  // measure 8
0001
0000
0100
0000
0010
0100
0000
0010
,  // measure 9
0100
0010
1000
0001
,  // measure 10
0010
0100
0020
0030
,  // measure 11
2002
0000
0000
0000
3003
0001
1000
0001
,  // measure 12
2000
3001
1000
0001
,  // measure 13
1000
0001
1000
0001
,  // measure 14
1000
0001
1000
0001
,  // measure 15
1000
0001
1000
0001
,  // measure 16
1000
0001
1000
0001
1000
0001
1000
0001
,  // measure 17
1000
0001
1000
0001
1000
0001
1000
0001
,  // measure 18
1000
0000
0000
0000
0000
0000
0000
0002
2000
0000
0000
0000
0000
0000
0000
0000
,  // measure 19
3003
0220
0000
0330
,  // measure 20
0000
0000
0000
0001
0000
0000
1000
0000
1000
0100
0000
0000
,  // measure 21
1000
0001
0100
MMMM
,  // measure 22
0001
0000
0000
0010
0000
0010
0001
0000
0000
0100
0000
0000
,  // measure 23
0010
1000
MMMM
0010
,  // measure 24
1000
0000
0010
1000
0000
0000
0010
0000
0000
0100
0000
0000
,  // measure 25
0001
0000
0010
0001
0000
0000
1000
0000
0000
0100
0000
0000
,  // measure 26
1000
0000
0001
1000
0000
0000
0001
0000
0000
0100
0000
0000
,  // measure 27
0010
0000
1000
0001
0000
0000
2002
0000
0000
3003
0000
0000
,  // measure 28
1001
MMMM
1001
MMMM
,  // measure 29
0110
MMMM
0110
MMMM
,  // measure 30
1001
MMMM
1001
MMMM
,  // measure 31
0110
MMMM
0110
MMMM
,  // measure 32
1001
MMMM
1001
MMMM
0110
MMMM
0110
MMMM
,  // measure 33
1001
MMMM
1001
MMMM
0110
MMMM
0110
MMMM
,  // measure 34
1001
MMMM
1001
MMMM
0110
MMMM
0110
MMMM
,  // measure 35
1001
MMMM
1001
MMMM
1001
MMMM
1001
MMMM
,  // measure 36
2002
0000
0000
3003
,  // measure 37
2000
0010
0001
0100
,  // measure 38
3002
0010
1000
0100
,  // measure 39
0023
0100
0001
1000
,  // measure 40
0031
0000
0000
0000
0001
1000
0001
1000
,  // measure 41
0001
0101
1001
1001
,  // measure 42
1010
0110
0110
1010
,  // measure 43
1001
0011
1100
2002
,  // measure 44
3003
0000
0000
0000
0000
0001
0010
0001
,  // measure 45
1000
0001
1000
0001
,  // measure 46
1000
0001
1000
0001
,  // measure 47
1000
0001
1000
0001
,  // measure 48
1000
0001
1000
0001
,  // measure 49
1000
0001
1000
0001
1000
0001
1000
0001
,  // measure 50
1000
0001
1000
0001
1000
0001
1000
0001
,  // measure 51
1000
0000
0220
0330
,  // measure 52
0000
0000
2002
0000
3003
0000
1000
0100
,  // measure 53
0010
0001
1000
0000
0001
0000
0100
0001
,  // measure 54
0000
0100
0001
1000
0000
0001
0010
0000
,  // measure 55
0100
2002
3003
1001
,  // measure 56
0110
0000
1001
0000
0001
1000
0100
0000
,  // measure 57
0110
2002
3003
0110
,  // measure 58
2002
0000
0000
3003
;
