#VERSION:0.83;
#TITLE:Deflowering the Maidenhead,;
#SUBTITLE:Displeasuring the Goddess;
#ARTIST:Cradle of Filth;
#TITLETRANSLIT:;
#SUBTITLETRANSLIT:;
#ARTISTTRANSLIT:;
#GENRE:;
#ORIGIN:;
#CREDIT:;
#BANNER:[Speed Changes] - Deflowering the Maidenhead, Displeasuring the Goddess.png;
#BACKGROUND:[Speed Changes] - Deflowering the Maidenhead, Displeasuring the Goddess-bg.png;
#PREVIEWVID:;
#JACKET:[Speed Changes] - Deflowering the Maidenhead, Displeasuring the Goddess-jacket.png;
#CDIMAGE:;
#DISCIMAGE:;
#LYRICSPATH:;
#CDTITLE:;
#MUSIC:[Speed Changes] - Deflowering the Maidenhead, Displeasuring the Goddess.ogg;
#OFFSET:0.040000;
#SAMPLESTART:61.485073;
#SAMPLELENGTH:14.999995;
#SELECTABLE:YES;
#BPMS:0.000=155.000,
7.000=310.000,
231.000=155.000,
247.000=77.500,
250.000=155.000,
252.000=310.000,
380.000=77.500,
396.000=155.000,
428.000=310.000,
492.000=155.000,
524.000=67.500;
#STOPS:;
#DELAYS:;
#WARPS:;
#TIMESIGNATURES:0.000=4=4;
#TICKCOUNTS:0.000=4;
#COMBOS:0.000=1;
#SPEEDS:0.000=1.000=0.000=0;
#SCROLLS:0.000=1.000;
#FAKES:;
#LABELS:0.000=Song Start;
#BGCHANGES:;
#KEYSOUNDS:;
#ATTACKS:
;

//---------------dance-single - ----------------
#NOTEDATA:;
#CHARTNAME:;
#STEPSTYPE:dance-single;
#DESCRIPTION:;
#CHARTSTYLE:;
#DIFFICULTY:Challenge;
#METER:13;
#RADARVALUES:1.029539,1.441355,0.233553,0.887501,1.020960,1080.000000,1045.000000,35.000000,133.000000,0.000000,0.000000,0.000000,0.000000,0.000000,1.029539,1.441355,0.233553,0.887501,1.020960,1080.000000,1045.000000,35.000000,133.000000,0.000000,0.000000,0.000000,0.000000,0.000000;
#CREDIT:;
#NOTES:
// measure 0
0000
0000
0000
0000
,  // measure 1
0000
0000
0000
0100
,  // measure 2
0001
0000
1000
0010
0100
0010
1000
0001
,  // measure 3
0100
0001
0010
0100
1000
0000
0100
0000
,  // measure 4
0010
0000
0001
0100
0001
1000
0001
0010
,  // measure 5
0100
1000
0010
0100
0010
0000
1000
0000
,  // measure 6
0001
0000
0100
0001
1000
0001
0010
0100
,  // measure 7
1000
0100
0010
0001
1000
0001
0100
0001
,  // measure 8
0100
0000
0000
0001
0000
0000
1000
0000
0000
0010
0000
0000
1000
0000
0000
0010
0000
0000
0100
0000
0010
0000
1000
0000
,  // measure 9
0010
0000
0100
0000
0001
0000
1000
0000
0001
0000
0010
0000
0100
0000
1000
0000
0100
0000
0010
0000
0000
0001
0000
0000
,  // measure 10
0010
0100
1000
0010
0100
0010
1000
0001
,  // measure 11
0100
0001
0010
0100
1000
0100
0010
0001
,  // measure 12
0100
0001
0010
0001
1000
0100
0010
0100
,  // measure 13
1000
0010
0100
0001
0100
0010
0100
0001
,  // measure 14
1000
0001
0100
0001
0010
0001
1000
0100
,  // measure 15
0010
0100
1000
0001
0100
0001
1000
0001
,  // measure 16
0010
0001
0010
0100
1000
0100
0010
0100
,  // measure 17
1000
0010
0100
0001
1000
0001
0100
0000
,  // measure 18
0010
0000
1000
0010
1000
0010
0100
0001
,  // measure 19
1000
0001
0010
0100
1000
0000
0100
0000
,  // measure 20
0010
0000
0001
0010
0001
0010
0001
1000
,  // measure 21
0001
0010
0100
1000
0010
0000
0100
0000
,  // measure 22
0010
0000
1000
0010
1000
0010
0100
0001
,  // measure 23
1000
0001
0010
0100
1000
0100
0010
0001
,  // measure 24
0010
0000
0000
0001
0000
0000
1000
0000
0000
0010
0000
0000
1000
0000
0000
0010
0000
0000
0100
0000
0001
0000
1000
0000
,  // measure 25
0001
0010
0100
1000
0100
0010
0001
1000
0010
0100
0000
0001
,  // measure 26
1000
0000
0001
0010
0000
0100
1000
0000
0100
0010
0000
0001
,  // measure 27
1000
0000
0001
0100
0000
0010
1000
0000
0010
0100
0000
0001
,  // measure 28
1000
0000
0001
0010
0000
0100
1000
0000
0100
0010
0000
0001
,  // measure 29
0100
0000
0001
0010
0000
0001
0010
0000
0100
1000
0000
0010
,  // measure 30
1000
0000
0001
0100
0000
0010
0100
0000
0010
1000
0000
0001
,  // measure 31
0100
0000
0000
0000
0001
0000
1000
0000
0000
0000
0001
0000
0010
0000
0000
0000
0100
0000
1000
0000
0000
0100
0000
0000
,  // measure 32
0010
0000
0000
0001
0000
0000
0010
0000
0000
0001
0000
0000
0100
0000
0001
0000
1000
0000
0001
0000
0000
0010
0000
0000
,  // measure 33
0100
1000
0100
1000
0001
0100
0010
1000
,  // measure 34
0001
0000
0100
0001
0010
0000
0100
1000
,  // measure 35
0100
0000
0010
0001
0100
0000
0001
0010
,  // measure 36
0001
0000
1000
0100
0010
0000
0100
1000
,  // measure 37
0010
0000
0100
0010
1000
0000
0001
0100
,  // measure 38
0001
0000
1000
0001
0010
0000
0100
1000
,  // measure 39
0100
0000
0010
0001
0100
0000
0001
0010
,  // measure 40
0001
0000
1000
0010
0100
0000
0010
1000
,  // measure 41
0001
0000
0100
0001
1000
0000
0001
0010
,  // measure 42
0100
0000
1000
0100
0010
0000
0001
0100
,  // measure 43
0001
0000
0010
0100
1000
0000
0010
0100
,  // measure 44
0010
0000
1000
0001
0100
0000
0001
1000
,  // measure 45
0001
0000
0010
0100
1000
0000
0100
0010
,  // measure 46
0001
0000
0100
0001
0010
0000
0001
1000
,  // measure 47
0100
0000
0010
0100
1000
0000
0010
0100
,  // measure 48
0010
0000
1000
0001
0100
0000
0001
0100
,  // measure 49
0010
1000
0100
0010
0001
0100
0001
0010
,  // measure 50
0001
0010
0100
1000
0100
0010
0001
1000
,  // measure 51
0001
0100
0010
1000
0010
0100
0001
1000
,  // measure 52
0001
0010
0100
1000
0100
0010
0001
0100
,  // measure 53
0001
0000
0000
1000
0000
0000
0001
0000
0000
0010
0000
0000
0100
0000
0000
1000
0000
0000
0010
0000
0000
0000
1000
0000
,  // measure 54
0000
0100
0000
0010
0000
0001
0000
0100
0000
0001
0100
0001
,  // measure 55
0100
0001
0100
0001
0100
0001
0000
0100
0000
0010
0000
1000
,  // measure 56
0000
0001
0000
0010
0000
0100
0000
0010
0000
0001
0010
0001
,  // measure 57
0010
0001
0010
0001
0010
0001
0000
0010
0000
0001
0100
0010
,  // measure 58
1000
0100
0010
0001
0100
0001
0010
0001
1000
0010
0100
0010
,  // measure 59
1000
0000
0000
0000
0010
0000
0000
0000
0100
0000
0000
0000
0001
0000
0000
0000
1000
0000
0000
0000
0001
0000
0000
0000
0010
0000
0000
0000
0100
0000
0000
0000
1000
0000
0000
0000
0001
0000
0000
1000
0000
0000
0010
0000
0000
0100
0000
0000
,  // measure 60
0001
0010
0100
1000
0010
0100
0001
1000
0020
0000
0000
0000
1030
0010
1000
0001
,  // measure 61
0100
0000
0000
0010
0000
0000
0100
0000
0001
0000
1000
0000
0010
0000
0000
0100
0000
0000
0001
0000
0000
0010
0000
0000
0100
0000
0000
1000
0000
0000
0010
0000
0000
1000
0000
0000
2200
0000
0000
0000
0000
0000
0000
0000
0000
0000
0000
0000
,  // measure 62
3300
0000
1001
0010
1010
0100
1000
0001
1000
0001
1000
0100
0010
0001
0100
0010
,  // measure 63
2000
0000
3001
0100
0010
1000
0001
1000
,  // measure 64
0100
0010
0001
0010
0100
1000
0010
1000
,  // measure 65
0100
1000
0100
0010
0001
0010
0100
1000
,  // measure 66
0001
1000
0010
0100
0001
0100
0010
0000
,  // measure 67
0210
0000
0301
1000
0010
1000
1002
0000
,  // measure 68
0013
0100
0010
0001
2001
0000
3010
1000
,  // measure 69
0100
1000
1100
0000
0010
0001
0010
0100
,  // measure 70
0120
0130
2001
3001
,  // measure 71
1000
0010
1000
0001
1000
0100
0010
0001
,  // measure 72
0100
0010
0100
0001
1000
0010
1000
0100
,  // measure 73
1000
0010
1000
0100
0010
0001
0100
0010
,  // measure 74
0100
0001
1000
0010
1010
0000
1100
0000
,  // measure 75
0010
0100
0010
0001
1000
0010
1000
0100
,  // measure 76
1000
0010
1000
0001
1000
0100
0010
0001
,  // measure 77
0010
0100
1000
0010
1000
0100
1000
0001
,  // measure 78
0100
0010
0100
0001
1000
0100
0010
0001
,  // measure 79
1000
0010
0100
0001
0100
0010
1000
0001
,  // measure 80
1000
0100
0010
0100
0010
0001
1000
0100
,  // measure 81
1000
0001
0100
0010
0100
0001
1000
0010
,  // measure 82
1000
0001
1000
0100
0010
0001
0010
0000
,  // measure 83
0210
0000
1300
0010
1000
0100
0120
0000
,  // measure 84
0031
0100
0010
0100
0102
0000
1003
0010
,  // measure 85
1000
0001
2001
0000
3100
0010
0001
0010
,  // measure 86
0210
1300
0120
0031
,  // measure 87
1000
0010
1000
0010
0100
0001
1000
0001
,  // measure 88
0010
0100
1000
0100
0010
0001
0100
0001
,  // measure 89
0010
0001
1000
0100
0010
0100
1000
0001
,  // measure 90
0100
0001
1000
0001
0011
0000
0110
0000
,  // measure 91
1000
0010
0100
0010
1000
0001
0100
0001
,  // measure 92
1000
0001
0010
0001
1000
0100
0010
0100
,  // measure 93
1000
0001
0100
0001
0010
0001
1000
0100
,  // measure 94
0010
0001
1000
0010
0100
0000
0000
0000
,  // measure 95
0002
0000
0000
0203
0000
0000
0320
0000
0000
2030
0000
0100
,  // measure 96
3200
0000
0000
0000
0000
0000
2300
0000
0000
0000
3100
0010
0002
0000
0000
0000
0000
0000
1003
0000
0010
0000
1000
0000
,  // measure 97
0200
0000
0000
0000
0000
0000
0320
0000
0000
0000
0130
0010
0200
0000
0000
0000
0310
0000
0002
0000
0000
0000
0103
0001
,  // measure 98
0200
0000
0000
0000
0000
0000
0310
1000
0001
0100
0010
1000
0100
0010
0001
0010
0100
1000
0001
0100
0010
1000
0001
0010
,  // measure 99
0100
0000
1000
0000
0100
1000
0100
0010
0000
0001
0000
1000
,  // measure 100
0001
0000
0100
0000
0010
1000
0001
0100
0000
0001
0000
1000
,  // measure 101
0100
0000
0010
0000
0100
1000
0001
0100
0000
0001
0000
1000
,  // measure 102
0100
0000
0010
0000
0001
1000
1010
0000
0101
0000
0011
0000
,  // measure 103
0010
0000
0100
0000
1000
0100
0010
0001
0000
1000
0000
0001
,  // measure 104
0100
0000
0010
0000
1000
0010
0100
0001
0000
1000
0000
0001
,  // measure 105
0010
0000
0100
0000
1000
0100
0010
0001
0000
1000
0000
0001
,  // measure 106
0100
0000
0001
0000
1000
0000
0100
0000
0010
0000
0001
0000
1000
0010
0100
0001
1000
0001
0010
0100
1000
0001
0100
0010
,  // measure 107
0100
0000
0010
0000
1000
0000
0100
0000
0010
0000
0001
0000
,  // measure 108
1000
0000
0001
0000
0100
0000
0001
0000
0010
0000
0100
0000
,  // measure 109
1000
0000
0010
0000
0100
0000
0010
0000
1000
0000
0001
0000
,  // measure 110
0100
0001
0100
0000
0001
0000
1000
0000
0100
0000
0010
0000
,  // measure 111
0001
0000
0010
0000
0100
0000
1000
0000
0001
0000
1000
0000
,  // measure 112
0010
0000
1000
0000
0100
0000
1000
0000
0100
0000
0010
0000
,  // measure 113
0001
0100
0001
0000
0010
0000
0100
0000
1000
0000
0001
0000
,  // measure 114
0100
0000
0001
0000
0010
0000
0100
0000
1000
0000
0100
0000
,  // measure 115
0010
0000
0100
0000
0010
0000
0001
0000
1000
0000
0001
0000
,  // measure 116
0100
0000
0010
0000
1000
0000
0010
0000
0100
0000
0001
0000
,  // measure 117
1000
0001
1000
0000
0100
0000
0010
0000
0100
0000
0010
0000
,  // measure 118
0001
1000
0001
0000
0100
0000
0001
0000
1000
0000
0001
0000
,  // measure 119
0010
0000
0100
0000
0010
0000
0100
0000
1000
0000
0010
0000
,  // measure 120
0100
0000
0001
0000
1000
0000
0001
0000
0010
0000
0100
0000
,  // measure 121
1000
0000
0100
0000
0010
0000
0001
0000
1000
0001
1000
0000
,  // measure 122
0100
0000
0010
0001
1000
0000
0001
0000
0100
0000
0001
0000
,  // measure 123
0200
0320
2030
3200
0320
0032
0203
0302
0203
0302
2003
3002
,  // measure 124
0023
0230
2300
3020
0230
0302
2003
3002
0023
0032
2003
3200
,  // measure 125
0320
0230
2300
3020
0230
0302
2003
3002
0203
0302
2003
3200
,  // measure 126
2300
3002
0023
0032
2003
3200
0320
0032
0023
0032
2003
3020
,  // measure 127
0230
0302
2003
3002
0023
0230
2300
3200
0320
0032
2003
3002
,  // measure 128
0203
0302
2003
3002
0023
0230
2300
3020
0230
0302
0023
0230
,  // measure 129
2300
3020
0230
0302
2003
3002
0023
0230
2300
3020
0230
0320
,  // measure 130
2030
0000
3002
0000
0203
0000
0302
0000
0023
0000
0230
0000
2300
0000
3200
0000
0320
0000
0032
0000
2003
0000
3002
0003
,  // measure 131
0101
1010
0101
0110
2200
0000
0000
3300
,  // measure 132
0022
0000
0000
0000
0000
0000
0000
0000
0000
0000
0000
0000
0000
0000
0000
0000
0000
0000
0033
0000
0000
0000
0000
0000
0220
0000
0000
0000
0000
0000
0000
0000
0000
0000
0000
0000
0000
0000
0000
0000
0000
0000
0330
0000
0000
1000
0010
1000
,  // measure 133
0010
0101
0011
0110
2001
0001
0001
3001
,  // measure 134
2010
0010
0010
3010
0202
0000
0000
0000
,  // measure 135
0303
0000
0000
0000
;

//---------------dance-single - ----------------
#NOTEDATA:;
#CHARTNAME:;
#STEPSTYPE:dance-single;
#DESCRIPTION:;
#CHARTSTYLE:;
#DIFFICULTY:Beginner;
#METER:4;
#RADARVALUES:0.219254,0.450423,0.140132,0.053384,0.000000,230.000000,209.000000,21.000000,8.000000,0.000000,0.000000,0.000000,0.000000,0.000000,0.219254,0.450423,0.140132,0.053384,0.000000,230.000000,209.000000,21.000000,8.000000,0.000000,0.000000,0.000000,0.000000,0.000000;
#CREDIT:;
#NOTES:
0000
0000
0000
0000
,
0000
0000
0000
0000
,
0000
0100
0000
0010
,
0000
0100
0000
0000
,
0000
0001
0000
1000
,
0000
0001
0000
0000
,
0000
0100
0000
0001
,
0000
0100
0000
0001
,
0000
0010
0000
0001
,
0000
0010
0000
0100
,
0000
0000
0000
1000
,
0000
0000
0000
0001
,
0000
0000
0000
0100
,
0000
0000
0000
0010
,
0000
0000
0000
1000
,
0000
0000
0000
0001
,
0000
0000
0000
0100
,
0000
0010
0000
1000
,
0000
0010
0000
0100
,
0000
0001
0000
0000
,
0000
1000
0000
0001
,
0000
0100
0000
0000
,
0000
0010
0000
1000
,
0000
0100
0000
1000
,
0000
0100
0000
0010
,
0000
0001
0000
0100
,
0000
0000
0000
0010
,
0000
0000
0000
1000
,
0000
0000
0000
0001
,
0000
0000
0000
0100
,
0000
0000
0000
0001
,
0000
0000
0000
1000
,
0000
0000
0000
1001
,
0000
0000
0000
0100
,
0000
0100
0000
0010
,
0000
0010
0000
1000
,
0000
1000
0000
0001
,
0000
0001
0000
0100
,
0000
0100
0000
0010
,
0000
0010
0000
2000
,
0000
0000
0000
3000
,
0000
0000
0000
0001
,
0000
0100
0000
0010
,
0000
0100
0000
0001
,
0000
1000
0000
0100
,
0000
0010
0000
0001
,
0000
0100
0000
0010
,
0000
1000
0000
0200
,
0000
0000
0000
0300
,
0000
0000
0000
1000
,
0000
0010
0000
1000
,
0000
0010
0000
0100
,
0000
0001
0000
0010
,
0000
0100
0000
1001
,
0000
0000
0000
0100
,
0000
0000
0000
0110
,
0000
0000
0000
0010
,
0000
0000
0000
0100
,
0000
0010
0000
1000
,
0000
0001
0000
0100
,
0000
0000
0000
0110
,
0000
0000
0000
1001
,
0000
0110
0000
0000
,
0100
0000
0010
0000
,
1000
0000
0001
0000
,
0100
0000
0001
0000
,
0010
0000
0100
0000
,
1000
0000
0000
0001
,
0000
0000
0100
0000
,
0000
0010
0000
0000
,
1000
0000
1000
0000
,
0001
0000
0100
0000
,
0010
0000
1000
0000
,
0001
0000
0010
0000
,
0100
0000
1000
0000
,
1000
0000
0001
0000
,
0100
0000
0010
0000
,
1000
0000
0001
0000
,
0010
0000
0100
0000
,
1001
0000
0000
0000
,
0100
0000
0000
0000
,
0010
0000
0000
0000
,
1000
0000
0000
0000
,
0100
0000
0000
1000
,
0000
0000
0010
0000
,
0000
0100
0000
0000
,
0001
0000
0010
0000
,
0001
0000
0100
0000
,
0010
0000
1000
0000
,
0100
0000
0010
0000
,
0001
0000
1000
0000
,
0010
0000
0100
0000
,
0010
0000
1000
0000
,
0001
0000
0100
0000
,
0010
0000
0000
0000
,
0200
0000
0000
0300
,
0020
0000
0000
0030
,
2000
0000
0000
3000
,
0002
0000
0000
0003
,
0100
0000
0010
0000
,
1000
0000
0001
0000
,
0100
0000
0001
0000
,
0010
0000
0100
0000
,
0010
0000
0001
0000
,
1000
0000
0001
0000
,
0100
0000
0010
0000
,
1000
0000
0100
0000
,
0010
0000
0000
0000
,
0011
0000
0000
0000
,
0100
0000
0000
0000
,
0110
0000
0000
0000
,
0010
0000
0000
0000
,
1010
0000
0000
0000
,
1000
0000
0000
0000
,
1100
0000
0000
0000
,
0001
0000
0000
0000
,
0101
0000
0000
0000
,
0010
0000
0000
0000
,
0110
0000
0000
0000
,
0010
0000
0000
0000
,
1010
0000
0000
0000
,
0100
0000
0000
0000
,
1001
0000
0000
0000
,
0100
0000
0100
0000
,
0010
0000
1000
0000
,
0001
0000
0100
0000
,
0001
0000
1000
0000
,
0100
0000
0010
0000
,
0100
0000
1000
0000
,
0100
0000
1000
0000
,
0001
0001
0001
0001
,
0100
0100
0110
0000
,
1001
0000
0110
0000
,
0010
1000
1001
0000
,
1100
0000
0022
0000
,
0033
0000
0000
0000
;

//---------------dance-single - ----------------
#NOTEDATA:;
#CHARTNAME:;
#STEPSTYPE:dance-single;
#DESCRIPTION:;
#CHARTSTYLE:;
#DIFFICULTY:Easy;
#METER:7;
#RADARVALUES:0.371778,0.720677,0.200188,0.220207,0.100094,390.000000,360.000000,30.000000,33.000000,0.000000,0.000000,0.000000,0.000000,0.000000,0.371778,0.720677,0.200188,0.220207,0.100094,390.000000,360.000000,30.000000,33.000000,0.000000,0.000000,0.000000,0.000000,0.000000;
#CREDIT:;
#NOTES:
0000
0000
0000
0000
,
0000
0000
0000
0100
,
0000
0010
0000
1000
,
0000
0001
0000
0100
,
0000
0001
0000
0010
,
0000
0100
0000
1000
,
0000
0010
0000
1000
,
0000
0001
0000
0100
,
0000
0001
0000
1000
,
0100
1000
0000
0100
,
0000
0100
0000
0010
,
0000
0001
0000
1000
,
0000
0010
0000
0100
,
0000
0010
0000
1000
,
0000
0001
0000
0100
,
0000
0001
0000
0010
,
0000
0100
0000
0010
,
0001
0100
0000
0001
,
0000
0100
0000
0010
,
0000
1000
0000
0100
,
1000
0010
0000
0100
,
0000
0001
0000
0010
,
0000
0001
0100
0010
,
0000
1000
0010
0100
,
0001
0010
0000
0100
,
0000
1000
0000
0100
,
0000
0010
0000
0001
,
0000
0100
0000
0010
,
0000
1000
0000
0100
,
0000
1000
0010
0100
,
0000
0001
0010
0000
,
0000
0100
0010
0001
,
0000
1000
0000
0010
,
0000
0110
0000
1000
,
0000
0001
0000
0100
,
0000
0001
0000
0010
,
0000
0100
0000
1000
,
0001
0100
0001
0010
,
0000
0100
0000
0010
,
0000
0001
0000
2002
,
0000
0000
0000
0000
,
3003
0000
0000
0100
,
0000
0010
0000
1000
,
0000
0100
0000
0010
,
0000
0001
0100
0001
,
0000
0010
0000
0100
,
1000
0010
0100
0001
,
0010
0001
2000
0002
,
0000
0000
0000
3003
,
0000
0000
0000
0100
,
0000
0001
0000
1000
,
0000
0100
0000
0010
,
0000
0100
0000
0010
,
0000
0001
0000
0100
,
0000
0010
1000
0001
,
0000
0100
0000
0020
,
0000
0000
0000
2030
,
0000
0000
0000
3001
,
0100
0001
1000
0100
,
0010
0000
0000
0000
0001
0000
0000
0000
1000
0000
0000
0000
0100
0000
0000
1000
,
0000
0000
0010
0000
0000
0100
0000
0000
0001
0000
1000
0000
0001
0000
1000
0000
,
0001
1000
0001
1000
0001
0000
0220
0000
,
0000
0330
1000
0000
2020
0000
3030
0000
0202
0000
0000
0000
0000
0000
0303
0000
,
0010
0000
1000
0010
,
0100
0000
0001
1000
,
0100
0000
0010
0001
,
1000
0000
0010
1000
,
0001
0000
0000
0101
,
0000
0000
0011
0000
,
0000
0110
0000
0000
,
0100
1000
0010
0100
,
0001
0000
0000
1000
0000
0000
0100
0000
,
0010
0000
0001
1000
,
0010
0000
0000
0100
0000
0000
0010
0000
,
1000
0000
0001
1000
,
0001
0100
0010
1000
,
0100
0010
0000
0001
,
0010
0100
1000
0010
,
0200
0000
0000
0000
,
0301
0100
0010
0000
,
1000
0100
0010
0000
,
0001
0100
0001
0000
,
0010
0100
1000
0100
,
0010
0000
0000
0011
,
0000
0000
1010
0000
,
0000
0110
0000
0000
,
0010
0100
0001
1000
,
0001
0010
0100
1000
,
0100
0010
0001
1000
,
0010
0100
0001
1000
,
0100
0000
1000
0100
,
0010
0001
1000
0010
,
0100
0000
0010
1000
,
0001
0100
0001
0010
,
0100
0000
0000
0000
,
2000
3000
0002
0003
,
0200
0300
0010
1000
,
0002
0003
0200
0300
,
0002
0003
0010
0100
,
1100
0000
0011
0000
,
1001
0000
0110
0000
,
1010
0000
0101
0000
,
0011
0000
0110
0010
,
0100
0000
0010
0000
1000
0000
0001
0000
0100
0000
0001
0000
,
0010
0000
1100
0000
,
0100
0000
1000
0000
0010
0000
0100
0000
0001
0000
0010
0000
,
0100
0000
1000
0000
0010
0000
0200
0000
0000
0301
0000
0000
,
1000
0000
0000
0000
0001
0000
0000
0000
0100
0000
0000
0000
,
0010
0000
1000
0000
,
0010
0000
0000
0000
0100
0000
0000
0000
0001
0000
0000
0000
,
1000
0000
0100
0000
,
0010
0000
0000
0000
0001
0000
0000
0000
0100
0000
0000
0000
,
0010
0000
0000
0000
1000
0000
0000
0000
0001
0000
0000
0000
,
0200
0000
0000
0000
,
0320
0000
1030
0000
,
0001
0000
0000
0000
0100
0000
0000
0000
0001
0000
0000
0000
,
0010
0000
0000
0000
0100
0000
0000
0000
1000
0000
0000
0000
,
0010
0000
0101
0000
,
0010
0000
0110
0000
,
0010
0000
0000
0000
1000
0000
0000
0000
0100
0000
0000
0000
,
0010
0000
0000
0000
0001
0000
0000
0000
1000
0000
0000
0000
,
0010
0000
0000
0000
0100
0000
0000
0000
0001
0000
0000
0000
,
2000
0000
0000
0000
,
3001
0100
0010
1000
,
0100
0010
0001
0011
,
0110
1000
0010
0100
,
0001
1000
0100
0010
,
0001
0100
0010
1000
,
0100
1000
0010
0100
,
0001
1000
0100
0010
,
0011
1000
1001
0100
,
0010
0100
0010
0100
0002
0000
0003
0000
,
2002
3003
2200
3300
,
0100
1000
0010
0100
0020
0000
0030
0000
,
0220
0330
2002
0000
,
3003
0000
0000
0000
;

//---------------dance-single - ----------------
#NOTEDATA:;
#CHARTNAME:;
#STEPSTYPE:dance-single;
#DESCRIPTION:;
#CHARTSTYLE:;
#DIFFICULTY:Medium;
#METER:9;
#RADARVALUES:0.537648,0.990932,0.206861,0.246899,0.303619,564.000000,533.000000,31.000000,37.000000,0.000000,0.000000,0.000000,0.000000,0.000000,0.537648,0.990932,0.206861,0.246899,0.303619,564.000000,533.000000,31.000000,37.000000,0.000000,0.000000,0.000000,0.000000,0.000000;
#CREDIT:;
#NOTES:
0000
0000
0000
0000
,
0000
0000
0000
1000
,
0010
0100
0001
1000
,
0001
0010
0100
1000
,
0010
0100
0001
0010
,
0100
1000
0100
0010
,
0001
1000
0010
0100
,
0001
0010
0100
1000
,
0001
0000
0100
0000
0001
0000
0010
0001
,
0010
0001
0010
0001
0010
0000
0100
0000
,
1000
0001
0100
0010
,
1000
0010
0100
0001
,
0010
0100
1000
0100
,
0010
0001
1000
0010
,
0100
0010
1000
0001
,
0100
0001
0010
0100
,
1000
0100
0010
0001
,
1000
0010
0100
0010
,
1000
0001
0100
0001
,
0010
0100
1000
0100
,
0010
0001
0100
0010
,
1000
0001
0100
0001
,
0010
0100
1000
0100
,
0010
0001
1000
0010
,
0100
0000
0001
0000
0010
0000
0100
1000
,
0100
1000
0100
1000
0100
0000
1000
0000
,
0010
0100
0001
1000
,
0001
0010
0100
1000
,
0100
0010
0001
0100
,
0010
1000
0001
0100
,
0001
0010
0010
0100
,
1000
0010
0100
0001
,
1000
0001
0010
0100
,
1000
0100
0010
0100
,
0000
1001
0000
0100
,
0000
1010
0000
1000
,
0000
0101
0000
0001
,
1000
0100
0010
0100
,
0000
0011
0000
1000
,
0000
1010
0000
0202
,
0000
0000
0303
2000
,
0000
0000
3000
0010
,
0000
1001
0000
0001
,
0000
0110
0000
1000
,
0000
0010
1000
0001
,
0000
0100
0000
0001
,
0010
0100
1000
0010
,
0100
0001
1000
2002
,
0000
0000
3003
1000
,
0001
0100
0010
1000
,
0000
0101
0000
0010
,
0000
0110
0000
1000
,
0000
0100
0000
1010
,
0000
0000
0000
0100
0000
0000
0000
0000
0000
0010
0000
1000
,
0000
0100
0000
0010
0000
0001
0000
1000
0000
0020
0000
0000
,
0000
0000
0000
0000
0000
0000
0000
0000
0000
0130
0000
0001
,
0000
1000
0000
0001
0000
0010
0000
0100
0000
2000
0000
0000
,
0000
0000
0000
0000
0000
0000
0000
0000
0000
3001
0000
0100
,
0010
0000
0000
1000
0000
0100
0010
0000
0000
0001
0000
1000
,
0001
0000
0000
0000
0000
0000
0000
0000
0000
0000
0000
0000
0100
0000
0000
0000
0000
0000
0000
0000
0010
0000
0000
0000
1000
0000
0000
0000
0000
0000
0000
0000
0000
0000
0000
0000
1010
0000
0000
0000
0000
0000
0000
0000
0000
0101
0000
0000
,
0000
0000
0011
0000
0000
1100
0000
0000
0110
0000
1000
0000
0001
0000
0100
0000
,
0010
1000
0001
0010
0100
0000
2200
0000
,
3300
0001
0202
0303
0010
1000
0001
0100
,
0010
1000
0001
0100
,
0001
0010
0100
1000
,
0100
0010
0001
1000
,
0010
0100
0001
1000
,
0100
0000
0010
0001
,
0000
1000
0010
0000
,
0100
0010
0000
1000
,
0001
0100
0001
0010
,
0100
0000
1000
0010
0000
0000
0100
0000
,
0001
1000
0001
0010
,
0100
0000
1000
0100
0000
0000
0010
0000
,
0001
0000
1000
0010
,
0100
0000
0001
1000
0001
0000
0010
0000
,
0100
1000
0000
0100
,
0010
0001
1000
0010
,
0100
0001
1000
0001
,
0010
0100
1000
0100
,
0010
0001
1000
0010
,
0100
0001
0010
0001
,
1000
0100
0010
0001
,
0100
0000
0010
1000
,
0000
0010
0100
0000
,
0001
1000
0000
0100
,
0010
0001
1000
0010
,
0100
0001
1000
0001
,
0010
0100
0000
0000
0010
0000
0001
0000
,
1000
0010
0100
0010
,
1000
0000
0010
1000
,
0001
0100
0001
0010
,
0100
1000
0000
0000
0100
0000
0010
0000
,
0001
1000
0010
0100
,
0001
0000
0000
0000
,
2000
3002
0203
0320
,
2030
3200
2300
3020
,
0230
0302
0023
0230
,
2300
0000
0000
3002
0000
0000
0103
0010
1000
0001
0010
0100
,
1000
0000
0100
0000
0010
0000
0001
0000
0000
1000
0000
0000
,
0010
0000
0100
0000
0010
0000
1000
0000
0000
0001
0000
0000
,
0100
0000
0001
0000
0010
0000
0100
0000
0000
1000
0000
0000
,
0100
0000
0010
0000
0001
0000
1000
0000
0000
0010
0000
0000
,
0100
0000
0010
0000
1000
0000
0001
0000
0100
0001
0000
0000
,
1000
0000
0010
0000
0100
0000
0001
0000
0000
1000
0000
0000
,
0100
0000
1000
0100
0000
0000
0010
0000
0000
0001
0010
0000
,
0100
0000
1000
0010
0000
0000
0100
0000
0000
0001
0000
0000
,
0100
0000
0000
0000
0010
0000
1000
0000
0000
0000
0000
0000
,
0010
0000
0000
0000
0100
0000
0001
0000
0000
0000
0000
0000
,
0010
0000
0000
0000
0100
0000
1000
0000
0000
0000
0000
0000
,
0100
0000
0000
0000
0010
0000
0001
0000
0000
0000
0000
0000
,
0100
0000
0000
0000
0010
0000
1000
0000
0000
0000
0000
0000
,
0010
0000
0000
0000
0100
0000
0001
0000
0000
0000
0000
0000
,
0010
0000
0000
0000
0100
0000
1000
0000
0000
0000
0000
0000
,
0100
0000
0000
0000
0010
0000
0001
0000
0000
0000
0000
0000
,
1000
0000
0000
0000
0010
0000
0000
0000
0100
0000
0000
0000
,
0001
0000
0000
0000
1000
0000
0000
0001
0000
0000
0000
0000
,
0100
0000
0000
0000
0010
0000
1000
0000
0000
0000
0000
0000
,
0001
0000
0000
0000
0100
0000
0001
0000
0000
0000
0000
0000
,
0010
0000
0000
0000
0100
0000
0000
1000
0000
0000
0000
0010
,
0000
0000
0000
0100
0000
0000
0000
0001
0000
0000
0000
0000
,
1000
0000
0000
0000
0010
0000
0000
0000
0100
0000
0000
0000
,
0001
0000
1000
0000
0010
0000
0100
0000
0001
0000
0010
0000
,
0100
0000
1000
0010
0000
0100
0001
0000
0010
0100
0000
1000
,
0100
0000
0010
0001
0000
1000
0010
0000
0100
0010
0000
1000
,
0001
0000
0100
0001
0000
0010
0001
0000
0100
0001
0000
0010
,
0100
0000
1000
0010
0000
0100
0010
0000
1000
0100
0000
0010
,
0001
0000
0100
0001
0000
0010
0100
0000
1000
0010
0000
0100
,
0001
0000
0010
0100
0000
1000
0100
0000
0010
0001
0000
0100
,
0010
0000
1000
0100
0000
0010
0100
0000
1000
0010
0000
0100
,
0001
0000
1000
0001
0000
0010
0100
0000
1000
0001
0100
0001
,
0100
1010
0101
0011
2200
0000
3300
0000
,
0220
0330
0022
0033
,
0010
0011
0110
1010
2200
0000
3300
0000
,
0220
0330
2002
0000
,
3003
0000
0000
0000
;

//---------------dance-single - ----------------
#NOTEDATA:;
#CHARTNAME:;
#STEPSTYPE:dance-single;
#DESCRIPTION:;
#CHARTSTYLE:;
#DIFFICULTY:Hard;
#METER:11;
#RADARVALUES:0.856996,1.261186,0.180169,0.193515,0.750706,899.000000,872.000000,27.000000,29.000000,0.000000,0.000000,0.000000,0.000000,0.000000,0.856996,1.261186,0.180169,0.193515,0.750706,899.000000,872.000000,27.000000,29.000000,0.000000,0.000000,0.000000,0.000000,0.000000;
#CREDIT:;
#NOTES:
0000
0000
0000
0000
,
0000
0000
0000
0100
,
0001
0000
1000
0100
1000
0000
0001
0010
,
0001
0000
1000
0010
0100
0000
0010
0000
,
1000
0000
0001
0100
0001
0000
1000
0100
,
0010
0000
0100
1000
0100
0000
0010
0000
,
0001
0000
1000
0010
0100
0000
0010
1000
,
0001
0000
0100
0001
0010
0000
0001
0000
,
1000
0000
0100
0000
0010
0000
0001
0010
,
0001
0010
0001
1000
0010
1000
0010
1000
,
0010
0100
0001
1000
0001
0000
0010
0100
,
1000
0100
0010
0001
0100
0000
0001
0010
,
0001
0010
0100
1000
0100
0000
1000
0010
,
1000
0010
0100
0001
1000
0000
0001
0010
,
0100
1000
0100
0010
0001
0000
0010
0001
,
0100
0001
1000
0001
0010
0000
0100
1000
,
0100
0010
0001
1000
0001
0100
0010
1000
,
0010
0100
0001
1000
0001
0010
0001
0000
,
1000
0000
0100
0010
0100
0000
1000
0001
,
0100
0000
0010
1000
0010
0000
0100
0000
,
0010
0000
1000
0001
0100
0000
0001
0010
,
0100
0000
1000
0100
0010
0000
0100
0000
,
0010
0000
0001
0100
0001
0000
1000
0010
,
0100
0000
0010
1000
0010
0000
0100
0000
,
0001
0000
1000
0000
0001
0000
0010
0100
,
1000
0010
0100
0001
1000
0100
0010
0001
,
0010
0000
0100
0000
1000
0000
0001
0100
,
0010
0000
0100
0000
0001
0000
1000
0010
,
1000
0000
0100
0000
0010
0000
0001
0010
,
0100
0000
1000
0000
0001
0000
1000
0010
,
1000
0000
0100
0000
0010
0000
0001
0010
,
0100
0000
1000
0000
0001
0000
0100
0010
,
0100
0000
0001
0100
0010
1000
0001
1000
,
0100
0010
0001
0010
0100
0000
1000
0000
,
0100
0000
0010
0001
0010
0000
0100
0000
,
1000
0000
0001
0100
0010
0000
0100
0000
,
0001
0000
1000
0010
1000
0000
0100
0000
,
0010
0000
0001
0010
0100
0000
1000
0000
,
0001
0000
1000
0010
1000
0000
0001
0000
,
0010
0000
0100
0010
0100
0000
0010
0000
,
0001
0000
0100
0010
0100
0000
0001
0000
,
0100
0000
0001
1000
0010
0000
1000
0000
,
0001
0000
1000
0100
0010
0000
0001
0000
,
0010
0000
0100
1000
0001
0000
0100
0000
,
0010
0000
0100
0001
0100
0000
0010
0000
,
1000
0000
0001
1000
0100
0000
0010
0000
,
0001
0000
0010
0100
1000
0000
0001
0000
,
1000
0000
0010
1000
0100
0000
0010
0000
,
0001
0000
0010
0100
0010
0000
0100
1000
,
0001
1000
0010
0100
0001
0100
0010
0000
,
0100
0000
0001
1000
0010
0000
1000
0000
,
0100
0000
0010
0001
0010
0000
0100
0000
,
1000
0000
0001
1000
0010
0000
1000
0000
,
0100
0000
0000
0000
0000
0000
0010
0000
0000
0001
0000
0000
0010
0000
0000
0000
0000
0000
0100
0000
0000
0000
1000
0000
,
0000
0001
0000
0100
0000
0010
0000
1000
0000
0100
0000
1000
,
0000
0100
0000
1000
0000
0100
0000
1000
0000
0001
0000
0010
,
0000
0100
0000
1000
0000
0001
0000
0100
0000
0010
0000
1000
,
0000
0010
0000
1000
0000
0010
0000
1000
0000
0010
1000
0010
,
0100
0001
1000
0001
0010
0100
1000
0100
0010
0001
1000
0010
,
0100
0000
0000
0000
0010
0000
0000
0000
1000
0000
0000
0000
0001
0000
0000
0000
0010
0000
0000
0000
0001
0000
0000
0000
1000
0000
0000
0000
0100
0000
0000
0000
0010
0000
0000
0000
0011
0000
0000
0000
0000
0000
0000
0000
0000
0101
0000
0000
,
0000
0000
1010
0000
0000
0110
0000
0000
1010
0000
0000
0000
1000
0010
0100
0010
,
0100
0001
1000
0010
0100
0001
0010
0100
1000
0001
0100
0001
2000
0000
0000
0000
,
3000
0000
1100
0000
0022
0000
0030
0000
0013
0001
0010
0001
0010
0001
0010
0001
,
0010
0000
0100
1000
0100
0010
0100
0010
,
0001
1000
0001
0100
0001
0100
0001
1000
,
0001
0010
0100
1000
0100
0010
0001
1000
,
0001
0100
0010
1000
0010
0100
0010
0000
,
1000
0000
0000
0101
,
0000
0000
0011
0000
,
0000
0110
0000
0000
,
1000
0100
0010
0001
,
1000
0000
0010
1000
0010
1000
0010
0100
,
0001
1000
0001
1000
0001
0010
0100
0010
,
0100
1000
0001
0010
0001
1000
0001
0100
,
0001
0010
0001
0010
0100
0000
1000
0000
,
0100
0010
0100
0010
0001
1000
0001
1000
,
0001
0100
0010
1000
0010
1000
0010
0100
,
0001
0100
0001
1000
0001
1000
0001
0010
,
0100
1000
0100
0010
0001
1000
0001
0100
,
0001
0000
0000
0000
0100
0001
0100
0001
,
1000
0001
0010
0100
0010
0100
1000
0010
,
0100
0010
1000
0001
0100
0001
1000
0001
,
0010
0100
1000
0100
0010
0100
1000
0000
,
0001
0000
0000
0101
,
0000
0000
1010
0000
,
0000
0110
0000
0000
,
0010
1000
0001
0100
,
0001
0010
0001
0010
0100
1000
0100
1000
,
0100
0010
0001
0010
0001
1000
0010
1000
,
0010
0100
0010
0100
0001
1000
0001
0010
,
0100
1000
0100
0010
0001
0000
1000
0000
,
0010
0100
0010
1000
0001
0100
0001
1000
,
0001
0010
0100
0010
0100
1000
0100
0010
,
0001
0010
0001
1000
0010
0100
0010
1000
,
0001
0100
0001
1000
0010
0000
0000
0000
,
0200
0320
2030
3200
,
2300
0000
0000
3020
0000
0000
0230
0000
0000
0301
0010
0100
,
2000
0000
0000
3100
0000
1000
0020
0000
0000
0130
0000
0001
,
0200
0000
0000
0000
0000
0000
0302
0000
0000
0000
0000
0000
0013
0001
0100
0010
1000
0010
0100
0010
1000
0001
0100
0001
,
0010
0000
0100
0000
1000
0010
0100
0001
0000
0100
0000
0001
,
0100
0000
0010
0000
1000
0010
0100
0010
0000
1000
0000
0001
,
0100
0000
0001
0000
1000
0100
0010
0100
0000
1000
0000
0100
,
0010
0000
0001
0000
1000
0001
0100
0001
0000
0010
0000
0100
,
1000
0000
0100
0000
0010
0001
0100
0001
0000
1000
0000
0010
,
0100
0000
0010
0000
1000
0001
0100
0001
0000
0010
0000
0100
,
1000
0000
0100
0000
0010
0001
1000
0001
0000
0100
0000
0010
,
1000
0010
0100
0001
1000
0001
0010
0100
1000
0100
0010
0001
,
1000
0000
0100
0000
0010
0000
0001
0000
1000
0000
0001
0000
,
0100
0000
0001
0000
0010
0000
0001
0000
1000
0000
0100
0000
,
0010
0000
0100
0000
1000
0000
0010
0000
0100
0000
0010
0000
,
1000
0000
0001
0000
0100
0000
0001
0000
0010
0000
0100
0000
,
1000
0000
0100
0000
0010
0000
0001
0000
0100
0000
0001
0000
,
0010
0000
0001
0000
1000
0000
0010
0000
0100
0000
0010
0000
,
1000
0000
0001
0000
0100
0000
0001
0000
0010
0000
0001
0000
,
1000
0000
0100
0000
0010
0000
0100
0000
1000
0000
0001
0000
,
0100
0000
0001
0000
1000
0000
0001
0000
0010
0000
0001
0000
,
1000
0000
0100
0000
0010
0000
0100
0000
1000
0000
0010
0000
,
0100
0000
0010
0000
1000
0000
0001
0000
0100
0000
0001
0000
,
0010
0000
0001
0000
1000
0000
0100
0000
0010
0000
0100
0000
,
1000
0000
0001
0000
0100
0000
0001
0000
0010
0000
0001
0000
,
1000
0000
0100
0000
0010
0000
0100
0000
1000
0000
0001
0000
,
0100
0000
0001
0000
0100
0000
0001
0000
0100
0000
0001
0000
,
1000
0000
0001
0000
0010
0000
0100
0000
1000
0000
0001
0000
,
0200
0000
0301
0010
0100
1000
0001
1000
0010
0100
0001
0100
,
0010
1000
0001
1000
0100
0010
0001
0010
0100
1000
0001
1000
,
0020
0000
0130
0010
0100
0001
1000
0010
1000
0100
0010
0001
,
0010
0100
1000
0001
1000
0010
1000
0100
1000
0001
0010
0100
,
2000
0000
3100
1000
0100
0010
0001
0100
0010
0100
0001
1000
,
0010
1000
0100
0010
0001
0100
0010
1000
0001
1000
0100
0010
,
0002
0000
0013
0001
0010
0100
1000
0001
0100
0010
0100
0001
,
1000
0010
1000
0100
0010
0001
0010
0100
1000
0001
0100
0010
,
1010
0110
0101
0011
2200
0000
0000
3300
,
2020
0000
0000
3030
0220
0000
0000
0330
,
0101
0011
0110
1100
0220
0000
0000
0330
,
2100
0100
0100
3100
2002
0000
0000
0000
,
3003
0000
0000
0000
;
