#TITLE:D2;
#SUBTITLE:;
#ARTIST:Camille Saint-Saëns × FIRST AID;
#TITLETRANSLIT:;
#SUBTITLETRANSLIT:;
#ARTISTTRANSLIT:Camille Saint-Saens x FIRST AID;
#GENRE:Progressive;
#CREDIT:vincentw;
#BANNER:[Speed Changes] - D2.png;
#BACKGROUND:[Speed Changes] - D2-bg.png;
#LYRICSPATH:;
#CDTITLE:cdtitle.png;
#MUSIC:[Speed Changes] - D2.ogg;
#OFFSET:0.000000;
#SAMPLESTART:10.796516;
#SAMPLELENGTH:10.786518;
#SELECTABLE:YES;
#DISPLAYBPM:89.000000:178.000000;
#BPMS:0.000000=89.000000
,16.000000=178.000000
,96.000000=89.000000
,112.000000=178.000000
,128.000000=89.000000
,136.000000=178.000000
,276.000000=356.000000
,292.000000=89.000000
;
#STOPS:
;
#BGCHANGES:1.750=[Speed Changes] - D2.avi=1.000=1=0=0=StretchNoLoop==CrossFade==,
99999=-nosongbg-=1.000=0=0=0 // don't automatically add -songbackground-
;
#KEYSOUNDS:;
#ATTACKS:;

//---------------dance-single - vincentw-BEG----------------
#NOTES:
     dance-single:
     vincentw-BEG:
     Beginner:
     2:
     0.154932,0.255948,0.000000,0.216905,0.000000,100.000000,0.000000,25.000000,0.000000,0.000000,0.000000,0.154932,0.255948,0.000000,0.216905,0.000000,100.000000,0.000000,25.000000,0.000000,0.000000,0.000000:
// measure 0
0000
0000
0000
0000
,  // measure 1
0000
0000
0000
0000
,  // measure 2
0000
0000
0000
0000
,  // measure 3
0000
0000
0000
0000
,  // measure 4
1000
0000
0000
0000
,  // measure 5
0000
0000
0000
0000
,  // measure 6
1000
0000
0000
0000
,  // measure 7
0000
0000
0000
0000
,  // measure 8
0001
0000
0000
0000
,  // measure 9
0000
0000
0000
0000
,  // measure 10
0001
0000
0000
0000
,  // measure 11
0000
0000
0000
0000
,  // measure 12
0010
0000
0000
0000
,  // measure 13
0010
0000
0000
0000
,  // measure 14
0100
0000
0000
0000
,  // measure 15
0100
0000
0000
0000
,  // measure 16
1000
0000
1000
0000
,  // measure 17
0010
0000
0000
0000
,  // measure 18
0100
0000
0100
0000
,  // measure 19
0002
0000
0000
0003
,  // measure 20
0001
0000
0000
0000
,  // measure 21
0000
0000
0000
1000
,  // measure 22
1000
0000
0000
0000
,  // measure 23
0000
0000
0000
0000
,  // measure 24
0010
0000
0010
0000
,  // measure 25
0100
0100
0100
0000
,  // measure 26
0001
0000
0001
0000
,  // measure 27
1000
0000
1000
0000
2000
0000
0000
3000
,  // measure 28
0002
0000
0000
0000
,  // measure 29
0003
0020
0000
0000
,  // measure 30
0000
0030
0200
0000
,  // measure 31
0000
0300
2000
3000
,  // measure 32
2000
0000
0000
0000
,  // measure 33
0000
0000
0000
3000
,  // measure 34
0010
0000
0010
0000
,  // measure 35
0020
0000
0030
0000
,  // measure 36
1000
0000
1000
0000
,  // measure 37
2000
0000
3000
0000
,  // measure 38
0001
0000
0001
0000
,  // measure 39
0002
0000
0003
0000
,  // measure 40
0100
0000
0100
0000
,  // measure 41
0200
0000
0300
0000
,  // measure 42
0000
0010
0020
0030
,  // measure 43
0000
0000
0000
1000
,  // measure 44
0000
0001
0002
0003
,  // measure 45
0000
0000
0000
0010
,  // measure 46
0000
0100
0200
0300
,  // measure 47
0000
0000
0000
1000
,  // measure 48
0000
0001
0002
0003
,  // measure 49
0000
0000
0200
0000
,  // measure 50
0300
0000
0000
0000
,  // measure 51
0000
0000
0000
0000
,  // measure 52
0001
0000
0001
0000
,  // measure 53
0020
0030
0010
0000
,  // measure 54
0100
0000
0100
0000
,  // measure 55
2000
3000
1000
0000
,  // measure 56
0010
0010
0010
0000
,  // measure 57
0100
0100
0100
0000
,  // measure 58
0002
0003
0002
0003
,  // measure 59
1000
1000
0002
0003
,  // measure 60
1000
0000
0000
1000
,  // measure 61
1000
0001
0000
0000
,  // measure 62
0001
0001
0100
0000
,  // measure 63
0000
0100
0100
0010
,  // measure 64
0000
0000
0010
0010
,  // measure 65
2000
0000
3000
0100
,  // measure 66
0100
0020
0000
0030
,  // measure 67
0001
0001
2000
3000
,  // measure 68
0020
0030
0100
0100
,  // measure 69
0001
0000
0000
0000
,  // measure 70
0000
0000
0000
0000
,  // measure 71
0000
0000
0000
0000
,  // measure 72
0000
0000
0000
0000
,  // measure 73
0000
0000
1000
0001
;

//---------------dance-single - vincentw-BAS----------------
#NOTES:
     dance-single:
     vincentw-BAS:
     Easy:
     4:
     0.250370,0.319934,0.156171,0.216905,0.000000,159.000000,18.000000,25.000000,0.000000,0.000000,0.000000,0.250370,0.319934,0.156171,0.216905,0.000000,159.000000,18.000000,25.000000,0.000000,0.000000,0.000000:
// measure 0
0000
0000
0000
0000
,  // measure 1
0000
0000
0000
0000
,  // measure 2
2000
0000
0000
3000
,  // measure 3
0002
0000
0000
0003
,  // measure 4
0000
1000
1000
0000
,  // measure 5
0000
0000
0000
0010
,  // measure 6
0000
0100
0100
0000
,  // measure 7
0000
0000
0000
0001
,  // measure 8
0000
0010
0010
0000
,  // measure 9
0000
0000
0000
0100
,  // measure 10
0000
1000
1000
0000
,  // measure 11
0000
0000
0010
0010
,  // measure 12
1000
0000
0001
0000
,  // measure 13
1000
0000
0001
0001
,  // measure 14
0100
0000
0010
0000
,  // measure 15
0100
0000
0010
0010
,  // measure 16
1000
0000
0100
0000
,  // measure 17
1000
0000
0100
0100
,  // measure 18
0020
0030
0020
0030
,  // measure 19
0002
0003
1000
0001
,  // measure 20
2001
0000
0000
0000
,  // measure 21
0000
0000
3000
0001
,  // measure 22
0200
0000
0000
0000
,  // measure 23
0000
0000
0300
0000
,  // measure 24
0100
0100
0001
0001
,  // measure 25
0010
0010
0100
1000
,  // measure 26
0010
0010
1000
1000
,  // measure 27
0100
0100
0020
0031
,  // measure 28
1000
0000
0000
1000
0000
0000
2000
0000
,  // measure 29
3000
0000
0010
0000
0000
0010
0000
0000
,  // measure 30
0020
0000
0030
0000
0100
0000
0000
0100
,  // measure 31
0000
0100
0001
0001
,  // measure 32
0101
0000
0000
0000
,  // measure 33
0000
0000
0000
0002
,  // measure 34
0003
1000
0000
1100
,  // measure 35
0000
0001
0000
0101
,  // measure 36
0000
1000
0000
1010
,  // measure 37
0000
0001
0000
0011
,  // measure 38
0000
0010
0000
0110
,  // measure 39
0000
0100
0000
1100
,  // measure 40
0000
1000
0000
1001
,  // measure 41
0000
0001
0000
0101
,  // measure 42
0000
0100
0010
0110
,  // measure 43
0000
0010
0000
1010
,  // measure 44
0000
1000
0001
1001
,  // measure 45
0000
1000
0000
1100
,  // measure 46
0000
0100
0010
0110
,  // measure 47
0000
0010
0000
0011
,  // measure 48
0000
0001
0100
0101
,  // measure 49
0000
0001
0010
0100
,  // measure 50
2000
0000
0000
0000
,  // measure 51
0000
0000
3000
0000
,  // measure 52
0010
0000
0010
0000
,  // measure 53
1000
1000
1000
0000
,  // measure 54
0002
0003
0002
0003
,  // measure 55
0010
0010
0010
0000
,  // measure 56
0100
0100
1000
1000
,  // measure 57
0001
0001
0100
0000
,  // measure 58
0020
0030
2000
3000
,  // measure 59
0100
0010
0001
0100
,  // measure 60
0101
0000
0000
0001
0000
0000
0002
0000
,  // measure 61
0003
0000
1000
0000
0000
1000
0000
0000
,  // measure 62
2000
0000
3000
0000
0010
0000
0000
0010
,  // measure 63
0000
0020
0030
0100
,  // measure 64
0000
0100
0000
0000
0200
0000
0300
0000
,  // measure 65
0001
0010
0001
0010
,  // measure 66
0002
1003
0010
1000
,  // measure 67
0010
2000
3100
0010
,  // measure 68
0001
0010
0200
2300
,  // measure 69
3020
0000
0000
0000
,  // measure 70
0000
0000
0000
0000
,  // measure 71
0000
0000
0000
0000
,  // measure 72
0000
0000
0000
0000
,  // measure 73
0030
0000
1000
0001
;

//---------------dance-single - vincentw-DIF----------------
#NOTES:
     dance-single:
     vincentw-DIF:
     Medium:
     7:
     0.417696,0.575882,0.078086,0.321019,0.047719,291.000000,9.000000,37.000000,0.000000,0.000000,0.000000,0.417696,0.575882,0.078086,0.321019,0.047719,291.000000,9.000000,37.000000,0.000000,0.000000,0.000000:
// measure 0
0000
0000
0000
0000
,  // measure 1
0000
0000
0000
0000
,  // measure 2
0002
0000
0000
0000
,  // measure 3
2003
0000
0000
3000
,  // measure 4
1001
0001
0001
0000
,  // measure 5
1000
0000
0001
0001
,  // measure 6
0010
0010
0010
0000
,  // measure 7
0100
0000
0100
0100
,  // measure 8
1000
1000
1000
0000
,  // measure 9
0010
0000
0100
0100
,  // measure 10
0001
0001
0001
0000
,  // measure 11
1000
0000
0010
0100
,  // measure 12
0001
0000
0100
0000
0001
0100
0001
0000
,  // measure 13
0000
0000
0001
0000
0000
0000
1000
0001
,  // measure 14
0000
0000
1000
0000
0100
1000
0100
0000
,  // measure 15
0000
0000
0010
0000
0000
0000
0100
0010
,  // measure 16
0000
0000
0001
0000
0010
0001
0010
0000
,  // measure 17
0000
0000
0001
0000
0000
0000
1000
0001
,  // measure 18
0000
0000
1000
0000
0010
1000
0010
0000
,  // measure 19
2000
0000
3200
0300
1000
0001
1000
0001
,  // measure 20
2000
0000
0010
0000
0000
0001
0000
0000
,  // measure 21
0100
0000
0000
0001
0000
0000
3020
0000
,  // measure 22
0230
0000
0010
0000
0000
1000
0000
0000
,  // measure 23
0010
0000
0000
0001
0000
0000
0300
0000
,  // measure 24
0001
0000
0001
0000
1000
1000
1000
0000
,  // measure 25
0010
0000
0010
0000
0100
0100
0100
0000
,  // measure 26
0001
0001
0010
0010
0100
0100
1000
1000
,  // measure 27
0001
0100
0001
1000
0100
1000
0010
0000
0010
0200
0000
0000
,  // measure 28
0310
0010
1000
1000
,  // measure 29
2020
3030
0100
0000
0100
0000
0001
0000
,  // measure 30
0001
0000
0202
0303
1000
0000
0100
0000
,  // measure 31
0010
0000
0001
0000
0200
0300
0020
0030
,  // measure 32
0210
0000
0302
0000
,  // measure 33
0023
0000
2030
3200
,  // measure 34
0301
0000
0001
0000
1000
0100
1000
0000
,  // measure 35
0000
0001
0000
0001
0000
1000
0100
1000
,  // measure 36
0010
0000
0010
0000
0100
0001
0100
0000
,  // measure 37
0000
0010
0000
0010
0000
0100
0001
0100
,  // measure 38
0001
0000
0001
0000
0010
0100
0010
0000
,  // measure 39
0000
0001
0000
0001
0000
0010
0100
0010
,  // measure 40
0100
0000
0100
0000
1000
0010
1000
0000
,  // measure 41
0000
0100
0000
0100
1000
0010
0100
0001
,  // measure 42
1000
0000
1000
0000
0001
0010
0001
1000
,  // measure 43
0000
1000
0000
1000
0000
0001
0010
0001
,  // measure 44
0100
0000
0100
0000
0010
1000
0010
0100
,  // measure 45
0000
0100
0000
0100
0000
0010
1000
0010
,  // measure 46
1000
0000
1000
0000
0100
0010
0100
1000
,  // measure 47
0000
1000
0000
1000
0000
0100
0010
0100
,  // measure 48
0010
0000
0010
0000
0001
0100
0001
0010
,  // measure 49
0000
0010
0000
0010
0001
0100
0001
1000
,  // measure 50
0002
0000
0010
0000
0000
1000
0000
0000
,  // measure 51
0100
0000
0000
1000
0003
0001
1000
0000
,  // measure 52
2002
0000
0000
0000
3003
0000
0220
0000
0000
0000
0330
0000
,  // measure 53
1000
0001
0100
0010
,  // measure 54
2020
0000
0000
0000
3030
0000
0202
0000
0000
0000
0303
0000
,  // measure 55
0001
0010
0100
1000
,  // measure 56
0001
0100
1000
0100
,  // measure 57
0001
0010
1000
0010
,  // measure 58
0001
0000
0100
0000
1000
0000
0001
0000
0010
0000
1000
0000
,  // measure 59
0001
0000
0100
0000
0010
0000
0220
0000
0000
0000
0330
0000
,  // measure 60
0001
0000
0100
0010
0000
1000
0010
0000
,  // measure 61
0200
0000
0301
0000
0010
0100
0000
1000
,  // measure 62
0100
0000
0020
0000
0130
0000
1000
0010
,  // measure 63
0000
0100
0001
0000
0020
0000
0031
0000
,  // measure 64
0100
0010
0000
1000
0100
0000
0020
0000
,  // measure 65
0031
0000
0100
1000
0000
0001
1000
0100
,  // measure 66
0002
0000
1003
0000
0100
0001
0000
1000
,  // measure 67
0001
0100
2000
0000
3001
0000
0010
1000
,  // measure 68
0000
0010
0001
1000
0010
0001
0010
1000
,  // measure 69
0002
0000
0000
0000
,  // measure 70
0000
0000
0000
0000
,  // measure 71
0000
0000
0000
0000
,  // measure 72
0000
0000
0000
0000
,  // measure 73
0003
0000
1000
0001
;

//---------------dance-single - vincentw-EXP----------------
#NOTES:
     dance-single:
     vincentw-EXP:
     Hard:
     9:
     0.650714,0.991797,0.277638,0.451162,0.299328,441.000000,32.000000,52.000000,0.000000,0.000000,0.000000,0.650714,0.991797,0.277638,0.451162,0.299328,441.000000,32.000000,52.000000,0.000000,0.000000,0.000000:
// measure 0
0000
0000
0000
0000
,  // measure 1
0000
0000
0000
0000
,  // measure 2
2000
0000
3020
0000
,  // measure 3
0230
0000
0302
0000
2003
3200
0320
0032
,  // measure 4
1003
0000
1000
0000
0001
0010
0001
0000
,  // measure 5
0000
1000
0000
1000
0000
0001
0010
0001
,  // measure 6
0100
0000
0100
0000
0010
1000
0010
0000
,  // measure 7
0000
0100
0000
0100
0000
0010
1000
0010
,  // measure 8
1000
0000
1000
0000
0100
0010
0100
0000
,  // measure 9
0000
1000
0000
1000
0000
0100
0010
0100
,  // measure 10
0010
0000
0010
0000
0001
0100
0001
0000
,  // measure 11
0000
0010
0000
0010
0001
0100
0010
1000
,  // measure 12
0001
0000
0001
0000
1000
0100
1000
0001
,  // measure 13
0000
0001
0000
0001
0000
1000
0100
1000
,  // measure 14
0010
0000
0010
0000
0100
0001
0100
0010
,  // measure 15
0000
0010
0000
0010
0000
0100
0001
0100
,  // measure 16
0001
0000
0001
0000
0010
0100
0010
0001
,  // measure 17
0000
0001
0000
0001
0000
0010
0100
0010
,  // measure 18
0100
0000
0100
0000
1000
0010
1000
0100
,  // measure 19
0000
0100
0000
0100
1000
0010
1000
0001
,  // measure 20
1000
0000
1100
0000
0000
0011
0000
0000
,  // measure 21
1010
0000
0000
0101
0000
0000
1001
0000
,  // measure 22
0010
0000
0110
0000
0000
1010
0000
0000
,  // measure 23
0101
0000
0000
1100
0000
0000
0000
0000
,  // measure 24
0001
0000
0001
0000
0001
0000
1000
0000
1000
0000
1000
0000
0010
0000
0010
0000
0010
0000
0200
0000
0000
0300
0100
0000
,  // measure 25
0001
0000
0010
0000
0001
0000
1000
0000
0100
0000
1000
0000
0010
0000
0010
0000
0010
0000
0200
0000
0000
0300
0100
0000
,  // measure 26
0010
0000
0010
1000
0000
0000
0001
0000
0001
0010
0000
0000
0100
0000
0100
1000
0000
0000
0001
0000
0001
0100
0000
0000
,  // measure 27
0020
0000
2030
0000
3200
0000
0302
0000
0203
0000
2300
0000
3010
1000
0010
0000
1000
0000
0002
0000
0000
0003
0001
0000
,  // measure 28
1000
0000
0100
0001
0000
1000
0001
0100
,  // measure 29
1000
0000
0001
0000
0100
1000
0000
0001
,  // measure 30
1000
0100
0001
0000
1000
0000
0010
0001
,  // measure 31
0000
0010
1000
0001
0010
1000
0010
0001
,  // measure 32
2000
3200
0302
0023
,  // measure 33
2030
3020
0032
0203
,  // measure 34
1300
0100
0010
0001
1000
0010
0100
0002
,  // measure 35
0000
0023
0000
2030
0000
3010
0001
1000
,  // measure 36
0001
0100
0010
1000
0001
0010
0100
2000
,  // measure 37
0000
3020
0000
0032
0000
0013
1000
0001
,  // measure 38
1000
0010
0100
0010
0001
0010
0100
0020
,  // measure 39
0000
2030
0000
3200
0000
0310
0001
0100
,  // measure 40
0001
0100
0010
0100
1000
0100
0010
0200
,  // measure 41
0000
0302
0000
0013
0100
1000
0010
1000
,  // measure 42
1010
0000
0101
0000
1000
0010
0101
0000
,  // measure 43
0000
0101
0000
1010
0000
0001
0100
1010
,  // measure 44
0000
1100
0011
0000
1000
0100
0011
0000
,  // measure 45
0000
0011
0000
1100
0000
0001
0010
1100
,  // measure 46
0000
0000
0110
0000
1000
0001
0110
0000
,  // measure 47
0000
0110
0000
1001
0000
0010
0100
1001
,  // measure 48
0001
0001
0010
0010
0100
0100
1000
1000
,  // measure 49
0001
1000
0001
1000
0002
0000
0003
0000
0100
0000
0010
0000
1000
0000
0100
0000
,  // measure 50
0020
0000
0001
0000
0000
0100
0000
1000
,  // measure 51
1000
0000
0000
0100
0000
0001
0031
0000
,  // measure 52
0010
0000
0001
0000
0010
0001
1000
0000
0010
0000
1000
0010
,  // measure 53
0100
0001
0100
0001
1000
0100
1000
0100
,  // measure 54
1000
0000
0010
0000
1000
0010
0100
0000
0001
0000
0100
0001
,  // measure 55
0010
0001
0010
0001
1000
0100
1000
0100
,  // measure 56
1000
0001
1000
0000
1001
0000
0001
1000
0001
0000
1001
0000
,  // measure 57
0100
0010
0100
0000
0110
0000
0020
0000
0030
0000
0110
0000
,  // measure 58
1000
0100
0010
0001
0010
0100
1000
0010
0100
0001
0100
0010
,  // measure 59
1000
0001
1000
0000
0001
0000
0220
0000
0330
0000
0001
0000
,  // measure 60
1000
0100
1000
0001
0100
0001
1000
0010
,  // measure 61
0001
0010
1000
0010
1000
0001
0010
0001
,  // measure 62
1000
0100
0002
0000
1003
0010
0001
1000
,  // measure 63
0100
1000
0001
0100
0001
0100
1000
0100
,  // measure 64
0001
1000
0010
1000
0001
0010
0002
0000
,  // measure 65
1003
0010
0001
1000
0100
0001
1000
0100
,  // measure 66
0001
0100
1000
0000
0001
0000
0100
0000
1000
0000
0001
0000
0010
0000
1000
0000
,  // measure 67
0001
0000
0100
0000
1000
0100
0001
0000
1000
0100
0010
0000
0001
0000
0100
0001
,  // measure 68
1000
0000
0100
0000
0010
0001
1000
0000
0001
1000
0001
0000
1000
0001
1000
0000
,  // measure 69
2002
0000
0000
0003
,  // measure 70
0002
0000
0000
3000
,  // measure 71
2000
0003
0002
3000
,  // measure 72
2003
3002
2003
0002
,  // measure 73
3003
0000
1000
0001
;

//---------------dance-single - vincentw-CHA----------------
#NOTES:
     dance-single:
     vincentw-CHA:
     Challenge:
     11:
     0.918436,1.000000,0.546600,0.572628,0.737476,612.000000,63.000000,66.000000,0.000000,0.000000,0.000000,0.918436,1.000000,0.546600,0.572628,0.737476,612.000000,63.000000,66.000000,0.000000,0.000000,0.000000:
// measure 0
0000
0000
0000
0000
,  // measure 1
0000
0000
0000
0000
,  // measure 2
0000
0001
0000
0010
0000
0100
0000
1000
0000
0001
0000
0100
0000
0010
0000
1000
,  // measure 3
0001
0000
0010
0000
0100
0000
0010
0000
1000
0000
0001
0000
0100
0000
0010
0000
0100
0000
1000
0000
0001
0000
1000
0000
0010
1000
0010
1000
0001
0100
0001
0100
,  // measure 4
0001
0010
0100
1000
0001
0100
0010
2000
,  // measure 5
0000
3200
0000
0302
0000
0103
1000
0001
,  // measure 6
1000
0010
0100
0001
1000
0100
0010
0002
,  // measure 7
0000
0203
0000
2300
0000
3100
0001
1000
,  // measure 8
0001
0100
0010
0100
1000
0100
0010
0200
,  // measure 9
0000
0302
0000
0023
0000
0130
1000
0010
,  // measure 10
1000
0010
0100
0010
0001
0010
0100
0020
,  // measure 11
0000
2030
0000
3100
0010
0001
0100
0001
,  // measure 12
0101
0000
1010
0000
0001
0100
1010
0000
,  // measure 13
0000
1010
0000
0101
0000
1000
0010
0101
,  // measure 14
0000
0011
1100
0000
0001
0010
1100
0000
,  // measure 15
0000
1100
0000
0011
0000
1000
0100
0011
,  // measure 16
0000
0000
0110
0000
0001
1000
0110
0000
,  // measure 17
0000
0110
0000
1001
0000
0100
0010
1001
,  // measure 18
1000
1000
0100
0100
0010
0010
0001
0001
,  // measure 19
1000
0001
1000
0001
2000
0000
3000
0000
0010
0000
0100
0000
0001
0000
0010
0000
,  // measure 20
0100
0000
0110
0010
0010
0011
0001
0001
,  // measure 21
0101
0100
0100
0110
0010
0010
1010
0000
,  // measure 22
1000
0000
1001
1000
1000
1100
0100
0100
,  // measure 23
0110
0010
0010
0011
0001
0001
0200
0000
,  // measure 24
0310
1000
0010
0000
0010
0000
0100
0001
0100
0000
0100
0000
0001
0010
0001
0000
0001
0000
2000
0000
0000
3000
1000
0000
,  // measure 25
0001
0100
0001
0100
0001
0000
1000
0010
1000
0010
1000
0000
0001
0010
0001
0000
0010
0000
0200
0000
0000
1300
0100
0000
,  // measure 26
1000
0100
0000
0010
0001
0000
1000
0010
0000
0100
0001
0100
0001
0010
0000
1000
0010
0000
0001
0100
0000
1000
0100
0000
,  // measure 27
0101
0000
0000
0000
1001
0000
0000
0000
1010
0000
0000
0000
1100
0000
0000
0000
0110
0000
0000
0000
0011
0000
0000
0000
0010
0000
0000
0001
0000
0000
0100
0000
0000
1000
0000
0000
0001
0000
0000
0010
0000
0000
1000
0000
0000
0100
0000
0000
,  // measure 28
1100
1000
1000
1001
0001
0001
0011
0010
,  // measure 29
0220
0330
0110
0100
0100
1100
1000
1000
,  // measure 30
1010
0010
0220
0330
0110
0100
0100
0101
,  // measure 31
0001
0000
0001
0000
0011
0000
0010
0000
0010
0001
0010
0001
1000
0100
1000
0100
,  // measure 32
1000
0000
0000
0000
,  // measure 33
0000
0000
0000
0000
0000
0000
0000
0000
0000
0000
0000
0000
0000
0000
0000
0000
0000
0000
0000
0000
0000
0000
0000
0000
0001
0010
0100
1000
0001
0100
0010
1000
,  // measure 34
0001
0010
0100
1000
0001
1000
0001
1000
,  // measure 35
0010
0000
1000
0000
0001
0000
0100
0000
0001
0010
0001
0000
1000
0100
1000
0000
,  // measure 36
0010
0000
1000
0000
0100
0000
0010
0000
0001
0000
1000
0000
0010
0000
0100
0001
,  // measure 37
0100
0001
1000
0010
1000
0010
1000
0000
0100
0000
1000
0000
0010
0000
0001
0000
,  // measure 38
1000
0100
0010
1000
0100
1000
0010
0001
,  // measure 39
0010
0000
1000
0000
0100
0000
0010
0000
1000
0010
1000
0010
0001
0010
0001
0000
,  // measure 40
0100
0000
0001
0000
0010
0000
0100
0000
1000
0000
0001
0000
0100
0000
0010
1000
,  // measure 41
0010
1000
0001
0100
0001
0100
0001
0000
0010
0000
0001
0000
0100
0000
0010
0000
,  // measure 42
0110
0100
0101
0000
0101
1001
1010
0200
,  // measure 43
0302
0023
0032
0100
0203
0300
0011
1100
,  // measure 44
0000
1010
0101
0000
0110
1010
1001
0002
,  // measure 45
2003
3020
2030
0001
3002
0003
1100
0011
,  // measure 46
0000
0000
1001
0000
1001
1100
0110
0002
,  // measure 47
0023
2030
3020
0001
0032
0003
0101
1010
,  // measure 48
1000
1000
0010
0010
0100
0100
0001
0001
,  // measure 49
1000
0100
1000
0100
0010
0001
0010
0000
0001
0000
0100
0000
1000
0000
0001
0000
,  // measure 50
0010
0000
1000
0010
1000
0000
0001
0000
0010
0001
0010
0000
0100
0000
1000
0100
,  // measure 51
1000
0000
0001
0000
0100
0001
0100
0000
0002
0000
0000
0000
2000
0000
0003
0000
,  // measure 52
3001
0001
1000
0000
1000
0000
0100
0100
0010
0000
0010
0000
,  // measure 53
0001
0001
0100
0001
0100
0000
0020
0000
0030
1000
1000
0000
,  // measure 54
0001
0010
0001
0010
0001
0001
1000
0100
1000
0100
1000
1000
,  // measure 55
0010
0010
0100
0010
0100
0000
0002
0000
2003
3002
2000
3003
,  // measure 56
0001
0001
0001
1000
0002
0000
0103
0100
0100
0010
0200
0000
,  // measure 57
0310
0010
0010
1000
0020
0000
2030
0000
3000
0100
2000
0000
,  // measure 58
3001
0001
0010
0010
1000
1000
0001
0001
0100
0100
1000
1000
,  // measure 59
0001
0001
0001
1000
0100
0000
2000
0000
0000
0001
3002
0000
,  // measure 60
1003
0000
0100
1000
0100
0000
1000
0000
0010
1000
0010
0000
1000
0000
0010
0000
,  // measure 61
0001
0010
1000
0000
0001
0000
0100
0001
0100
0000
0001
0000
0010
0001
0010
0000
,  // measure 62
0001
0000
0010
0000
1000
0010
0001
0000
1000
0000
0001
0100
0001
0000
1000
0000
,  // measure 63
0001
0010
0001
0000
1000
0100
0001
0000
0001
0100
1000
0000
0001
0000
1000
0100
,  // measure 64
1000
0000
0001
0000
1000
0010
1000
0000
0001
0100
1000
0000
1000
0100
0001
0000
,  // measure 65
1000
0010
1000
0010
1000
0000
0001
0100
0001
0100
0001
0000
1000
0001
1000
0001
,  // measure 66
2000
0000
0000
0000
3001
0010
0001
0010
0001
0000
1000
0100
1000
0100
1000
0000
,  // measure 67
0010
0100
0010
0100
0020
0000
0000
0000
1030
0100
0010
0001
1000
0000
0001
0100
,  // measure 68
0010
1000
0001
0000
1000
0010
0100
0010
0001
1000
0100
0010
0100
0001
0010
0100
,  // measure 69
2000
0000
3020
0000
,  // measure 70
0032
0000
0203
0000
,  // measure 71
2300
3200
0320
0032
,  // measure 72
0203
0302
0203
0302
2003
3020
2030
3020
,  // measure 73
0030
0000
1000
0001
;
