#TITLE:ベィスドロップ・フリークス;
#SUBTITLE:;
#ARTIST:かめりあ feat. ななひら;
#TITLETRANSLIT:Bassdrop Freaks;
#SUBTITLETRANSLIT:;
#ARTISTTRANSLIT:Camellia feat. nanahira;
#GENRE:;
#CREDIT:mf32892;
#BANNER:Bassdrop Freaks-bn.png;
#BACKGROUND:Bassdrop Freaks-bg.png;
#LYRICSPATH:;
#CDTITLE:;
#MUSIC:Bassdrop Freaks.ogg;
#OFFSET:-0.600795;
#SAMPLESTART:56.531879;
#SAMPLELENGTH:12.000000;
#SELECTABLE:YES;
#BPMS:0.000000=89.500000
,36.000000=179.000000
,68.000000=89.500000
,115.000000=179.000000
,155.000000=89.500000
,155.500000=179.000000
,172.500000=89.500000
,173.500000=179.000000
,246.000000=44.750000
;
#STOPS:84.000000=0.335000,
91.500000=0.332000,
177.500000=0.503000,
206.000000=0.335000,
237.500000=0.332000
;
#BGCHANGES:0.000=Bassdrop Freaks.mp4=1.000=0=0=0=StretchNoLoop====,
99999=-nosongbg-=1.000=0=0=0 // don't automatically add -songbackground-
;
#KEYSOUNDS:;
#ATTACKS:;

//---------------dance-single - ----------------
#NOTES:
     dance-single:
     :
     Hard:
     10:
     0.784823,1.000000,0.212278,0.585888,0.768447,553.000000,25.000000,69.000000,0.000000,0.000000,0.000000,0.784823,1.000000,0.212278,0.585888,0.768447,553.000000,25.000000,69.000000,0.000000,0.000000,0.000000:
// measure 0
0000
0000
0000
0000
,  // measure 1
0000
0000
0000
0000
,  // measure 2
0000
0000
0000
0000
0000
0000
0000
0000
0000
0000
0000
0000
0000
0000
1000
0100
,  // measure 3
0012
0000
0103
0000
0010
1000
0000
0021
0000
0130
0000
1020
0000
0130
0000
0001
,  // measure 4
1002
0000
0000
0000
0103
0000
0200
0000
0000
0000
0310
0000
1000
0000
0001
0000
0010
0000
0000
0100
0000
0000
1000
0000
0000
0001
0000
0000
0100
0000
0010
0000
,  // measure 5
1020
0000
0100
0000
0031
0010
0010
2000
0000
3001
0010
2000
0000
3010
0100
0000
,  // measure 6
1200
0000
0000
0000
0010
0000
0010
0000
0000
0000
1300
0000
0001
0000
0100
0000
0000
0000
0010
0000
0000
0000
0100
0001
0100
0000
0000
0000
0010
0000
1000
0000
,  // measure 7
0002
0000
0010
0023
0000
0130
1000
0001
2000
0000
0010
3020
0000
0130
0001
1000
,  // measure 8
0002
0000
0013
0200
0000
1300
0010
1000
0002
0000
0013
0100
1000
0001
0100
0000
,  // measure 9
0010
0010
1000
1000
,  // measure 10
0001
0000
0001
0000
0010
0100
0010
0000
,  // measure 11
0100
1000
0001
0100
,  // measure 12
0010
1000
0100
0010
,  // measure 13
0001
0010
0001
0010
0100
1000
0100
1000
,  // measure 14
0001
0100
0001
0100
0010
1000
0010
1000
,  // measure 15
0001
0010
0001
0010
0100
1000
0100
1000
0001
0100
0001
0100
0010
1000
0010
1000
,  // measure 16
0002
0000
0000
0000
0000
1003
0001
0000
,  // measure 17
2100
0000
0000
0000
3001
0000
0010
0001
0100
0000
1000
0000
0100
0000
0001
0000
1000
0000
0100
0000
0010
0000
0001
0000
0100
0000
0010
0000
0010
0000
0010
0000
,  // measure 18
2000
0000
0000
0000
3100
0000
0010
0100
0020
0000
0001
0000
0031
0000
0000
1000
0001
0000
0100
0000
0001
0000
0010
0001
0100
0000
0100
0000
0100
0000
0001
1000
,  // measure 19
0200
0000
0000
0000
1300
0000
0001
0100
0001
0000
0010
0000
0100
0000
1000
0000
0010
0000
0001
0000
0010
0000
1000
0000
0100
0000
0010
0000
0010
0000
0010
0000
,  // measure 20
0002
0000
0000
0000
1003
0000
0020
0000
0000
0000
0130
0000
0001
0000
1000
0100
1000
0000
0000
1000
0000
0001
1000
0100
0010
0000
0001
0010
0000
0100
1000
0001
,  // measure 21
0200
0000
0000
0000
0000
0000
0000
0000
0000
0000
0000
0000
0301
0000
0000
0000
0000
0000
0100
0000
0000
0000
0000
0000
0001
0000
0000
0000
0000
0000
0000
0000
0000
0000
0000
0000
0010
0000
0000
0000
0000
0000
0000
0000
0000
0000
0000
0000
0000
0000
0000
0000
0000
0000
0000
0000
0000
0000
0000
0000
0100
0000
0000
0000
0000
0000
0000
0000
0000
0000
0000
0000
2000
0000
0000
0000
0000
0000
0000
0000
0000
0000
0000
0000
3001
0000
0000
0000
0000
0000
0000
0000
0000
0000
0000
0000
1000
0000
0000
0000
0000
0000
0000
0000
0000
0000
0000
0000
0010
0000
0000
0000
0000
0000
0000
0000
0000
0000
0000
0000
0100
0000
0000
0000
0000
0000
0000
0000
0001
0000
0000
0000
0000
0000
0000
0000
0100
0000
0000
0000
0000
0000
0000
0000
0010
0000
0000
0000
0000
0000
0000
0000
1000
0000
0000
0000
0000
0000
0000
0000
0100
0000
0000
0000
0000
0000
0000
0000
0020
0000
0000
0000
0000
0000
0000
0000
0000
0000
0000
0000
0000
0000
0000
0000
0000
0000
0000
0000
0000
0000
0000
0000
,  // measure 22
0031
0000
1000
0001
1000
0000
0200
0000
0010
0000
0300
0010
0001
0000
1000
0000
0001
0000
0100
0010
1000
0000
1000
0000
1000
0000
0001
1000
0200
0000
0000
0000
,  // measure 23
0310
0000
0001
0000
0000
0000
1000
0000
0001
0000
0100
0000
0010
0000
1000
0100
0010
0000
0010
0000
0010
0000
0001
1000
0200
0000
0000
0000
0310
0000
0001
0000
,  // measure 24
0200
0000
0000
0000
0310
0000
0000
0000
1000
0000
0000
1010
0000
0000
0001
0000
0000
0011
0000
0000
1000
0000
0100
0000
0021
0000
0000
0000
1000
0000
0000
0000
,  // measure 25
0100
0130
0010
0002
0000
1003
0010
0002
0000
0013
0100
0000
0201
0000
0310
2000
,  // measure 26
0000
3001
0010
2000
0000
3010
0100
2000
0000
3010
0100
0001
1020
0000
0100
0000
,  // measure 27
0001
0030
0010
0000
0010
0000
2000
0000
0000
0000
3001
0000
0010
0000
2000
0000
0000
0000
3010
0000
0100
0000
1000
0000
0001
0000
0000
0000
0101
0000
0000
0000
,  // measure 28
0010
0000
0000
0000
1010
0000
0000
0000
0100
0000
0000
0000
1100
0000
0000
0000
1000
0001
1000
0000
0100
0000
0000
0100
0010
0000
0000
0000
0000
0000
0000
0000
,  // measure 29
0011
0000
1000
0001
0100
0010
0000
0010
,  // measure 30
1000
0001
0000
0001
0010
0000
0110
0000
,  // measure 31
1000
0001
0000
0100
0010
1000
0000
0100
,  // measure 32
0010
0000
0001
0010
0001
0000
0000
0000
0010
0000
0100
0000
2000
0000
0000
0000
,  // measure 33
3001
0200
0000
0310
1000
0001
0020
0000
,  // measure 34
0130
2000
0000
3001
0100
0010
2000
0000
,  // measure 35
3100
0000
0002
0000
0000
0000
0103
0000
0010
0000
0001
0000
1000
0010
0000
0000
,  // measure 36
0010
0100
0001
1000
0100
0000
0010
0000
,  // measure 37
0001
1000
0000
0010
0100
0001
1000
0001
,  // measure 38
0100
0001
0100
0000
0010
0000
1000
0000
0100
0000
0010
0000
0002
0000
1003
0001
,  // measure 39
1000
0100
0010
0000
0001
1000
0000
0001
0200
0000
0000
0000
0310
0000
1000
0000
,  // measure 40
0001
1000
0100
0000
0000
0100
0000
0000
0100
0000
2000
0000
3001
0000
0100
0000
,  // measure 41
0010
0000
0000
0000
1000
0000
0100
0000
0012
0000
0000
0000
1003
0000
0001
0100
,  // measure 42
0001
0000
0100
0000
1000
0000
0100
0000
0001
0000
1000
0000
0100
0010
0100
0000
,  // measure 43
1000
0000
0000
0000
0001
0000
0100
0000
0000
0001
0000
0000
1200
0000
0000
0000
0000
0000
0000
0000
0310
0000
0000
0000
0201
0000
0000
0000
0000
0000
0000
0000
,  // measure 44
0310
0000
2100
0000
0000
0000
3002
0000
0103
0000
0010
0000
1000
0000
0001
2000
,  // measure 45
0000
0000
3100
0000
0010
0100
0010
0000
0001
0000
1000
0000
0010
0000
0100
0000
,  // measure 46
0020
0000
0030
0000
1000
0010
0100
0001
0100
0000
0010
0000
1000
0000
0011
0000
,  // measure 47
0000
0000
0100
1000
0100
1000
0100
1000
0100
0000
1000
0001
0000
0100
0001
0000
,  // measure 48
1000
0001
0100
1000
0000
0100
0001
1000
,  // measure 49
0000
0000
0100
0000
0010
0100
0010
0000
0001
0000
1000
0000
0010
0000
0001
0000
,  // measure 50
0010
1000
0100
0010
0001
0100
0010
1000
,  // measure 51
0001
0000
0000
0000
0000
0000
0010
0000
0000
0000
0000
0000
0100
0000
0000
0000
2002
3003
0000
0000
0000
0000
0000
0000
0102
0000
0000
0000
0000
0000
0000
0000
,  // measure 52
0013
0000
0100
0010
0100
0000
1000
0000
0001
0000
0100
0000
1000
0000
0100
0000
,  // measure 53
0010
0000
0100
0010
0100
0000
0001
0000
0001
0000
0001
0000
2000
0000
0000
0000
,  // measure 54
3100
0000
0010
0001
0020
0000
0100
0000
1000
0000
0030
0000
0020
0000
0000
0000
,  // measure 55
0130
0000
1000
0001
1000
0100
0010
0001
0010
0100
1000
0001
2000
0000
0000
0000
,  // measure 56
3001
0000
0100
0001
0100
0000
0010
0000
1000
0000
0010
0000
0002
0000
0000
0000
,  // measure 57
0013
0000
1000
0001
1000
0000
1000
0000
0100
0000
1000
0000
0002
0000
0000
0000
,  // measure 58
0103
0000
0200
0000
0000
0000
0310
0000
1000
0000
0001
0100
0002
0000
0000
0000
,  // measure 59
0013
2100
0000
3010
0100
0100
0001
0001
,  // measure 60
1000
0000
1000
0000
0100
0000
0100
0000
0010
0001
0010
0001
1000
0001
1000
0001
,  // measure 61
0100
0010
1000
0010
0100
0001
0010
0100
2000
0000
0000
0000
3000
0000
0000
0000
;

//---------------dance-single - ----------------
#NOTES:
     dance-single:
     :
     Easy:
     6:
     0.406361,0.550543,0.237752,0.365118,0.055192,264.000000,28.000000,43.000000,0.000000,0.000000,0.000000,0.406361,0.550543,0.237752,0.365118,0.055192,264.000000,28.000000,43.000000,0.000000,0.000000,0.000000:
0000
0000
0000
0000
,
0000
0000
0000
0000
,
0000
0000
0000
0000
,
0012
0000
0000
0000
0103
0000
0000
2020
0000
0000
3030
0202
0000
0000
0303
0000
,
2100
0000
0000
0000
0000
0000
0002
0000
0000
0000
3000
0000
0000
0000
0000
0000
0103
0000
0000
0100
0000
0000
0010
0000
0000
0010
0000
0000
1000
0000
0000
0000
,
2100
0000
3001
0010
0120
0031
1000
0010
,
0120
0000
1030
0100
0001
0100
1000
0000
,
0201
0000
0000
0000
1300
0000
0100
0000
0002
0000
0000
0003
0100
0000
0001
0000
,
0020
0000
0130
1000
0001
1000
1001
0000
,
0100
0001
0100
0001
,
1000
0100
1000
0100
,
0010
0001
0010
0001
,
1000
0001
1000
0001
,
0100
0100
0010
0010
,
1000
1000
0001
0001
,
0010
0100
1000
0001
,
2002
0000
0000
3003
,
1200
0000
0310
0001
1000
0001
0100
0010
,
2010
0100
3200
0000
0310
0001
1000
1000
,
0002
0000
0103
0001
0010
0001
1000
0000
,
0200
0000
0310
0001
1000
0010
0100
0001
,
1000
1100
0000
0010
0001
0100
0001
0020
,
0000
0230
0000
1300
0001
0100
0010
0200
,
0301
0000
1000
0001
0100
0010
2000
0000
,
3001
0000
0000
0000
0000
0000
0000
0000
0010
0000
0000
0001
0000
0000
0010
0000
0000
0001
0000
0000
0010
0000
0000
0000
0200
0000
0000
0000
0000
0000
0000
0000
,
1300
0000
0000
0000
0001
0000
0000
0001
0100
0000
0000
0000
0020
0000
0000
0000
,
1030
0000
0000
0000
0001
0000
0000
0001
0010
0000
0000
0000
0020
0000
0000
0000
,
0130
0000
0000
0000
1000
0000
0000
1000
0001
0000
0000
0000
0100
0000
0100
0000
,
0010
0000
0010
0000
1000
0000
0001
0000
1000
0001
1000
0000
0100
0000
0000
0000
,
0100
0000
0000
1000
0001
0000
0100
0000
,
0010
0000
0000
1000
0001
0000
1000
0000
,
0001
0000
0000
0100
0001
0000
0100
0000
,
0010
0000
1000
0001
1000
0000
0100
0000
,
0010
0000
0000
0001
1000
0000
0001
0000
,
0100
0000
0000
0001
1000
0000
0100
0000
,
0010
0000
0001
0100
0001
0000
0100
0000
,
0001
2002
3003
2000
,
0000
3001
0000
0100
,
0001
0010
0100
2000
,
0000
3001
0000
0100
0020
0000
0000
0000
,
0000
0130
0000
0100
0000
0002
0000
0000
,
0000
0013
0000
0200
0000
0000
0000
1300
,
0000
0001
0000
0100
0000
0020
0000
0000
,
0030
1000
0000
0001
0000
0000
0001
0000
,
0000
0001
0000
2000
3100
0000
0000
0000
,
0010
0001
1000
0001
,
0200
0000
0000
0000
0310
0000
1000
0001
,
0000
1000
0001
0000
0010
0001
0010
0000
,
0200
0000
1300
0001
,
0100
0000
0010
0000
0100
0001
0100
0000
,
0010
1000
0001
1000
,
0100
0010
0110
0000
,
0101
0000
1100
0000
,
0101
0000
1100
0000
,
0011
0000
1010
0000
,
0011
0000
1010
0100
,
0101
1000
1100
0001
,
0101
1000
1100
0002
,
0103
0010
0100
0010
0100
0000
0002
0000
,
1003
0200
0000
1300
0001
0000
0001
0000
,
0100
0000
0100
0000
0010
1000
0010
0000
,
1000
0001
1000
0000
2002
0000
3003
0000
;

//---------------dance-single - ----------------
#NOTES:
     dance-single:
     :
     Medium:
     8:
     0.606509,0.786491,0.059438,0.500977,0.382101,434.000000,7.000000,59.000000,0.000000,0.000000,0.000000,0.606509,0.786491,0.059438,0.500977,0.382101,434.000000,7.000000,59.000000,0.000000,0.000000,0.000000:
0000
0000
0000
0000
,
0000
0000
0000
0000
,
0000
0000
0000
0000
0000
0000
0000
0000
0000
0000
0000
0000
0000
0000
1000
0100
,
0020
0000
0130
0000
1000
0001
0000
0200
0000
0310
0000
2000
0000
3001
0000
0000
,
0020
0000
0000
0000
0000
0000
0230
0000
0000
0000
0000
0000
1300
0000
0001
0000
0100
0000
0000
0100
0000
0000
0010
0000
0000
0010
0000
0000
0100
0000
0001
0000
,
0020
0000
0130
0000
1000
0001
0000
0100
0000
1000
0000
0100
0000
0001
0000
0000
,
2000
0000
3100
0200
0000
0300
0010
0001
0000
1000
0000
0002
0000
0003
0010
0001
,
0200
0000
0010
0320
0000
0000
1030
0001
2000
0000
0100
3200
0000
0000
0310
0001
,
2000
0000
0001
0002
0000
0000
3000
0000
0103
0000
0001
0010
0100
1000
0001
0000
,
0100
0100
0010
1000
,
0001
0000
0001
0000
1000
0100
1000
0000
,
0001
0001
0010
0100
,
1000
0000
0001
0000
0100
0001
0100
0000
,
0010
1000
0010
0000
1000
0001
1000
0000
,
0001
0010
0001
0000
0010
0100
0010
0000
,
0100
1000
0001
0100
0010
1000
0100
0010
,
0002
0000
0000
0000
0000
1003
0010
0000
,
0102
0000
1003
0001
1000
0100
0010
0000
0002
0000
0103
0001
0100
0010
1000
0001
,
2000
0000
3100
0010
0002
0000
1003
0000
0001
0100
0001
0010
0100
1000
0010
0100
,
0002
0000
1003
0001
0100
0000
0010
0000
1000
0001
1000
0100
0010
0001
1000
0001
,
0200
0000
0310
1000
0000
0001
1000
0200
0000
0310
0001
1000
0001
0100
0010
1000
,
0002
0000
1003
0001
0100
0000
0010
1000
0010
1000
0002
0000
2003
0000
3200
0000
,
0310
0001
1000
0001
1000
0000
0010
0100
0010
0000
1000
0001
0100
0001
2000
0000
,
3001
0000
0000
0000
0100
0000
0010
0100
0001
1000
0001
0010
0200
0000
1300
0001
,
0200
0000
0000
0000
0310
0000
0000
0000
1000
0000
0000
0001
0000
0000
1000
0000
0000
0001
0000
0000
0010
0000
0100
0000
2000
0000
0000
0000
0001
0000
0000
0000
,
0100
0100
0000
3002
0000
0010
0000
2003
0000
0010
0000
3000
0002
0000
0100
0100
,
0000
1003
0001
0100
0000
0010
0000
1000
0000
0000
0100
0010
0002
0000
0010
0000
,
1000
1000
0000
0203
0000
1000
0000
0320
0000
0001
0000
0000
2030
0000
0000
0002
,
0000
0000
3000
0000
0013
0000
1100
0000
0010
0000
0001
1000
0010
0000
0000
0000
,
0100
0000
0001
0100
0001
0010
0000
0100
,
1000
0100
0000
0010
0001
0000
1000
0000
,
0010
1000
0000
0010
0100
0001
0000
1000
,
0001
0100
0000
0010
1000
0001
0020
0000
,
0130
1000
0000
0001
0100
0001
2000
0000
,
3100
0010
0000
0001
0010
0001
0200
0000
,
0310
0000
2000
0000
0000
0000
3001
0000
1000
0000
0100
0000
0010
0001
0000
0000
,
0001
0010
0100
1000
0001
0000
0101
0000
,
0010
1000
0000
0001
0010
0100
0000
1000
,
0001
1000
0010
0100
0001
0000
0020
0130
,
1000
0000
0001
0000
0000
0100
0000
0000
0020
0000
0000
0000
1030
0000
0001
0000
,
1000
0000
0100
0000
0000
0100
0000
0000
0100
0000
0020
0000
0000
0000
0031
0000
,
1000
0000
0010
0100
0001
0000
0010
0001
,
0010
0100
1000
0001
0100
0010
0000
1000
,
0001
0200
0000
0310
0000
1000
0001
0000
,
1000
0100
0000
0020
0031
0010
0100
1000
,
0000
1000
0001
0100
0010
1000
0010
0000
,
0200
0300
0001
1000
0100
0010
0001
0011
,
0000
0000
0001
0000
0010
0000
0001
0000
0100
0000
0000
0100
0000
0000
0100
0000
,
0010
0000
1000
0001
0000
0100
0010
1000
,
0000
0001
1000
0100
1000
0100
0010
0001
,
1000
0010
1000
0010
0100
0001
0100
0001
,
1000
0000
0000
0000
0000
0000
0100
0000
0000
0000
0000
0000
0010
0000
0000
0000
0022
0033
0000
0000
0000
0000
0000
0000
1100
0000
0000
0000
0000
0000
0000
0000
,
0001
0010
0001
0100
0010
0000
2000
0000
,
3001
1000
0001
0100
0010
1000
0200
0000
,
0310
0100
0010
0001
1000
0000
0002
0000
,
0103
0001
0100
0010
1000
0001
0200
0000
,
0310
0100
0001
1000
0100
0000
0020
0000
,
0031
1000
0001
0010
1000
0010
0100
0000
,
1000
0100
0000
0010
0001
0100
0100
0000
,
0010
2000
0000
3001
0010
0100
0010
0100
,
1000
0001
1000
0001
0100
0010
1000
0100
,
0010
0001
0100
0010
2002
0000
3003
0000
;
