#TITLE:この曲は空気曲である。まずタイトルがとても覚えにくい。近年の優勝曲に倣って短いタイトルを使わぬからだ。ジャンル名も長ったらしくしている割に曲調は割とよくある感じなのでアベレージも上がりにくい。アーティスト名も数多くの作者がいると見せかけて、実は全部桃山なので豪華さは無いに等しい。曲に無理やりピアノを入れて『ほ~ら、階段譜面だぞ~~~~~?』と言うアピールもあるがBOFじゃおそらく埋もれる。BGAも話題になるほど可愛いキャラはいないので『●●たんペロペロ』とか言う変態も寄り付かない。ワブルなベースを入れても、グリッヂ的なの入れても、今じゃ飽和だし高得点に繋がらない。やれば皆伝になる御利益やあの曲が蘇る御利益もない。……これらの特徴を踏まえた結果、この曲は空気曲なのである。;
#SUBTITLE:;
#ARTIST:momo★yama VS. erotic server VS. Initial-P VS. pinky brass man VS. JUMPERS VS. DJ.pinky VS. 電波君(a.k.a.大魔王電波) VS. ミラクル★J VS. goblin (もちろん全部桃山) from Team JUMPER;
#TITLETRANSLIT:Kono kyoku wa kuuki-kyokudearu. Mazu TITLE ga totemo oboe nikui. Kin'nen no yuushou-kyoku ni naratte mijikai TITLE o tsukawanukarada. GENRE-mei mo nagattarashiku shite iru wari ni kyokuchou wa wari to yoku aru kanjinanode AVERAGE mo agari nikui. ARTIST-mei mo kazuooku no sakusha ga iru to misekakete, jitsuwa zenbu Momoyamananode gouka-sa wa nai ni hitoshii. Kyoku ni muriyari piano o irete 'ho~ra, kaidan fumenda zo~~~~~?' To iu APPEAL moaruga BOF ja osoraku umoreru. BGA mo wadai ni naru hodo kawaii CHARA wa inainode ' . . tan peropero' toka iu hentai mo yoritsukanai. WOBBLE na BASS o iretemo, GLITCH-tekina no iretemo, ima ja houwadashi koutokuten ni tsunagaranai. Yareba kaiden ni naru goriyaku ya ano kyoku ga yomigaeru goriyaku mo nai. ......Korera no tokuchou o fumaeta kekka, kono kyoku wa kuuki kyokuna nodearu.;
#SUBTITLETRANSLIT:;
#ARTISTTRANSLIT:momo*yama VS. erotic server VS. Initial-P VS. pinky brass man VS. JUMPERS VS. DJ.pinky VS. Denpa-kun(a.k.a. High Devil-King Denpa) VS. MIRACLE*J VS. goblin (Naturally all of these are momoyama) from Team JUMPER;
#GENRE:SYMPHONIC FUSION GLITCH DUBSTEP JAPANESE-POPS CROSSOVER JUMPING JUMPING LONG GENRE AND MANY NAME AIRILY EPIC TRANCE (konzertsaal - THE BMS OF FIGHTERS 2013 - version);
#CREDIT:Telperion;
#BANNER:[Scrabble] - kuuki.png;
#BACKGROUND:[Scrabble] - kuuki-bg.png;
#LYRICSPATH:;
#CDTITLE:cdtitle.png;
#MUSIC:[Scrabble] - kuuki.ogg;
#OFFSET:0.000000;
#SAMPLESTART:117.565002;
#SAMPLELENGTH:14.222000;
#SELECTABLE:YES;
#DISPLAYBPM:135.000000;
#BPMS:0.000000=135.000000
;
#STOPS:
;
#BGCHANGES:0.000=songbackground=1.000=0=0=1=====,
1.000=[Scrabble] - kuuki.avi=1.000=1=0=1===CrossFade==,
320.000=songbackground=1.000=0=0=1=====,
99999=-nosongbg-=1.000=0=0=0 // don't automatically add -songbackground- ;;
#KEYSOUNDS:;
#ATTACKS:;

//---------------dance-single - ----------------
#NOTES:
     dance-single:
     :
     Hard:
     9:
     0.627511,0.695224,0.113724,0.319848,0.614818,557.000000,16.000000,45.000000,0.000000,0.000000,0.000000,0.627511,0.695224,0.113724,0.319848,0.614818,557.000000,16.000000,45.000000,0.000000,0.000000,0.000000:
0000
0000
0000
0000
,
0000
0000
0000
0000
,
0000
1000
0001
1100
,
0001
1000
0001
0100
0100
0000
0110
0000
,
1000
0001
0010
0011
,
1000
0000
0001
0000
1000
0000
0000
0010
0000
0000
0100
0000
0101
0000
0000
0000
,
0001
0010
0100
0000
1000
0000
1100
0000
,
0001
1000
0001
0010
0010
0000
0110
0000
,
0100
1000
0001
0000
0100
0000
0110
0000
,
1000
0000
0001
0000
1000
0000
0000
0100
0000
0000
0001
0100
0010
0000
0000
0000
,
0001
1000
1002
0000
0100
0000
1000
0000
,
0103
0001
0020
0000
0100
0000
0001
0000
,
0130
0000
1000
0001
0200
0000
0000
0000
0010
0000
0000
0000
1000
0000
0000
0000
,
0310
0000
1000
0000
0002
0000
0000
0000
1000
0000
0000
0000
0013
0000
0000
0010
,
0100
1000
0200
0000
1000
0300
0110
0000
,
0010
0001
0002
0000
1000
0003
0011
0000
,
0001
1000
1000
0010
1000
0001
1000
0010
,
0100
0100
0200
0000
0301
1000
0200
0300
,
0011
0000
0000
0000
1000
0000
0010
0000
0000
0000
0100
0010
0000
0000
0100
0000
,
0000
0000
0001
1000
0000
0000
0100
0000
0000
0000
0100
0010
0000
0000
0100
0000
,
1000
0000
0001
0000
0100
0000
0010
0000
0000
0000
1000
0010
0000
0000
1000
0000
,
0000
0000
0001
0010
0000
0000
0010
0000
0000
0000
0100
0010
0001
1000
0000
0000
,
1000
0000
0001
0100
0010
0000
1000
0000
0000
0000
0010
0100
0000
0000
0100
0000
,
0000
0000
0001
1000
0000
0000
0001
0000
0000
0000
0010
0100
0000
0000
0100
0000
,
0001
0100
1000
0001
0100
0001
1000
0100
,
0010
0000
0001
0000
1000
0010
1000
0000
0010
0100
0001
0000
0011
0000
1100
0000
,
0001
0000
1000
0000
0010
0000
0100
0001
0100
0010
0000
1000
0000
0000
0001
0010
,
0001
1000
0000
0100
0000
0000
0010
0001
0010
0100
0000
1000
0000
0000
0001
1000
,
0001
1000
0001
1000
0010
0000
0100
0010
0100
0010
0000
1000
0000
0000
0001
1000
,
0100
0010
0000
0001
0000
0000
0010
0100
1000
0001
0000
0100
0000
0000
0010
1000
,
0010
1000
0001
0010
0100
0000
1000
0001
1000
0010
0000
0100
0000
0000
0001
1000
,
0001
0010
0000
0100
0000
0000
1000
0100
1000
0001
0000
0100
0000
0000
0010
0100
,
0010
0100
0001
1000
0100
0000
0010
0001
0010
0100
0000
1000
0000
0000
0010
1000
,
0010
0100
0000
0001
0000
0000
0010
0100
1000
0001
1000
0001
0100
0000
0010
0000
,
0010
0000
1000
0000
0001
0000
0000
0000
1000
0000
0010
1000
0010
0000
0000
0010
,
0100
0000
0001
0000
1000
0000
0000
0000
0000
0001
0010
0001
1000
0100
0010
0001
,
1000
0001
0010
0100
2000
0000
0000
0000
0001
0000
0000
0000
3010
0000
0000
0010
,
0100
0000
0000
0100
0001
0000
0000
0000
0000
0100
0001
0100
0010
1000
0010
0100
,
0001
0000
1000
0000
0100
0000
0000
0000
0010
0000
0001
0010
0001
0000
1000
0010
,
0000
0000
0100
0000
0001
0000
0000
0000
0000
1000
0100
1000
0001
0100
0010
1000
,
0002
0000
0000
0000
0000
0000
1003
0000
0000
0010
0000
0000
0200
0000
0000
0000
0000
0000
0000
0000
0000
0000
0000
0000
1000
0000
0000
0000
0000
0000
0000
0000
0000
0000
0000
0000
0310
0000
0000
0000
1000
0000
0000
0000
0001
0000
0000
0000
,
0010
0000
0100
0000
1000
0000
0002
0000
0000
0000
0000
0000
2003
0000
0000
0000
0000
0000
3100
0000
0000
0001
0000
0000
,
0100
0000
0000
1000
0000
0000
0001
0000
0000
0001
0000
0000
0001
0000
0000
0001
0000
0000
1000
0000
0100
0000
1000
0000
,
0100
0000
0000
0000
1000
0000
0000
0000
0100
0000
0000
0000
0010
0000
0000
0001
0000
0000
0000
0000
0000
0001
0000
0000
1000
0000
0000
0000
0010
0000
0000
0000
1000
0000
0000
0000
0020
0000
0000
0000
0000
0000
0030
0000
0000
0000
0000
0000
,
0200
0000
0300
0000
0001
0000
0100
0001
0100
0000
0010
0000
1000
0000
1000
0000
,
1000
0000
1000
0000
0001
0000
0001
0010
0100
0000
1000
0000
0002
0000
0000
0000
,
0200
0000
0300
0000
1003
0000
0001
0100
0000
0000
1000
0100
0000
0000
0001
0100
,
0000
0000
1000
0100
0000
0000
0001
0010
0000
0000
1000
0010
0000
0000
0001
0010
,
0000
0000
1000
0010
0000
0000
0100
0001
0000
0000
1000
0100
0000
0000
0010
0001
,
0000
0000
1000
0010
0100
0000
0100
0000
0001
0100
0000
0001
0000
1000
0001
0100
,
0002
0000
1003
0000
0000
0100
0000
1000
,
0100
0000
0000
0010
0001
0000
0000
0000
0000
0000
1000
0001
1000
0000
0000
0000
,
0010
0000
0100
0000
0001
0000
0000
0000
0010
0001
0010
0100
1000
0000
0010
1000
,
0010
0000
0100
0001
0100
0000
0000
0000
0020
0000
2030
0000
3002
0000
0023
0000
,
0230
0000
2300
0000
3002
0000
0000
0000
0100
0000
0000
0000
1000
0000
0000
0013
,
0000
0000
0001
0000
2000
0000
0000
0000
3010
0000
1000
0010
0100
0000
0000
0000
,
0001
0000
0000
0100
0000
0000
0001
0000
0010
0000
0100
0000
1000
0000
0001
0000
0100
0000
0010
0000
1000
0000
0100
0000
,
0010
0100
0010
0001
1000
0000
0000
0000
1010
0000
0000
0000
0101
0000
0000
1000
,
0000
0001
1100
0000
0000
0001
0000
0100
,
0010
0000
0000
0010
1000
0000
0000
0000
0000
0000
1000
0001
0010
0000
0000
0000
,
0100
0000
0010
0000
0001
0000
0000
0000
0100
0000
0010
0000
1000
0010
0100
0010
,
1000
0000
0001
0010
0200
0000
1300
0001
0000
0000
1000
0000
0020
0000
0130
0010
,
0000
0010
0100
0001
1000
0000
0000
0000
0000
0000
0100
0000
0100
0000
0010
0000
,
0010
0000
0001
0000
1000
0001
0000
1000
0010
1000
0000
0001
0010
0001
0000
1000
,
0100
1000
0000
0001
0100
0000
0000
0100
0000
0000
0020
0000
1030
0000
0000
0000
,
0000
0000
0000
0000
0001
0000
0001
0000
1000
0001
0000
1000
0100
1000
0001
0100
,
0010
0000
0000
0000
2000
0000
0000
0000
0010
0000
0000
0000
3002
0000
0000
0023
,
0000
0000
0130
1000
0200
0000
0000
0000
0310
0000
0100
1000
0002
0000
0000
0000
,
0203
0320
0001
0100
,
1030
0000
0000
0000
0002
0000
0000
0000
0013
0000
0001
0010
0200
0000
0000
0000
,
0001
0000
2300
0000
3001
0020
0001
0000
,
0031
0000
0010
0100
0020
0000
0000
0000
0031
0000
2000
0000
0001
0000
0000
0000
,
0001
0000
0000
3010
0100
0001
0001
1000
0100
0010
0001
1000
,
1000
0000
0000
0000
0010
0000
0000
0000
0100
0000
0000
0000
0001
0000
0000
1000
0000
0000
0001
0000
0000
0100
0000
0000
0010
0000
0000
1000
0000
0000
0001
0000
0000
0010
0000
0000
0100
0000
0000
0010
0000
0000
2000
0000
0000
0000
0000
0000
,
3010
0001
1000
0010
0200
0000
0000
0000
0000
0000
0002
0000
0000
0000
0000
0000
,
0000
0000
0000
0000
,
0000
0000
0000
0000
,
0000
0000
0000
0000
,
0000
0303
0000
0000
;

//---------------dance-single - ----------------
#NOTES:
     dance-single:
     :
     Medium:
     6:
     0.405140,0.444944,0.120831,0.284309,0.056862,342.000000,17.000000,40.000000,0.000000,0.000000,0.000000,0.405140,0.444944,0.120831,0.284309,0.056862,342.000000,17.000000,40.000000,0.000000,0.000000,0.000000:
0000
0000
0000
0000
,
0000
0000
0000
0000
,
0000
0001
0100
0101
,
0000
1000
0000
0001
1000
0000
1100
0000
,
0000
0001
0010
0011
,
0000
0000
1000
0000
0010
0000
0000
0100
0000
0000
0000
0000
0101
0000
0000
0000
,
0000
0001
0010
0110
,
0000
0001
0000
1000
0010
0000
0110
0000
,
0000
0001
1000
1010
,
0000
0000
0001
0000
0010
0000
0000
0100
0000
0000
0000
0000
1100
0000
0000
0000
,
0001
1000
0002
0000
0100
0000
1000
0000
,
0000
0023
0001
1000
,
0000
0230
0001
0010
,
0000
0000
0000
0000
2300
0000
0000
0000
0001
0000
0000
0000
3010
0000
0000
0010
,
0100
0002
1003
0110
,
0010
2000
3001
0110
,
0010
0001
1000
0000
1000
0000
1000
0000
,
0100
0100
0200
0000
0300
0000
0200
0000
,
0300
0000
1001
0001
0000
0100
0000
0100
,
0000
0010
0000
0010
0000
1000
0000
0001
,
1000
0001
0010
0100
0000
0100
0000
1000
,
0000
1000
0000
0010
0000
0010
0100
0000
,
0001
0000
1001
1000
0000
1000
0000
0100
,
0000
0100
0000
0010
0000
0010
0000
0001
,
0010
0100
1000
0000
1000
0000
0001
0000
,
0001
0000
1000
1000
0001
0001
0100
0010
,
1000
0001
0010
0000
1000
0000
0100
0000
,
0001
0010
1000
0000
0100
0000
0001
0000
,
0010
1000
0100
0000
0001
0000
0010
0000
,
1000
0100
0010
0000
0001
0000
1000
0010
,
1000
0001
0010
0000
0001
0000
0100
0000
,
1000
0010
0001
0000
0100
0000
1000
0000
,
0010
0001
0100
0000
1000
0000
0010
0000
,
0001
0100
1000
0000
0010
0000
0100
0010
,
1000
0000
0001
0000
0010
0000
0000
0000
0100
0000
1000
0000
1000
0000
0000
0010
,
0000
0100
0001
0000
0000
0001
0010
0001
,
0010
0100
1000
0000
0001
0000
0100
0000
,
0010
0000
1000
0000
0000
1000
0010
1000
,
0001
0000
0010
0000
0100
0000
0000
0000
0010
0000
0001
0000
0001
0000
0000
1000
,
0000
0010
0100
0000
0000
0100
0001
0010
,
0100
0000
0000
1000
0000
0000
0001
0000
0000
0000
0000
0000
0100
0000
0000
0000
0000
0000
0010
0000
0000
0000
0010
0000
,
1000
0000
0000
0000
1000
0000
0002
0000
0000
0000
0000
0000
2003
0000
0000
0000
0000
0000
3100
0000
0000
0100
0000
0000
,
0100
0100
0020
0000
0000
0000
0230
0000
,
0000
1300
2000
3001
,
0002
0203
0000
0320
,
0000
1030
2000
3001
,
0002
0000
0013
0001
0000
0010
0000
0001
,
0000
1000
0000
0100
0000
1000
0000
0100
,
0000
1000
0000
0010
0000
1000
0000
0010
,
0000
0000
0100
0000
0001
0000
0010
0000
0001
0000
0000
1000
0000
0000
0010
0000
,
1000
0000
0101
0000
0000
0100
0000
0100
,
0010
0000
1000
0000
0000
0001
0001
0000
,
0010
0100
1000
0000
0010
1000
0010
0100
,
0001
0010
0100
0000
2000
0000
3002
0000
,
0203
0000
0000
0000
0310
0000
0000
0000
1000
0000
0000
0000
0010
0000
0000
0100
,
0000
0000
0001
0000
0000
1000
1000
0000
,
0100
0000
0000
0010
0000
0000
0001
0000
0000
0000
0001
0000
0010
0000
0000
0000
0010
0000
0100
0000
0000
0000
0100
0000
,
1000
0000
0001
0000
0100
0000
0000
0000
1001
0000
0000
0000
0101
0000
0000
1000
,
0000
0100
1100
0000
0000
0100
0000
0100
,
0010
0000
0001
0000
0000
1000
1000
0000
,
0010
0100
0001
0000
0010
0001
0010
0100
,
1000
0010
0200
0000
0301
0000
0002
0000
,
1003
0000
1010
0000
0000
0001
0001
1000
,
1000
0010
0100
0001
,
0010
0000
0000
0000
0100
0000
0000
0100
0000
0000
0100
0000
1000
0000
0000
0000
,
0000
0000
0000
0000
1000
0000
0010
0000
1000
0000
0000
0000
0001
0000
0000
0001
,
0000
0000
0010
0000
0200
0000
0000
0000
0010
0000
0000
0000
2300
0000
0000
0020
,
3000
0230
0302
0000
1003
0001
0200
0000
,
0302
0023
0001
0100
,
1030
0000
0002
0000
0013
0001
2000
0000
,
3020
0000
0230
0000
0000
0002
0000
0000
,
0300
0000
0203
0000
0000
2000
0000
0000
,
0300
0000
3100
0010
1000
0001
0010
0100
,
0001
1000
0100
0010
1000
0001
0010
0100
,
1000
0001
0200
0000
0000
0002
0000
0000
,
0000
0000
0000
0000
,
0000
0000
0000
0000
,
0000
0000
0000
0000
,
0000
0303
0000
0000
;

//---------------dance-single - ----------------
#NOTES:
     dance-single:
     :
     Easy:
     3:
     0.215263,0.278090,0.000000,0.092400,0.000000,199.000000,0.000000,13.000000,0.000000,0.000000,0.000000,0.215263,0.278090,0.000000,0.092400,0.000000,199.000000,0.000000,13.000000,0.000000,0.000000,0.000000:
0000
0000
0000
0000
,
0000
0000
0000
0000
,
0000
1000
1000
1000
,
0000
0001
0000
0000
0001
0000
0001
0000
,
0000
0100
0100
0100
,
0000
0010
0000
0000
0010
0000
0000
0000
,
0010
1000
1000
1000
,
0000
0001
0000
0000
0001
0000
0001
0000
,
0000
0010
0010
0010
,
0000
0100
0000
0000
0100
0000
0000
0000
,
0100
1000
0001
1000
,
0000
1000
0010
1000
,
0000
1000
0100
1000
,
0000
0001
0000
0000
0100
0000
0100
0000
,
0000
0001
1000
0001
,
0000
0001
0010
0001
,
0000
1000
0100
0001
,
0010
1000
0001
0100
,
0010
2000
0000
3000
,
0000
0002
0000
0003
,
0000
0020
0000
0030
,
0000
0100
1000
0010
,
0001
0200
0000
0300
,
0000
0020
0000
0030
,
0000
1000
1000
0001
,
0001
0010
1000
0002
,
0003
0010
0000
0010
,
0000
0100
0000
0100
,
0000
1000
0000
1000
,
0000
0001
0000
0001
,
0000
0100
0000
0100
,
0000
0010
0000
0010
,
0000
1000
0000
1000
,
0000
0001
0000
1000
,
0001
0010
0000
0010
,
0010
0100
0000
0100
,
0100
1000
0000
0001
,
0000
0100
0000
0100
,
0100
0010
0000
0010
,
0010
1000
0000
0001
,
1000
0001
0000
0010
,
0000
0100
0100
2000
,
3000
0001
0000
0001
,
0000
0100
0000
0100
,
0000
1000
0000
1000
,
0000
0010
0000
0001
,
1000
0100
0000
0100
,
0000
0001
0000
0001
,
0000
0010
0000
0010
,
0000
1000
0001
0010
,
0000
0100
0000
0100
,
0010
0001
0000
0001
,
1000
0010
0000
0010
,
0000
0100
0001
0100
,
0001
1000
0000
1000
,
0100
0010
0000
0010
,
0001
1000
0000
1000
,
0000
0100
1000
0100
,
1000
0001
0000
0010
,
0001
0100
0000
1000
,
0010
0001
0000
1000
,
0000
0010
1000
0010
,
1000
0001
0000
1000
,
0100
0010
0000
0001
,
0100
1000
0000
0001
,
0000
0010
0010
0100
,
0100
2000
0000
3001
,
0000
0002
0000
0103
,
0001
0200
0001
0320
,
0100
2030
0000
3001
,
0000
0010
0000
0010
,
0000
0100
0000
0100
,
0000
1000
1000
0001
,
0001
0000
1000
0001
1000
0001
1000
0001
,
1000
0001
0200
0000
0000
0000
0000
0000
,
0000
0000
0000
0000
,
0000
0000
0000
0000
,
0000
0000
0000
0000
,
0000
0300
0000
0000
;

//---------------dance-single - ----------------
#NOTES:
     dance-single:
     :
     Beginner:
     1:
     0.089354,0.166854,0.000000,0.035539,0.000000,83.000000,0.000000,5.000000,0.000000,0.000000,0.000000,0.089354,0.166854,0.000000,0.035539,0.000000,83.000000,0.000000,5.000000,0.000000,0.000000,0.000000:
// measure 0
0000
0000
0000
0000
,  // measure 1
0000
0000
0000
0000
,  // measure 2
0000
0100
0000
0000
,  // measure 3
0000
0100
0000
0000
,  // measure 4
0000
0100
0000
0000
,  // measure 5
0000
0100
0000
0000
,  // measure 6
0000
0010
0000
0000
,  // measure 7
0000
0010
0000
0000
,  // measure 8
0000
0010
0000
0000
,  // measure 9
0000
0010
0000
0000
,  // measure 10
0000
0001
0000
0000
,  // measure 11
0000
0001
0000
0000
,  // measure 12
0000
0001
0000
0000
,  // measure 13
0000
0001
0000
0000
,  // measure 14
0000
1000
0000
0000
,  // measure 15
0000
1000
0000
0000
,  // measure 16
0000
1000
0000
0000
,  // measure 17
0000
1000
0000
0000
,  // measure 18
0000
0100
0000
0000
,  // measure 19
0000
0010
0000
0000
,  // measure 20
0000
0001
0000
0000
,  // measure 21
0000
1000
0000
0000
,  // measure 22
0000
0010
0000
0000
,  // measure 23
0000
0100
0000
0000
,  // measure 24
0000
0001
0000
0000
,  // measure 25
0000
1000
0000
0000
,  // measure 26
0000
0100
0000
0000
,  // measure 27
0000
0100
0000
0000
,  // measure 28
0000
0010
0000
0000
,  // measure 29
0000
0001
0000
0000
,  // measure 30
0000
0100
0000
0000
,  // measure 31
0000
0100
0000
0000
,  // measure 32
0000
0010
0000
0000
,  // measure 33
0000
1000
0000
0000
,  // measure 34
0000
0001
0000
0000
,  // measure 35
0000
0001
0000
0000
,  // measure 36
0000
0010
0000
0000
,  // measure 37
0000
0100
0000
0000
,  // measure 38
0000
1000
0000
0000
,  // measure 39
0000
1000
0000
0000
,  // measure 40
0000
0010
0000
0000
,  // measure 41
0000
0100
0000
0000
,  // measure 42
0000
0001
0001
0001
,  // measure 43
0000
1000
1000
1000
,  // measure 44
0000
0001
0001
0001
,  // measure 45
0000
1000
1000
1000
,  // measure 46
0000
0001
0001
0001
,  // measure 47
0000
1000
1000
1000
,  // measure 48
0000
0001
0000
0001
,  // measure 49
0000
1000
0000
1000
,  // measure 50
0000
0100
0000
0000
,  // measure 51
0000
0010
0000
0000
,  // measure 52
0000
1000
0000
0000
,  // measure 53
0000
0001
0000
0000
,  // measure 54
0000
0010
0000
0000
,  // measure 55
0000
0100
0000
0000
,  // measure 56
0000
0001
0000
0000
,  // measure 57
0000
1000
0000
0000
,  // measure 58
0000
0100
0000
0000
,  // measure 59
0000
0010
0000
0000
,  // measure 60
0000
1000
0000
0000
,  // measure 61
0000
0001
0000
0000
,  // measure 62
0000
0010
0000
0000
,  // measure 63
0000
0100
0000
0000
,  // measure 64
0000
0001
0000
0000
,  // measure 65
0000
1000
0000
0000
,  // measure 66
0000
0020
0000
0000
,  // measure 67
0000
0030
0000
0000
,  // measure 68
0000
0200
0000
0000
,  // measure 69
0000
0300
0000
0000
,  // measure 70
0000
0002
0000
0000
,  // measure 71
0000
0003
0000
0000
,  // measure 72
0000
2000
0000
0000
,  // measure 73
0000
0000
0000
0000
,  // measure 74
0000
3200
0000
0000
,  // measure 75
0000
0000
0000
0000
,  // measure 76
0000
0000
0000
0000
,  // measure 77
0000
0000
0000
0000
,  // measure 78
0000
0300
0000
0000
;
