#TITLE:WICKeD CRφSS;
#SUBTITLE:;
#ARTIST:OSTER project;
#TITLETRANSLIT:WICKeD CROSS;
#SUBTITLETRANSLIT:;
#ARTISTTRANSLIT:;
#GENRE:PROGRESSIVE;
#CREDIT:;
#BANNER:[Scrabble] - WICKeD CROSS.png;
#BACKGROUND:[Scrabble] - WICKeD CROSS-bg.png;
#LYRICSPATH:;
#CDTITLE:cdtitle.png;
#MUSIC:[Scrabble] - WICKeD CROSS.ogg;
#OFFSET:0.000000;
#SAMPLESTART:11.967000;
#SAMPLELENGTH:13.416000;
#SELECTABLE:YES;
#BPMS:0.000000=180.000000
;
#STOPS:
;
#BGCHANGES:;
#KEYSOUNDS:;
#ATTACKS:;

//---------------dance-single - ----------------
#NOTES:
     dance-single:
     :
     Hard:
     10:
     0.822606,0.993388,0.036330,0.108989,0.776546,634.000000,630.000000,4.000000,12.000000,0.000000,0.000000,0.822606,0.993388,0.036330,0.108989,0.776546,634.000000,630.000000,4.000000,12.000000,0.000000,0.000000:
0000
0000
0000
0000
,
0000
0000
0000
0000
,
0000
0000
0000
0000
,
0000
0000
0000
0000
,
1100
0000
0010
0001
,
1000
0000
0100
1000
,
0010
0100
0010
0100
0010
0100
0010
0100
,
0001
1000
0001
1000
0001
1000
0001
1000
,
0001
0000
0010
0000
0100
0000
1000
0000
0010
0000
0100
0000
0001
1000
0001
1000
,
0001
0000
1000
0100
1000
0000
0010
0000
1000
0000
0001
0010
0100
0010
0001
1000
,
0001
0000
0100
0010
0100
0000
0001
0000
1000
0000
0010
1000
0100
1000
0010
0100
,
0001
0000
0010
0001
0010
0000
0001
0000
0100
0000
0010
1000
0010
0100
0001
1000
,
0100
0000
1000
0001
1000
0000
0001
1000
0001
1000
0100
0010
0001
0100
0010
1000
,
0100
0000
1000
0001
1000
0000
0010
0000
1000
0010
1000
0010
0100
0001
0100
0001
,
0010
0000
0001
1000
0001
0000
1000
0000
0001
0010
0001
0010
0100
1000
0100
1000
,
0010
0000
1000
0010
1000
0000
0001
0000
1000
0001
1000
0001
0010
0100
0010
0100
,
1000
0000
0000
0000
0000
0000
0010
0000
0000
1000
0000
0000
0010
0000
0000
0000
0000
0000
0100
0000
0000
0000
0000
0000
0001
0000
0000
0000
0010
0000
0000
0000
0100
0000
0000
0000
1000
0000
0000
0000
0100
0000
0000
0000
0010
0000
0000
0000
,
0001
0100
0001
1000
0100
1000
0001
0010
0001
1000
0010
1000
,
0002
0000
0000
0000
,
1003
0100
0010
0100
1000
0000
0001
0100
,
0001
0010
0100
1000
0010
0100
0001
1000
,
0100
0010
0001
1000
0001
0000
1000
0010
,
0100
0001
0010
0100
1000
0100
0010
0100
,
1000
0001
0100
0001
1000
0100
0010
0001
,
1000
0001
0010
0001
1000
0010
0100
0001
,
1000
0100
1000
0000
0001
0010
0001
0000
1000
0010
1000
0010
0100
0001
0100
0001
,
0010
0000
0000
0000
0000
0000
0001
0000
0000
1000
0000
0000
0001
0000
0000
0000
0000
0000
1000
0000
0000
0000
0000
0000
0010
0000
0000
0000
0000
0000
1000
0000
0010
0000
1000
0000
0010
0000
0000
0000
0000
0000
0100
0000
0000
0000
0000
0000
,
0001
0010
0100
1000
0001
0100
0010
1000
,
0001
0100
1000
0100
0010
1000
0001
0100
,
0010
1000
0100
0010
0001
1000
0010
0100
,
0001
1000
0100
0001
0100
1000
0001
0010
,
0002
0000
0000
1003
0010
1000
0001
0010
0100
1000
0001
0100
,
0020
0000
0000
1030
0001
0010
0100
1000
0001
0100
0010
1000
,
0100
0010
0100
0010
0001
0010
0001
1000
0001
1000
0010
1000
,
0200
0000
0320
0000
,
0031
0000
1000
0010
0100
0001
1000
0100
,
0010
0001
0010
0100
1000
0000
0001
0100
,
0010
1000
0001
0010
0100
1000
0100
0010
,
0001
0000
1000
0001
0010
0100
0010
0001
,
1000
0100
0010
0001
0100
0000
0001
0100
,
0010
0000
1000
0000
0100
0000
0010
0000
0001
1000
0001
1000
0100
0010
0100
0010
,
0001
0000
0000
0000
1000
0000
0010
0000
0100
0000
0001
0000
1000
0100
1000
0000
,
0001
0010
0001
0000
1000
0001
1000
0000
0001
0000
0000
0000
1000
0000
0001
0000
,
0010
0000
0100
0000
1000
0000
0001
0010
0001
0100
0001
0100
0010
1000
0010
1000
,
0100
0000
0010
0001
1000
0001
1000
0010
,
1000
0001
0010
0001
0100
0000
0010
0000
,
1000
0001
0100
0001
,
2002
0000
0000
3003
,
1000
0010
1000
0010
1000
0010
1000
0010
,
0100
0001
0010
0100
1000
0010
0100
0001
,
1000
0000
0001
0000
0100
0000
0010
1000
0010
0000
1000
0100
1000
0000
0001
0000
,
0000
1000
0010
1000
0010
0000
0100
0000
0001
1000
0001
0000
0010
0000
0000
0000
,
0001
0000
0010
0000
1000
0000
0010
0000
0001
0100
0001
0000
1000
0000
0100
0000
,
1000
0010
1000
0000
0001
0010
0001
0000
1000
0000
0100
0000
0010
0000
0001
0000
,
0100
0000
0010
0000
0100
0000
0001
1000
0001
0000
1000
0100
1000
0000
0010
0000
,
0000
1000
0001
1000
0001
0000
0100
0000
0010
1000
0010
0000
0100
0000
0000
0000
,
0001
0000
0100
0000
1000
0000
0100
0000
0001
1000
0001
0000
1000
0000
0010
0000
,
1000
0100
1000
0001
1000
0000
0001
0000
0100
0000
0010
0000
1000
0000
0000
0000
,
0001
0000
0100
0001
0100
0000
0010
1000
0010
0000
1000
0100
1000
0000
0001
0010
,
0001
0000
0000
0000
0100
0000
0000
0000
0001
0000
0000
0000
1000
0000
0000
0000
0010
0000
0000
0000
1000
0000
0000
0000
0001
0000
0000
0000
0010
0000
0000
0000
0001
0000
0000
0000
1000
0000
0000
0001
0000
0000
1000
0000
0000
0001
0000
0000
,
1000
0010
1000
0000
0100
1000
0100
0000
0010
0000
0001
0000
1000
0000
0001
0000
,
1000
0000
0000
0000
0100
0000
0000
0000
0010
0000
0000
0000
0001
0000
0000
0000
0100
0000
0000
0000
0010
0000
0000
0000
1000
0000
0000
0000
0000
0000
0000
0000
0000
0000
0000
0000
0001
0000
0000
0100
0000
0000
0001
0000
0000
0100
0000
0000
,
0001
0000
1000
0010
1000
0000
0100
0000
0010
0000
0001
1000
0100
1000
0001
1000
,
0100
0000
0010
0001
0010
0000
0001
0000
1000
0000
0001
0100
0010
0100
0001
0100
,
0010
0000
1000
0100
1000
0000
0001
0000
0100
0000
0010
1000
0100
1000
0001
0010
,
0001
0000
1000
0100
1000
0000
0001
1000
0001
0100
0001
0100
0010
1000
0010
1000
,
0100
0000
0010
0001
0010
0000
0001
0000
1000
0010
1000
0010
0100
0001
0100
0001
,
0010
0000
0001
1000
0001
0000
1000
0000
0001
0100
0001
0100
0010
1000
0010
1000
,
0100
0000
0010
0001
0010
0000
0001
0000
1000
0010
0100
0001
1000
0100
0010
0001
,
1000
0000
0000
0000
0000
0000
0010
0000
0000
0100
0000
0000
0010
0000
0000
0000
0000
0000
1000
0000
0000
0000
0000
0000
0001
0000
0000
0000
0100
0000
0000
0000
0001
0000
0000
0000
1000
0000
0000
0000
0010
0000
0000
0000
1000
0000
0000
0000
,
0001
0010
0100
1000
0100
0010
0001
0100
0010
1000
0010
0100
,
0002
0000
0000
0000
,
0000
0000
0000
0003
,
2002
0000
0000
0000
,
0000
0000
0000
0000
,
3003
0220
0000
0000
,
0000
0000
0000
0000
,
0000
0000
0000
0000
,
0000
0330
0000
0000
0000
0000
0000
0000
;

//---------------dance-single - ----------------
#NOTES:
     dance-single:
     :
     Medium:
     8:
     0.506020,0.603128,0.254307,0.181648,0.090824,390.000000,362.000000,28.000000,20.000000,0.000000,0.000000,0.506020,0.603128,0.254307,0.181648,0.090824,390.000000,362.000000,28.000000,20.000000,0.000000,0.000000:
0000
0000
0000
0000
,
0000
0000
0000
0000
,
0000
0000
0000
0000
,
0000
0000
0000
0000
,
0000
0000
0000
0000
,
0000
0000
0000
0000
,
0000
0000
0000
0000
,
0000
0000
0000
0000
,
1000
0001
1000
0001
0010
0100
0010
0100
,
1000
0000
1001
0110
,
1001
0000
0011
1010
,
1001
0000
0001
0100
0010
0000
1000
0100
,
0010
0100
1000
0010
0100
0001
0010
0001
,
1000
0000
1010
0000
0001
0010
0100
0010
,
0001
0000
0011
0000
1000
0010
0100
0010
,
1000
0000
1001
0000
0001
0010
0100
1000
,
0010
0000
0000
0110
0000
0000
1000
0000
1000
0100
0000
0100
,
0010
0000
0010
0001
0000
0001
0100
0000
0100
0010
0000
0010
,
2000
0000
0000
3001
,
1000
0100
0010
0100
1000
0000
0010
0100
,
0010
0000
0100
0001
0100
0000
0001
0010
,
0001
0100
0010
0100
0001
0000
1000
0010
,
1000
0000
0100
1000
0100
1000
0010
0100
,
0001
0010
0001
0010
0100
1000
0100
1000
,
0001
0100
0001
0100
0010
1000
0010
1000
,
0100
0000
0100
0000
0010
0001
0100
0010
,
1000
0000
0001
0000
1000
0100
0001
0100
,
1000
0000
1000
0000
0010
0100
0001
0000
,
0010
0000
0010
0000
0100
1000
0010
1000
,
0001
0000
0001
0000
0010
0100
1000
0000
,
0100
0000
0100
0000
0010
0001
1000
0100
,
2000
3010
0100
0001
,
0020
0031
0100
0010
,
1000
0000
1000
0100
0000
0100
0010
0000
0010
0001
0000
0001
,
2000
0000
0002
3003
,
1001
0001
0001
0100
,
0010
1000
0010
0000
1000
0000
0100
0000
,
0100
0000
0010
0000
0001
1000
0001
0000
,
0100
0010
0010
1000
,
0100
1000
0100
0000
1000
0000
0001
0000
,
0001
0000
1000
0010
1000
0001
1000
0100
,
2000
0000
0000
3010
,
0110
1001
1002
0000
,
1000
0013
0110
0011
,
1001
0000
1000
0010
0100
0010
1000
0000
,
0001
0010
0000
0010
0100
0000
1000
0000
,
0010
0001
0010
1000
,
0200
0000
0000
0000
,
0310
0001
0010
0001
0010
0001
0010
0001
,
1000
0010
1000
0010
0100
0001
0100
0001
,
0010
0001
0100
0010
1000
0100
0010
0200
,
0000
1300
0010
1000
0001
0010
0001
0000
,
0100
0010
0100
0010
1000
0100
0010
0001
,
0100
0010
0100
0010
1000
0001
0010
0100
,
1000
0001
0010
0001
1000
0100
0010
0200
,
0000
0310
0001
0100
0010
1000
0001
0000
,
0010
0100
0010
0100
1000
0010
0100
0001
,
0010
0100
0010
0100
1000
0001
0100
0000
,
0002
0023
0230
2300
,
3001
0000
0001
0010
0000
0010
0100
0000
0100
1000
0000
1000
,
0010
0100
0010
1000
0100
0010
0001
0100
,
0020
0000
2030
0000
,
3001
0000
1001
0110
,
1001
0000
1100
0101
,
1001
0000
0000
1000
0010
0000
0100
0000
,
0010
1000
0010
1000
0001
0010
0001
0010
,
0001
0000
0101
0000
1000
0100
0010
0100
,
1000
0000
1100
0000
0001
0100
0010
0100
,
0001
0000
1001
0000
1000
0100
0010
0001
,
0100
0000
0000
0110
0000
0000
0001
0000
0001
0100
0000
0100
,
0010
0000
0010
1000
0000
1000
0100
0000
0100
0010
0000
0010
,
0002
0000
0000
0000
,
0000
0000
0000
0000
,
2000
0000
0000
0000
,
0000
0000
0000
0000
,
3003
0220
0000
0000
,
0000
0000
0000
0000
,
0000
0000
0000
0000
,
0000
0330
0000
0000
0000
0000
0000
0000
;

//---------------dance-single - ----------------
#NOTES:
     dance-single:
     :
     Easy:
     6:
     0.378866,0.496694,0.199813,0.336049,0.000000,292.000000,270.000000,22.000000,37.000000,0.000000,0.000000,0.378866,0.496694,0.199813,0.336049,0.000000,292.000000,270.000000,22.000000,37.000000,0.000000,0.000000:
0000
0000
0000
0000
,
0000
0000
0000
0000
,
0000
0000
0000
0000
,
0000
0000
0000
0000
,
0000
0000
0000
0000
,
0000
0000
0000
0000
,
0000
0000
0000
0000
,
0000
0000
0000
0000
,
0000
0000
0000
0000
,
1001
0000
1001
0110
,
1001
0000
0110
1001
,
0110
0000
0000
0010
1000
0000
0100
0000
,
0010
0000
0100
0000
1000
0010
1000
0001
,
1000
0000
0100
0000
0010
0000
0100
1000
,
0100
0000
1000
0000
0010
0000
0100
0001
,
0100
0000
0010
0000
1000
0000
0001
0010
,
0001
1000
0001
1000
0020
0000
0230
0000
,
0302
0023
0230
2300
,
3020
0000
0000
0000
,
1030
0000
1100
0000
,
0001
0000
0101
0000
,
1000
0000
1010
0000
,
0001
0000
0011
0000
,
1000
0100
0010
0100
,
1000
0010
0001
0010
,
1000
0001
0000
0000
0001
1000
0000
0000
,
0001
0000
0100
0000
0010
1000
0100
0010
,
0001
0000
0100
0000
0010
0000
1000
0100
,
1000
0000
0001
0000
1000
0100
0010
0100
,
1000
0000
0010
0000
0100
0000
0001
0010
,
0001
0000
1000
0000
0010
0100
0010
0100
,
0001
2000
3020
0230
,
0301
0020
0230
2300
,
3020
0230
0320
2030
,
3200
0000
0320
0000
,
0031
1000
1000
0001
,
1000
0100
1000
0000
0010
0000
0100
0000
,
0100
0000
0001
0000
0010
0001
0010
0000
,
0100
1000
1000
0010
,
0100
0001
0100
0000
0001
0000
0010
0000
,
0010
0000
0100
1000
0010
1000
0001
1000
,
0200
0000
0000
0310
,
0001
1000
1002
0000
,
0103
0100
0010
1000
,
1001
0000
0000
1000
,
0000
0100
0000
0000
1000
0000
0010
0000
,
1000
0001
0010
0001
,
2000
0000
0000
0000
,
3001
1000
0001
1000
0001
1000
0001
1000
,
0001
0000
0000
0000
,
1000
0000
0010
0000
0100
0001
0100
0000
,
0001
0000
0010
0000
0100
1000
0100
0000
,
1000
0000
0010
0000
1000
0100
1000
0001
,
1000
0000
0010
0000
0100
0001
0010
0001
,
1000
0000
0100
0000
0010
0001
0010
0000
,
0001
0000
0100
0000
0010
1000
0010
0000
,
1000
0000
0100
0000
1000
0010
1000
0001
,
0010
0001
0100
0000
0010
1000
0010
0000
,
1000
1100
0001
0101
,
2000
3020
0032
0023
,
1030
0100
1000
0100
0010
0001
0010
0001
,
0200
0000
0000
0000
0310
0000
0100
0010
,
0100
0000
1001
0110
,
1001
0000
0110
1001
,
0110
0000
0000
1000
0010
0000
0100
0000
,
0001
0000
0010
0000
0001
1000
0001
1000
,
0100
0000
0010
0000
0100
0000
1000
0010
,
1000
0000
0001
0000
0100
0000
0010
0100
,
0010
0000
1000
0000
0001
0000
0100
0001
,
0010
0001
1000
0001
2000
0000
3200
0000
,
0320
0032
0203
0320
,
2030
0000
0000
0000
,
0000
0000
0000
0000
,
3002
0000
0000
0000
,
0000
0000
0000
0000
,
0003
0220
0000
0000
,
0000
0000
0000
0000
,
0000
0000
0000
0000
,
0000
0330
0000
0000
0000
0000
0000
0000
;

//---------------dance-single - ----------------
#NOTES:
     dance-single:
     :
     Beginner:
     3:
     0.203705,0.319303,0.000000,0.027247,0.000000,157.000000,157.000000,0.000000,3.000000,0.000000,0.000000,0.203705,0.319303,0.000000,0.027247,0.000000,157.000000,157.000000,0.000000,3.000000,0.000000,0.000000:
// measure 0
0000
0000
0000
0000
,  // measure 1
0000
0000
0000
0000
,  // measure 2
0000
0000
0000
0000
,  // measure 3
0000
0000
0000
0000
,  // measure 4
0000
0000
0000
0000
,  // measure 5
0000
0000
0000
0000
,  // measure 6
0000
0000
0000
0000
,  // measure 7
0000
0000
0000
0000
,  // measure 8
0000
0000
0000
0000
,  // measure 9
0001
0000
1000
0010
,  // measure 10
1000
0000
0100
0010
,  // measure 11
0100
0000
0010
0001
,  // measure 12
1000
0000
0001
0001
,  // measure 13
1000
0000
1000
0000
,  // measure 14
0010
0000
0010
0000
,  // measure 15
0100
0000
0100
0000
,  // measure 16
0001
0000
0001
1000
,  // measure 17
1000
0010
0010
0100
,  // measure 18
0100
0000
0000
0001
,  // measure 19
0010
0000
0010
0000
,  // measure 20
0010
0000
0010
0000
,  // measure 21
0100
0000
0100
0000
,  // measure 22
0100
0000
0100
0000
,  // measure 23
1000
0000
0001
0000
,  // measure 24
1000
0000
0001
0000
,  // measure 25
0100
0000
0010
0000
,  // measure 26
1000
1000
0001
0001
,  // measure 27
1000
0000
0100
0000
,  // measure 28
0010
0000
0100
0000
,  // measure 29
1000
0000
0010
0000
,  // measure 30
0100
0000
0001
0000
,  // measure 31
0010
0000
0100
0000
,  // measure 32
1000
0000
0001
0000
,  // measure 33
1000
1000
0010
0010
,  // measure 34
0100
0000
0001
0000
,  // measure 35
0010
0000
0000
0100
,  // measure 36
0000
0000
1000
0000
,  // measure 37
0000
0010
0000
0000
,  // measure 38
0100
0000
0000
0001
,  // measure 39
0000
0000
0010
0000
,  // measure 40
0000
0100
1000
0010
,  // measure 41
1000
0000
0000
0001
,  // measure 42
0010
0100
1000
0000
,  // measure 43
0000
1000
0100
0010
,  // measure 44
0001
0000
0000
0100
,  // measure 45
0000
0000
0100
0010
,  // measure 46
0100
0001
1000
0001
,  // measure 47
1000
0000
0000
0000
,  // measure 48
0100
0000
0000
0000
,  // measure 49
0010
0000
0000
0000
,  // measure 50
0001
1000
0001
0000
,  // measure 51
1000
0010
1000
0000
,  // measure 52
0001
0001
1000
1000
,  // measure 53
0001
0010
0100
1000
,  // measure 54
0001
1000
0001
0000
,  // measure 55
1000
0100
1000
0000
,  // measure 56
0010
0010
0100
0100
,  // measure 57
0001
1000
0100
0010
,  // measure 58
0001
0000
0000
0000
,  // measure 59
1000
1000
0010
0010
,  // measure 60
0100
0000
0010
0000
,  // measure 61
0100
0000
0001
0000
,  // measure 62
1000
0000
0001
0100
,  // measure 63
0001
0000
1000
0100
,  // measure 64
1000
0000
0001
1000
,  // measure 65
0001
0000
1000
1000
,  // measure 66
0010
0000
0010
0000
,  // measure 67
0100
0000
0100
0000
,  // measure 68
0001
0000
0001
0000
,  // measure 69
0010
0000
0010
0010
,  // measure 70
0100
0100
1000
1000
,  // measure 71
0020
0000
0000
0000
,  // measure 72
0000
0000
0000
0000
,  // measure 73
2030
0000
0000
0000
,  // measure 74
0000
0000
0000
0000
,  // measure 75
3000
0002
0000
0000
,  // measure 76
0000
0000
0000
0000
,  // measure 77
0000
0000
0000
0000
,  // measure 78
0000
0003
0000
0000
0000
0000
0000
0000
;
