#VERSION:0.83;
#TITLE:Undercover Martyn;
#SUBTITLE:;
#ARTIST:Two Door Cinema Club;
#TITLETRANSLIT:;
#SUBTITLETRANSLIT:;
#ARTISTTRANSLIT:;
#GENRE:;
#ORIGIN:;
#CREDIT:;
#BANNER:Undercover Martyn.png;
#BACKGROUND:Undercover Martyn-bg.png;
#PREVIEWVID:;
#JACKET:;
#CDIMAGE:;
#DISCIMAGE:;
#LYRICSPATH:;
#CDTITLE:;
#MUSIC:Undercover Martyn.mp3;
#OFFSET:-0.385028;
#SAMPLESTART:42.447807;
#SAMPLELENGTH:12.009235;
#SELECTABLE:YES;
#BPMS:0.000=79.938,
8.000=159.877,
40.000=79.938,
56.000=159.877,
86.000=79.938,
87.000=159.877,
115.000=79.938,
117.000=159.877,
266.500=79.938;
#STOPS:181.000=0.188,
181.500=0.188,
183.000=0.188,
183.500=0.188,
184.000=0.188,
186.500=0.188,
187.000=0.188,
188.500=0.188,
189.000=0.188,
189.500=0.188,
192.000=0.188,
192.500=0.188,
194.000=0.188,
194.500=0.188,
195.000=0.188,
197.500=0.188,
198.000=0.188,
199.500=0.188,
200.000=0.188,
200.500=0.188,
202.000=0.188;
#DELAYS:;
#WARPS:;
#TIMESIGNATURES:0.000=4=4;
#TICKCOUNTS:0.000=4;
#COMBOS:0.000=1;
#SPEEDS:0.000=1.000=0.000=0;
#SCROLLS:0.000=1.000;
#FAKES:;
#LABELS:0.000=Song Start;
#BGCHANGES:;
#KEYSOUNDS:;
#ATTACKS:
;

//---------------dance-single - ----------------
#NOTEDATA:;
#CHARTNAME:;
#STEPSTYPE:dance-single;
#DESCRIPTION:;
#CHARTSTYLE:;
#DIFFICULTY:Hard;
#METER:8;
#RADARVALUES:0.599986,0.753643,0.623747,0.166333,0.049900,505.000000,430.000000,75.000000,20.000000,0.000000,0.000000,0.000000,0.000000,0.000000,0.599986,0.753643,0.623747,0.166333,0.049900,505.000000,430.000000,75.000000,20.000000,0.000000,0.000000,0.000000,0.000000,0.000000;
#CREDIT:;
#NOTES:
0000
0000
0000
0000
,
0000
0000
0000
0000
,
0001
0100
1000
0100
0001
1000
0000
1000
,
0100
0001
0100
1000
0000
1010
0000
1100
,
0000
1000
0100
0001
0100
1000
0000
0001
,
0100
1000
0100
0001
0000
0011
0000
1001
,
1000
0010
0001
0010
1000
0001
0000
0001
,
0010
1000
0010
0001
0000
0101
0000
0011
,
0000
0001
0010
1000
0010
0001
0000
1000
,
0010
0001
0010
1000
0000
1100
0000
0000
,
1002
0000
0000
0000
0000
0000
0000
0000
0000
0000
0000
0000
0000
0000
0000
0000
0000
0023
0000
0000
0000
0000
0000
0000
2030
0000
0000
0000
0000
0000
0000
0000
,
3020
0000
0032
2003
3020
0032
0023
1030
,
2001
0000
0000
0000
0000
0000
0000
0000
0000
0000
0000
0000
0000
0000
0000
0000
0000
3200
0000
0000
0000
0000
0000
0000
0302
0000
0000
0000
0000
0000
0000
0000
,
0203
2300
3002
0203
,
0301
0100
1000
0000
0001
0010
1000
0000
,
1000
0100
0001
0000
1000
0010
0001
0100
,
1000
0100
0010
1000
,
0001
0001
1000
0001
,
1000
0100
0001
0000
1000
0010
0001
0000
,
0001
0100
1000
0000
0001
0010
1000
0100
,
0001
0100
0010
0001
,
1000
0000
0000
0000
1000
0000
0000
0000
0001
0010
0100
1000
0001
0000
0100
0000
,
1000
0100
0101
0000
0011
0001
1000
0100
,
0001
0100
1100
0000
0101
0000
0001
0100
,
1000
0100
0001
0010
1000
0010
0110
0000
,
1010
0000
1000
0010
0001
0010
0000
0010
,
0100
0001
1000
0000
0001
0010
1000
0010
,
0100
1000
1001
0000
0110
0000
0001
0100
,
1000
0000
0100
0000
0010
0000
1000
0000
0000
0000
1000
0000
0100
0100
0010
0010
,
0100
0100
1000
1000
1000
0000
0010
0000
0001
0000
0010
0000
1010
0000
0000
0000
,
1100
1000
0001
0010
1000
0010
0011
0000
,
1010
0000
1000
0010
0001
0010
1000
0100
,
0001
0100
0220
0330
0201
0000
0301
0100
,
1000
0100
0000
0100
0010
1000
0001
0000
,
1000
0100
0001
0100
0010
0001
1001
0000
,
0110
0000
0001
0100
1000
0100
0010
1000
,
0000
1000
0100
0001
0100
1000
0000
1001
,
0000
0000
0001
0100
0110
0000
1000
0100
,
0110
0000
0001
0100
0110
0000
0000
1001
,
0000
1001
0001
0010
0110
0000
1000
0010
,
0110
0000
0001
0010
0110
0000
0000
1001
,
0000
1001
1000
0010
0101
0001
0010
0100
,
1100
1000
0010
0100
0101
0001
0010
0110
,
0000
1001
0001
0100
1010
1000
0100
0010
,
0011
0001
0100
0010
1010
1000
0100
0110
,
0000
0000
0000
0000
1001
0000
1001
0000
1001
0000
0000
0010
0100
0000
0110
0000
,
0110
1000
0001
0001
0001
1001
1001
1001
,
0000
0010
0100
0000
0110
0000
0110
0000
0001
0000
1000
0000
1000
0000
1000
0000
,
1010
0000
0101
0000
0011
0000
0000
0001
1000
0000
0011
0000
1100
0000
1010
0000
,
1000
0000
0001
0000
0001
0000
0101
0000
1010
0000
1100
0000
0000
1000
0001
0000
,
1100
0011
0101
0001
1000
0001
0100
1000
,
0100
0001
0010
1000
0010
0100
1000
0010
,
0100
0101
0001
1001
0000
1000
0100
0001
,
0100
1000
0010
0001
0010
0101
0000
0011
,
0000
0001
0010
1000
0010
0000
0010
0100
,
1000
0010
0001
0010
1000
0100
0010
1000
,
0010
0001
0010
0010
0010
0001
0100
0010
,
0100
1000
0100
0010
0100
0001
0010
0100
,
0010
1000
0010
0010
0100
1000
0010
0001
,
0010
1000
0100
0001
0100
0010
0001
0100
,
0010
1010
1000
1001
0000
0001
0010
1000
,
0010
0001
0100
1000
0100
1010
0000
1100
,
0000
1000
0100
0001
0100
0000
0100
0010
,
0001
0100
1000
0100
0001
0010
0100
0001
,
0100
1000
0100
0100
0100
1000
0010
0100
,
0010
0001
0010
0100
0010
1000
0100
0010
,
0100
0001
0100
0010
0010
0002
0000
0000
,
0000
0003
0000
0000
0000
0000
0000
0000
;

//---------------dance-single - ----------------
#NOTEDATA:;
#CHARTNAME:;
#STEPSTYPE:dance-single;
#DESCRIPTION:;
#CHARTSTYLE:;
#DIFFICULTY:Beginner;
#METER:2;
#RADARVALUES:0.194847,0.251214,0.000000,0.133066,0.000000,164.000000,164.000000,0.000000,16.000000,0.000000,0.000000,0.000000,0.000000,0.000000,0.194847,0.251214,0.000000,0.133066,0.000000,164.000000,164.000000,0.000000,16.000000,0.000000,0.000000,0.000000,0.000000,0.000000;
#CREDIT:;
#NOTES:
0000
0000
0000
0000
,
0000
0000
0000
0000
,
0100
0000
0100
0000
,
0010
0000
0010
0000
,
1000
0000
1000
0000
,
0001
0000
0001
0000
,
0010
0000
0100
0000
,
1000
0000
0001
0000
,
0100
0000
0010
0000
,
0100
0000
0001
0000
,
2000
0000
0000
0000
,
3002
0000
0023
0000
,
0230
0000
0000
0000
,
2300
0000
3002
0000
,
1003
0000
1000
0000
,
1000
0000
1000
0000
,
0001
0000
0001
0000
,
0100
0000
0100
0000
,
0010
0000
0010
0000
,
0010
0000
0010
0000
,
0100
0000
0100
0000
,
0001
0000
0001
1000
,
0000
0100
0000
0010
,
0000
0001
0000
0100
,
0000
0010
0000
1000
,
0000
0001
0000
0100
,
0000
0010
0000
0100
,
0000
0001
0000
0010
,
0000
0100
0000
2000
,
0000
3001
0000
0100
,
0000
0010
0000
0100
,
0000
0001
0000
1000
,
0000
0100
0000
0010
,
0000
0100
0000
1000
,
0000
0001
0000
0100
,
0000
0010
0000
1000
,
0000
0001
0000
0100
,
0000
0000
0010
0000
,
0010
0000
0010
0000
,
0000
0000
0100
0000
,
0100
0000
0100
0000
,
0000
0000
0001
0000
,
1000
0000
0100
0000
,
0010
0000
0100
0000
,
1000
0000
0001
0000
,
0100
0000
0200
0000
0300
0000
0010
0200
,
0000
0300
0000
0001
0000
2000
0000
3000
,
0000
0100
2000
0000
3000
0000
0001
0000
,
0020
0000
0030
0000
0100
0020
0000
0030
,
0000
0100
0000
2000
0000
3000
0000
0001
,
2000
0000
3000
0000
0010
1000
0000
0001
,
0000
1000
0000
0001
0000
1000
0000
0001
,
0000
1000
0000
0001
0000
0100
0000
0010
,
0000
0100
0000
0010
0000
0100
0000
0010
,
0000
0100
0000
0010
0000
1000
0000
0001
,
0000
1000
0000
0001
0000
1000
0000
0001
,
0000
1000
0000
0001
0000
0010
0000
0100
,
0000
0010
0000
0100
0000
0010
0000
0100
,
0000
0010
0000
0100
0000
1000
0000
1000
,
0000
0001
0000
1000
0000
0010
0000
0010
,
0000
0100
0000
0010
0000
1000
0000
1000
,
0000
0001
0000
1000
0000
0100
0000
0100
,
0000
0010
0000
0100
0000
1000
0000
0010
,
0000
0100
0000
0001
0000
1000
0000
0010
,
0000
0100
0000
0001
0000
1000
0000
0100
,
0000
0010
0000
0001
0000
1000
0000
0100
,
0000
0010
0000
0001
0000
2000
0000
0000
,
0000
3000
0000
0000
0000
0000
0000
0000
;

//---------------dance-single - ----------------
#NOTEDATA:;
#CHARTNAME:;
#STEPSTYPE:dance-single;
#DESCRIPTION:;
#CHARTSTYLE:;
#DIFFICULTY:Easy;
#METER:4;
#RADARVALUES:0.337418,0.390778,0.133066,0.681964,0.008317,284.000000,268.000000,16.000000,82.000000,0.000000,0.000000,0.000000,0.000000,0.000000,0.337418,0.390778,0.133066,0.681964,0.008317,284.000000,268.000000,16.000000,82.000000,0.000000,0.000000,0.000000,0.000000,0.000000;
#CREDIT:;
#NOTES:
// measure 0
0000
0000
0000
0000
,  // measure 1
0000
0000
0000
0000
,  // measure 2
0001
0010
1000
0000
,  // measure 3
0010
0100
0010
0001
,  // measure 4
1000
0010
0001
0000
,  // measure 5
0010
0100
0010
1000
,  // measure 6
0001
0010
0100
1000
,  // measure 7
0001
0010
1000
0010
,  // measure 8
0001
0100
0010
1000
,  // measure 9
0001
0100
1000
0100
,  // measure 10
0002
0000
0000
0000
0000
0000
0000
0000
0000
0000
0000
0000
0000
0000
0000
0000
0000
0020
0000
0000
0030
0000
0000
0000
2000
0000
0000
0000
3000
0000
0000
0000
,  // measure 11
0203
0000
0020
0030
0302
0000
2000
3000
,  // measure 12
0023
0000
0000
0000
0000
0000
0000
0000
0000
0000
0000
0000
0000
0000
0000
0000
0000
0200
0000
0000
0300
0000
0000
0000
0002
0000
0000
0000
0003
0000
0000
0000
,  // measure 13
0230
0000
2000
3000
0320
0000
0002
0003
,  // measure 14
0130
1000
0100
1000
,  // measure 15
0100
1000
0100
1000
,  // measure 16
0001
1000
0001
1000
,  // measure 17
0001
0100
0001
0100
,  // measure 18
0010
0100
0010
0100
,  // measure 19
0010
0100
0010
0100
,  // measure 20
0010
1000
0010
1000
,  // measure 21
0001
1000
0002
1003
,  // measure 22
0100
0001
0001
0100
,  // measure 23
0010
0001
0001
1000
,  // measure 24
0010
0001
0010
1000
,  // measure 25
1000
0001
0001
1000
,  // measure 26
0100
0001
0100
1000
,  // measure 27
0001
0100
0010
1000
,  // measure 28
1000
0000
0001
0000
0001
0000
2001
0001
,  // measure 29
0001
0001
3001
0000
0100
0000
1000
0000
,  // measure 30
1000
0100
0010
1000
,  // measure 31
1000
0001
0010
1000
,  // measure 32
0010
0001
1001
1000
,  // measure 33
1000
0001
0100
1000
,  // measure 34
0100
0001
1000
0100
,  // measure 35
0020
0001
0130
0010
,  // measure 36
0001
1000
1000
0001
,  // measure 37
0001
0100
0101
0100
,  // measure 38
0101
0100
0101
0001
,  // measure 39
0100
0010
1010
0010
,  // measure 40
1010
0010
1010
1000
,  // measure 41
0100
0010
1001
0010
,  // measure 42
1001
0010
1001
0100
,  // measure 43
0010
1000
0110
1000
,  // measure 44
0110
1000
0110
1000
,  // measure 45
0001
0000
0100
0100
0010
0000
0100
0001
,  // measure 46
0001
1000
0000
0100
0000
0010
0010
0001
,  // measure 47
0000
0010
0100
0100
1000
0000
0010
0000
,  // measure 48
0100
0100
0001
0000
1000
0010
0010
0100
,  // measure 49
0000
0010
0000
1000
1000
0100
0000
0010
,  // measure 50
0001
0001
1000
0000
1001
0002
0000
0203
,  // measure 51
0000
2300
0000
3200
0000
2300
0000
3200
,  // measure 52
0000
0302
0000
0023
0000
0230
0000
2300
,  // measure 53
0000
3200
0000
0302
0000
0203
0000
0320
,  // measure 54
0000
0032
0000
2003
0000
3002
0000
0203
,  // measure 55
0000
2300
0000
3200
0000
0302
0000
0023
,  // measure 56
0000
2030
0000
3020
0000
0032
0000
0203
,  // measure 57
0000
0320
0000
2030
0000
3002
0000
0203
,  // measure 58
0000
0320
0000
2030
0000
3002
0000
0023
,  // measure 59
0000
2030
0000
3020
0000
2030
0000
3020
,  // measure 60
0000
0032
0000
0203
0000
0320
0000
2030
,  // measure 61
0000
3020
0000
0032
0000
0023
0030
1002
,  // measure 62
0000
2003
0000
3002
0000
2003
0000
3200
,  // measure 63
0000
0302
0000
0203
0000
2300
0000
3002
,  // measure 64
0000
0203
0000
0320
0000
2000
3000
0230
,  // measure 65
0000
0320
0000
2030
0000
3002
0000
0203
,  // measure 66
0000
0320
0000
2030
0000
3002
0000
0000
,  // measure 67
0000
0003
0000
0000
0000
0000
0000
0000
;

//---------------dance-single - ----------------
#NOTEDATA:;
#CHARTNAME:;
#STEPSTYPE:dance-single;
#DESCRIPTION:;
#CHARTSTYLE:;
#DIFFICULTY:Medium;
#METER:7;
#RADARVALUES:0.462167,0.753643,0.365932,0.307715,0.024950,389.000000,345.000000,44.000000,37.000000,0.000000,0.000000,0.000000,0.000000,0.000000,0.462167,0.753643,0.365932,0.307715,0.024950,389.000000,345.000000,44.000000,37.000000,0.000000,0.000000,0.000000,0.000000,0.000000;
#CREDIT:;
#NOTES:
// measure 0
0000
0000
0000
0000
,  // measure 1
0000
0000
0000
0000
,  // measure 2
1000
0000
0100
0000
0010
0100
0000
1000
,  // measure 3
0010
0000
0001
0010
0000
0110
0000
1001
,  // measure 4
0000
0001
1000
0000
0100
0010
0000
0100
,  // measure 5
1000
0000
0010
0001
0000
0010
0000
1000
,  // measure 6
0001
0000
0010
0000
0100
0010
0000
0001
,  // measure 7
0100
0000
1000
0100
0000
0110
0000
1001
,  // measure 8
0000
1000
0001
0000
0010
0100
0000
0010
,  // measure 9
0001
0000
0100
1000
0000
0100
0000
0001
,  // measure 10
2000
0000
0000
0000
0000
0000
0000
0000
0000
0000
0000
0000
0000
0000
0000
0000
0000
0020
0000
0000
0030
0000
0000
0000
0200
0000
0000
0000
0300
0000
0000
0000
,  // measure 11
3002
0000
0000
0000
0200
0300
0020
0030
2003
0000
0002
0003
0020
0030
0200
0300
,  // measure 12
3002
0000
0000
0000
0000
0000
0000
0000
0000
0000
0000
0000
0000
0000
0000
0000
0000
0200
0000
0000
0300
0000
0000
0000
0020
0000
0000
0000
0030
0000
0000
0000
,  // measure 13
2003
0000
0020
0030
3002
0000
0020
0030
,  // measure 14
1003
0010
0001
1000
,  // measure 15
0001
0000
0010
0000
1000
0000
0001
1000
,  // measure 16
0001
0010
1000
0001
,  // measure 17
1000
0000
0010
0000
0001
0000
1000
0001
,  // measure 18
1000
0000
0000
0001
1000
0001
1000
0020
,  // measure 19
0000
0000
0000
0130
0010
0000
0200
0000
,  // measure 20
0001
0001
1000
1000
,  // measure 21
0001
0301
2000
3001
,  // measure 22
1000
0000
0001
0010
1000
0000
0010
0000
,  // measure 23
0001
1001
1001
1000
,  // measure 24
0001
0000
1000
0010
0001
0010
2000
0000
,  // measure 25
3002
0000
1003
0001
0100
0010
0000
0010
,  // measure 26
0100
0010
1000
0000
1000
0100
0010
0100
,  // measure 27
1000
0010
0200
0000
0320
0000
1000
0000
,  // measure 28
1000
0000
0000
0000
0001
0000
0000
0000
0001
0000
0000
0000
1030
0001
1000
0001
,  // measure 29
1000
0001
1000
0001
1000
0000
0000
0000
0001
0000
0000
0000
1000
0000
0100
0000
,  // measure 30
0001
0100
1000
1001
,  // measure 31
1001
0000
0001
0000
1000
0000
0001
0100
,  // measure 32
1000
0100
0002
0000
2003
0000
3001
1000
,  // measure 33
0010
0100
0000
0100
0010
0100
0001
0000
,  // measure 34
0001
0010
0100
0010
0001
0100
0020
0000
,  // measure 35
0230
0001
0001
1000
,  // measure 36
1000
0000
0301
0000
1000
0100
0000
0110
,  // measure 37
0000
0001
1000
0000
1010
0000
0001
0000
,  // measure 38
0011
0000
1000
0000
1010
0000
0000
1001
,  // measure 39
0000
1001
1000
0000
1100
0000
0001
0000
,  // measure 40
0101
0000
1000
0000
1100
0000
0000
1001
,  // measure 41
0000
1001
0001
0100
0110
0000
1000
0000
,  // measure 42
1010
0000
0001
0000
1001
0000
0000
0110
,  // measure 43
0000
0110
0100
1000
1001
0000
0010
0000
,  // measure 44
1010
0000
0100
0000
0110
0000
0000
1001
,  // measure 45
0000
0000
0001
0010
1000
0000
1001
0001
,  // measure 46
0100
1000
0100
1000
0100
0001
0010
1000
,  // measure 47
0000
1001
1000
0010
0001
0010
0001
0010
,  // measure 48
0011
0110
1010
0000
1001
1100
0110
0011
,  // measure 49
0010
1000
0010
1010
0110
0011
0000
1001
,  // measure 50
0101
0110
1010
0001
1000
0001
0100
1000
,  // measure 51
0100
0001
0000
0001
1000
0001
0010
1000
,  // measure 52
0010
0001
0000
0001
0000
1000
0010
0001
,  // measure 53
0010
1000
0001
1000
0001
2000
0000
3200
,  // measure 54
0000
0310
0001
0010
0001
0000
0001
0100
,  // measure 55
0010
1000
0000
1000
0010
0100
0010
1000
,  // measure 56
0001
0020
0000
0230
0000
1300
0000
0010
,  // measure 57
0000
0001
0000
0100
0000
1000
0000
0010
,  // measure 58
0000
0001
0000
0100
0000
1000
0010
0001
,  // measure 59
0010
1000
0000
1000
0001
1000
0100
0001
,  // measure 60
0100
1000
0000
1000
0000
0001
0100
1000
,  // measure 61
0100
0001
1000
0001
1000
0002
0000
0023
,  // measure 62
0000
0130
1000
0100
1000
0000
1000
0010
,  // measure 63
0100
0001
0000
0001
0100
0010
0100
0001
,  // measure 64
1000
0200
0000
0320
0000
0031
0000
0100
,  // measure 65
0000
1000
0000
0010
0000
0001
0000
0100
,  // measure 66
0000
1000
0000
0010
0000
0002
0000
0000
,  // measure 67
0000
0003
0000
0000
0000
0000
0000
0000
;
