#VERSION:0.81;
#TITLE:Te Axjik Lineir;
#SUBTITLE:;
#ARTIST:Lilit Hovhannisyan;
#TITLETRANSLIT:;
#SUBTITLETRANSLIT:;
#ARTISTTRANSLIT:;
#GENRE:;
#ORIGIN:;
#CREDIT:;
#BANNER:[Scrabble] - Te Axjik Lineir.png;
#BACKGROUND:[Scrabble] - Te Axjik Lineir-bg.png;
#PREVIEWVID:;
#JACKET:[Scrabble] - Te Axjik Lineir-jacket.png;
#CDIMAGE:;
#DISCIMAGE:;
#LYRICSPATH:;
#CDTITLE:;
#MUSIC:[Scrabble] - Te Axjik Lineir.ogg;
#OFFSET:-9.263;
#SAMPLESTART:45.184;
#SAMPLELENGTH:17.944;
#SELECTABLE:YES;
#BPMS:0.000=214.000,
204.000=107.000,
236.000=214.000;
#STOPS:;
#DELAYS:;
#WARPS:;
#TIMESIGNATURES:0.000=4=4;
#TICKCOUNTS:0.000=4;
#COMBOS:0.000=1;
#SPEEDS:0.000=1.000=0.000=0;
#SCROLLS:0.000=1.000;
#FAKES:;
#LABELS:0.000=Song Start;
#BGCHANGES:
;
#KEYSOUNDS:;
#ATTACKS:
;

//---------------dance-single - ----------------
#NOTEDATA:;
#CHARTNAME:;
#STEPSTYPE:dance-single;
#DESCRIPTION:;
#CHARTSTYLE:;
#DIFFICULTY:Medium;
#METER:7;
#RADARVALUES:0.419,0.682,0.288,0.126,0.048,341.000,39.000,17.000,0.000,0.000,0.000,0.000,0.000,0.419,0.682,0.288,0.126,0.048,341.000,39.000,17.000,0.000,0.000,0.000,0.000,0.000;
#CREDIT:;
#NOTES:
0000
0000
0000
0000
,
0000
0000
0000
0000
,
0000
0000
0000
0000
,
0000
0000
0000
0000
,
0000
0000
0000
0000
,
0000
0000
0000
0000
,
0000
0000
0000
0000
,
0000
0000
0000
0000
,
2000
0000
3000
0000
,
0002
0000
0003
0000
,
2000
3000
0002
0003
,
1000
0000
0000
0010
0000
0000
0100
0000
,
0001
0000
0000
0010
0000
0000
0100
0000
,
1000
0001
0100
0010
,
1000
0000
0000
0010
0000
0000
1000
0000
,
0001
0000
0000
0010
0000
0000
0001
0000
,
1000
0100
0010
0010
,
0001
0100
0010
0010
,
1000
0001
1000
1000
,
0100
0000
0000
1000
0000
0000
0100
0000
,
0010
0000
0000
0001
0000
0000
0010
0000
,
0001
0000
0000
0100
0000
0000
0001
0000
,
1000
0000
0010
0010
,
0010
0000
0000
1000
0000
0000
0001
0000
,
0010
0020
0000
0031
,
0002
0000
0203
0000
,
0310
0020
0000
1030
,
2000
0000
3200
0000
,
0320
0000
0031
0010
,
0001
1000
0010
1000
,
0010
0000
0000
0100
0000
0000
0001
0000
,
0101
0000
1100
0000
,
1001
0000
0000
0011
0000
0000
0010
0000
,
0100
0000
0000
0110
0000
0000
0100
0000
,
1000
0000
0000
1100
0000
0000
1000
0000
,
0001
0000
0000
1001
0000
0000
0001
0000
,
0100
0000
0001
0100
0000
0000
0001
0000
,
1000
0000
0001
1000
0000
0000
0001
0000
,
1000
0000
0100
1000
0000
0000
0100
0000
,
1100
0000
1001
0000
,
0101
0000
0000
0110
0000
0000
0010
0000
,
1000
0000
0000
1010
0000
0000
1000
0000
,
0001
0000
0000
1001
0000
0000
0001
0000
,
0010
0000
0000
0011
0000
0000
0010
0000
,
0100
0000
0010
0100
0000
0000
0010
0000
,
0001
0000
1000
0001
0000
0000
1000
0000
,
0010
0000
0100
0010
0000
0000
0100
0000
,
0001
0001
0001
0001
,
0001
0000
0000
0001
0000
0000
0001
0000
,
0010
0000
0000
0010
0000
0000
0010
0000
,
0100
0000
0000
0100
0000
0000
0100
0000
,
1000
0000
0000
1000
0100
0000
1000
0000
0001
0000
0000
0001
0100
0000
0001
0000
,
0100
0000
0000
0100
0010
0000
0100
0000
0010
0000
0000
0010
1000
0000
0010
0000
,
1000
0000
0000
1000
0001
0000
1000
0000
0001
0000
0000
0001
0010
0000
0100
0000
,
0010
0000
0000
0010
0001
0000
1000
0000
0001
0000
0001
0000
0100
0000
0100
0000
,
0010
0000
0000
1010
0000
0000
1000
0000
0001
0000
0000
1001
0000
0000
0001
0000
,
0010
0000
0000
0011
0000
0000
0010
0000
0001
0000
0000
1001
0000
0000
1000
0000
,
2010
0000
0000
0010
0000
0000
3010
0000
0120
0000
0000
0100
0000
0000
0130
0000
,
0101
0100
0001
1000
0100
1000
0001
1000
,
0010
0010
1000
0001
,
0010
0010
0100
1000
,
0001
0001
0100
0010
,
1000
1000
0100
1000
,
0001
0001
0100
0010
,
1000
1000
0100
0010
,
0001
0001
1000
0001
,
2002
0000
0000
3003
,
1000
0100
0010
0001
,
1000
0100
0001
0100
,
1000
0010
0100
0001
,
1000
0010
0001
0010
,
1010
1000
0100
1000
,
1001
0001
1000
0001
,
0101
0100
0001
0100
,
0220
0000
0000
0330
,
0110
0100
0001
1000
,
0001
0010
1000
0010
,
0001
0010
0100
1000
,
0001
0100
1000
0100
,
0001
0000
0000
0001
0100
0000
0001
0000
,
1000
0000
0000
1000
0001
0000
1000
0000
,
0100
0000
0000
1100
0000
0000
1000
0000
,
0001
0000
0000
1001
0000
0000
1000
0000
,
0010
0000
0000
1000
0000
0000
0010
0000
,
1000
1000
0001
0001
,
0010
0000
0000
0001
0000
0000
0010
0000
,
0001
0001
1000
1000
,
0001
0000
0000
0101
0000
0000
0001
0000
,
1000
0000
0000
1001
0000
0000
1000
0000
,
0100
0000
0000
1100
0000
0000
1000
0000
,
1001
0000
0110
0000
,
1001
0000
0000
0001
0000
0000
0001
0000
,
0010
0100
0010
0100
,
1000
0000
0000
1000
0000
0000
1000
0000
,
0010
0100
0010
0100
,
0001
0000
0000
0011
0000
0000
0001
0000
,
1000
0000
0000
1001
0000
0000
1000
0000
,
0010
0000
0000
1010
0000
0000
0010
0000
,
0100
0100
0010
0010
,
0100
0000
0000
0100
0000
0000
0100
0000
,
0001
0000
0000
0001
0000
0000
0001
0000
,
1000
0000
0000
1000
0000
0000
1000
0000
,
0100
0000
0110
0000
;

//---------------dance-single - ----------------
#NOTEDATA:;
#CHARTNAME:;
#STEPSTYPE:dance-single;
#DESCRIPTION:;
#CHARTSTYLE:;
#DIFFICULTY:Easy;
#METER:5;
#RADARVALUES:0.230,0.415,0.059,0.000,0.000,210.000,8.000,0.000,0.000,0.000,0.000,0.000,0.000,0.230,0.415,0.059,0.000,0.000,210.000,8.000,0.000,0.000,0.000,0.000,0.000,0.000;
#CREDIT:;
#NOTES:
0000
0000
0000
0000
,
0000
0000
0000
0000
,
0000
0000
0000
0000
,
0000
0000
0000
0000
,
0000
0000
0000
0000
,
0000
0000
0000
0000
,
0000
0000
0000
0000
,
0000
0000
0000
0000
,
0001
0000
0000
0000
,
1000
0000
0000
0000
,
0001
0000
0001
0000
,
1000
0000
1000
0000
,
0100
0000
0100
0000
,
0010
0001
0010
0000
,
0001
0000
0001
0000
,
0100
0000
0100
0000
,
0010
1000
0010
0000
,
1000
0001
1000
0000
,
0100
0010
0100
0000
,
0010
0000
0010
0000
,
0001
0000
0000
0000
,
0100
0000
0000
0000
,
0010
0000
0010
0000
,
0010
0000
0000
0000
,
1000
0000
0000
0000
,
0010
0000
1000
0000
,
0001
0000
0000
0000
,
0010
0000
0001
0000
,
1000
0000
0010
0000
,
0010
0000
0100
0000
,
0100
0000
0000
0000
,
0001
0000
1000
0000
,
0100
0000
0010
0000
,
0001
0000
0001
0000
,
0100
0000
0010
0000
,
1000
0000
1000
0000
,
0001
0000
0100
0000
,
0001
0000
1000
0000
,
0100
0000
1000
0000
,
0010
0100
0010
0000
,
1000
0000
0001
0000
,
0010
0000
0010
0000
,
0100
0000
1000
0000
,
0001
0000
0001
0000
,
0100
0001
0100
0000
,
0010
0100
0010
0000
,
1000
0010
1000
0000
,
0001
0000
0010
0000
,
0100
0000
0000
0000
,
1000
0000
0000
0000
,
0001
0000
0001
0000
,
0001
0000
0100
0010
0100
0000
0010
1000
,
0010
0000
1000
0000
0001
0000
0010
0100
,
0010
0000
0100
0000
1000
0000
0001
0100
,
0001
0000
1000
0010
1000
0000
0001
0000
,
0010
0000
0100
0010
0100
0000
1000
0100
,
1000
0000
0001
1000
0001
0000
0100
0000
,
0010
0000
0000
1000
0001
0000
0000
1000
,
0001
0000
1000
0000
0001
1000
0001
1000
,
0001
0000
0000
0010
,
0001
0000
0010
0000
,
0100
0000
0000
0010
,
0100
0000
1000
0000
,
0001
0000
0000
1000
,
0001
0000
0100
0000
,
0010
0000
0000
0100
,
0010
0000
0000
0000
,
1000
0000
0100
0000
,
0010
0000
0010
0000
,
0001
0000
0100
0000
,
0010
0000
0010
0000
,
1000
0000
1010
0000
,
0001
0000
0011
0000
,
0001
0000
1000
0000
,
1001
0000
0000
0000
,
0001
0000
0100
0000
,
0010
0000
0010
0000
,
1000
0000
0001
0000
,
0010
0000
0010
0000
,
0110
0000
0000
0000
,
1001
0000
0000
0000
,
0110
0000
0010
0000
,
1001
0000
1000
0000
,
0110
0000
0010
0000
,
0001
0000
0001
0000
,
0100
0000
0010
0000
,
1000
0000
1000
0000
,
0001
0000
0000
1000
,
0001
0000
0000
0100
,
0010
0000
0000
1000
,
0001
0000
0010
0000
,
0100
0000
1000
0000
,
0010
0000
0010
0000
,
1000
0000
0001
0000
,
0010
0000
0010
0000
,
0001
0010
0001
0000
,
0010
0100
0010
0000
,
0100
1000
0100
0000
,
1000
0000
1000
0000
,
0010
0000
0000
0000
,
0100
0000
0000
0000
,
0010
0000
0100
0000
,
0010
0000
0000
0000
;

//---------------dance-single - ----------------
#NOTEDATA:;
#CHARTNAME:;
#STEPSTYPE:dance-single;
#DESCRIPTION:;
#CHARTSTYLE:;
#DIFFICULTY:Beginner;
#METER:2;
#RADARVALUES:0.124,0.188,0.000,0.000,0.000,117.000,0.000,0.000,0.000,0.000,0.000,0.000,0.000,0.124,0.188,0.000,0.000,0.000,117.000,0.000,0.000,0.000,0.000,0.000,0.000,0.000;
#CREDIT:;
#NOTES:
// measure 0
0000
0000
0000
0000
,  // measure 1
0000
0000
0000
0000
,  // measure 2
0000
0000
0000
0000
,  // measure 3
0000
0000
0000
0000
,  // measure 4
0000
0000
0000
0000
,  // measure 5
0000
0000
0000
0000
,  // measure 6
0000
0000
0000
0000
,  // measure 7
0000
0000
0000
0000
,  // measure 8
1000
0000
0000
0000
,  // measure 9
0001
0000
0000
0000
,  // measure 10
1000
0000
1000
0000
,  // measure 11
1000
0000
0000
0000
,  // measure 12
0010
0000
0000
0000
,  // measure 13
0100
0000
0000
0000
,  // measure 14
0001
0000
0001
0000
,  // measure 15
0001
0000
0000
0000
,  // measure 16
0010
0000
0000
0000
,  // measure 17
0100
0000
0000
0000
,  // measure 18
0010
0000
0010
0000
,  // measure 19
0010
0000
0000
0000
,  // measure 20
0100
0000
0000
0000
,  // measure 21
1000
0000
0000
0000
,  // measure 22
0001
0000
0001
0000
,  // measure 23
0001
0000
0000
0000
,  // measure 24
0100
0000
0000
0000
,  // measure 25
0100
0000
0100
0000
,  // measure 26
0100
0000
0000
0000
,  // measure 27
0010
0000
0010
0000
,  // measure 28
0010
0000
0000
0000
,  // measure 29
1000
0000
0000
0000
,  // measure 30
0001
0000
0000
0000
,  // measure 31
0000
0000
0000
0000
,  // measure 32
1000
0000
0000
0000
,  // measure 33
0100
0000
0000
0000
,  // measure 34
0010
0000
0000
0000
,  // measure 35
0001
0000
0000
0000
,  // measure 36
1000
0000
0000
0000
,  // measure 37
0001
0000
0000
0000
,  // measure 38
1000
0000
0000
0000
,  // measure 39
0001
0000
0001
0000
,  // measure 40
0001
0000
0000
0000
,  // measure 41
0100
0000
0000
0000
,  // measure 42
0010
0000
0000
0000
,  // measure 43
1000
0000
0000
0000
,  // measure 44
0001
0000
0000
0000
,  // measure 45
1000
0000
0000
0000
,  // measure 46
0001
0000
0000
0000
,  // measure 47
1000
0000
1000
0000
,  // measure 48
1000
0000
0000
0000
,  // measure 49
0100
0000
0000
0000
,  // measure 50
0010
0000
0000
0000
,  // measure 51
0001
0000
0100
0000
,  // measure 52
0001
0000
1000
0000
,  // measure 53
0100
0000
1000
1000
,  // measure 54
1000
0000
0010
0000
,  // measure 55
1000
0000
0001
0001
,  // measure 56
0001
0000
0010
0000
,  // measure 57
0001
0000
0100
0000
,  // measure 58
0010
0010
0010
0010
,  // measure 59
0010
0000
0000
0000
,  // measure 60
1000
0000
0000
0000
,  // measure 61
0010
0000
0000
0000
,  // measure 62
0100
0000
0000
0000
,  // measure 63
0001
0000
0000
0000
,  // measure 64
0010
0000
0000
0000
,  // measure 65
0100
0000
0000
0000
,  // measure 66
1000
0000
0000
0000
,  // measure 67
0001
0000
0000
0000
,  // measure 68
0000
0000
0000
0000
,  // measure 69
0010
0000
0000
0000
,  // measure 70
0000
0000
0000
0000
,  // measure 71
0001
0000
0000
0000
,  // measure 72
0100
0000
0000
0000
,  // measure 73
0010
0000
0000
0000
,  // measure 74
1000
0000
0000
0000
,  // measure 75
0010
0000
0000
0000
,  // measure 76
0000
0000
0000
0000
,  // measure 77
1000
0000
0000
0000
,  // measure 78
0000
0000
0000
0000
,  // measure 79
0100
0000
0000
0000
,  // measure 80
0010
0000
0000
0000
,  // measure 81
0001
0000
0000
0000
,  // measure 82
1000
0000
0000
0000
,  // measure 83
0001
0000
0001
0000
,  // measure 84
0001
0000
0000
0000
,  // measure 85
0100
0000
0100
0000
,  // measure 86
0100
0000
0000
0000
,  // measure 87
0001
0000
0000
0000
,  // measure 88
1000
0000
0000
0000
,  // measure 89
0001
0000
0000
0000
,  // measure 90
1000
0000
1000
0000
,  // measure 91
1000
0000
1000
0000
,  // measure 92
1000
0000
0000
0000
,  // measure 93
0100
0000
0100
0000
,  // measure 94
0100
0000
0000
0000
,  // measure 95
1000
0000
0000
0000
,  // measure 96
0001
0000
0000
0000
,  // measure 97
1000
0000
0000
0000
,  // measure 98
0001
0000
0001
0000
,  // measure 99
0001
0000
0000
0000
,  // measure 100
0100
0000
0000
0000
,  // measure 101
0010
0000
0010
0000
,  // measure 102
0010
0000
0000
0000
;

//---------------dance-single - HAHA----------------
#NOTEDATA:;
#CHARTNAME:;
#STEPSTYPE:dance-single;
#DESCRIPTION:HAHA;
#CHARTSTYLE:;
#DIFFICULTY:Hard;
#METER:9;
#RADARVALUES:0.614,1.000,0.650,0.318,0.063,451.000,88.000,43.000,0.000,0.000,0.000,0.000,0.000,0.614,1.000,0.650,0.318,0.063,451.000,88.000,43.000,0.000,0.000,0.000,0.000,0.000;
#CREDIT:;
#NOTES:
0000
0000
0000
0000
,
0000
0000
0000
0000
,
0000
0000
0000
0000
,
0000
0000
0000
0000
,
0000
0000
0000
0000
,
0000
0000
0000
0000
,
0000
0000
0000
0000
,
0000
0000
0000
0000
,
2002
0000
3003
0000
,
0220
0000
0330
0000
,
2002
3003
0220
0330
,
0101
0000
0001
0010
0000
0010
0100
0000
,
1000
0000
1000
0010
0000
0000
0100
0000
,
0110
0000
0100
0001
1000
0000
1001
0000
,
1100
0000
1000
0100
0010
0001
0100
0000
,
0010
0000
0010
1000
0000
1000
0001
0000
,
1001
0000
1000
0010
0100
0000
0110
0000
,
0101
0000
0100
0001
1000
0000
1001
0000
,
1100
0000
1000
0100
0010
0000
0110
0000
,
0010
0000
0010
0001
0000
0001
0100
0000
,
0010
0000
0010
1000
0000
0000
0001
0000
,
1001
0000
1000
0001
0010
0000
0011
0000
,
0110
0100
1100
1001
,
0101
0000
0001
0100
0000
0100
0010
0000
,
1010
2001
3001
0011
,
0210
1300
2100
3001
,
0101
0120
1030
1010
,
2001
3001
1002
1003
,
2100
0000
3001
0100
,
0010
0100
0010
1000
,
0001
0000
1000
0100
0000
0010
0001
0000
,
2002
3003
0220
0330
,
1001
0000
0001
0100
0000
0100
0010
0000
,
1000
0100
0010
0100
0001
0100
0010
0000
,
0001
0000
0001
0100
0000
0100
0010
0000
,
1000
0010
0100
0010
0001
0010
0100
0000
,
0010
0000
0010
1000
0000
0000
0010
0000
,
1000
0000
1000
0100
0000
0000
0010
0000
,
0001
0000
0001
1000
0000
0000
0001
0000
,
2001
3001
1002
1003
,
1001
0000
0001
0010
0000
0010
0100
0000
,
1000
0100
0001
1000
0010
0001
1000
0000
,
0001
0000
0001
0100
0000
0100
0010
0000
,
1000
0010
0001
1000
0100
0001
1000
0000
,
0001
0000
0100
0001
0000
0100
0001
0000
,
1000
0000
0100
1000
0000
0100
1000
0000
,
0001
0000
1000
0001
0000
1000
0002
0000
,
0100
0100
0100
0100
,
0103
0000
0100
0010
0000
0000
1000
0000
,
0001
0000
0001
0010
0000
0000
0100
0000
,
1000
0000
1000
0001
0000
0000
0100
0000
,
0010
0000
0000
0010
1000
0000
0001
0000
0010
0000
0100
1000
0100
0000
1100
0000
,
1001
0000
0001
0100
0010
0000
0110
0000
1010
0000
1000
0001
1000
0000
1001
0000
,
1001
0000
0000
0001
0010
1000
0001
0100
1000
0000
0010
0100
0001
0000
0101
0000
,
0011
0000
0000
0010
0100
0000
1000
0010
0001
0000
0001
0010
1000
0000
0010
0100
,
0001
0000
0001
1000
0000
0000
0100
0000
0010
0000
0010
0001
1000
0000
0010
0000
,
0100
0000
0100
0001
0000
0000
1000
0000
0010
0000
0010
1000
0000
0000
0001
0000
,
0010
0000
0010
0100
0000
0000
1000
0000
1001
0000
0001
0000
0100
0000
0010
0000
,
1010
1000
0100
0001
0100
1000
0010
0100
,
0001
0000
1000
0010
1000
0000
1010
0000
,
0110
0000
0100
0001
0100
0000
0101
0000
,
1001
0000
1000
0001
1000
0000
1001
0000
,
1001
0000
0001
1000
0001
0000
1001
0000
,
1100
0000
0100
0010
0001
0000
0011
0000
,
0101
0000
0001
0100
0010
0000
1010
0000
,
1001
0000
1000
0001
1000
0000
1001
0000
,
2002
0000
0000
3003
,
2100
3001
0100
0010
,
2010
3001
2010
3001
,
2010
3001
0100
0001
,
0012
1003
0012
1003
,
0011
0001
1000
0010
,
0210
0301
1000
0100
,
0120
0031
1000
0001
,
2002
0000
0000
3003
,
1001
0001
0100
0010
,
2010
3100
0021
0031
,
0101
0010
1000
0100
,
1200
0310
0012
1003
,
1010
1000
0010
1000
,
1001
0001
1000
0001
,
0011
0000
0010
0100
0000
0000
1000
0000
,
0001
0000
0001
0100
0000
0000
0010
0000
,
1010
0000
1000
0100
0000
0100
0010
0000
,
0001
0100
1000
0000
1000
0100
0001
0000
,
0100
0000
0100
0010
0000
0010
1000
0000
,
0001
0010
1000
0000
1000
0010
0001
0000
,
1000
0000
1000
0100
0000
0000
1000
0000
,
0001
0000
0001
0100
0000
0000
0001
0000
,
1000
0000
1000
0001
0000
0000
1000
0000
,
2002
3003
0220
0330
,
1001
0000
1000
0001
0000
0001
0100
0000
,
0010
1000
0100
0000
0100
1000
0010
0000
,
0100
0000
0100
0001
0000
0001
1000
0000
,
0001
0100
0010
0000
0010
0100
0001
0000
,
0010
0000
0100
0010
0000
0100
0010
0000
,
0001
0000
1000
0001
0000
1000
0001
0000
,
0100
0000
0010
0100
0000
0010
0100
0000
,
0002
1000
1000
1000
,
1003
0000
0000
1100
0000
0000
0010
0000
,
0001
0000
0000
0011
0000
0000
0001
0000
,
1000
0000
0000
1001
0000
0000
1000
0000
,
0010
0000
0110
0000
;

//---------------dance-single - HAHA----------------
#NOTEDATA:;
#CHARTNAME:;
#STEPSTYPE:dance-single;
#DESCRIPTION:HAHA;
#CHARTSTYLE:;
#DIFFICULTY:Edit;
#METER:9;
#RADARVALUES:0.614,1.000,0.650,0.318,0.063,451.000,88.000,43.000,0.000,0.000,0.000,0.000,0.000,0.614,1.000,0.650,0.318,0.063,451.000,88.000,43.000,0.000,0.000,0.000,0.000,0.000;
#CREDIT:;
#NOTES:
0000
0000
0000
0000
,
0000
0000
0000
0000
,
0000
0000
0000
0000
,
0000
0000
0000
0000
,
0000
0000
0000
0000
,
0000
0000
0000
0000
,
0000
0000
0000
0000
,
0000
0000
0000
0000
,
2002
0000
3003
0000
,
0220
0000
0330
0000
,
2002
3003
0220
0330
,
0101
0000
0001
0010
0000
0010
0100
0000
,
1000
0000
1000
0010
0000
0000
0100
0000
,
0110
0000
0100
0001
1000
0000
1001
0000
,
1100
0000
1000
0100
0010
0001
0100
0000
,
0010
0000
0010
1000
0000
1000
0001
0000
,
1001
0000
1000
0010
0100
0000
0110
0000
,
0101
0000
0100
0001
1000
0000
1001
0000
,
1100
0000
1000
0100
0010
0000
0110
0000
,
0010
0000
0010
0001
0000
0001
0100
0000
,
0010
0000
0010
1000
0000
0000
0001
0000
,
1001
0000
1000
0001
0010
0000
0011
0000
,
0110
0100
1100
1001
,
0101
0000
0001
0100
0000
0100
0010
0000
,
1010
2001
3001
0011
,
0120
0130
2100
3001
,
0101
0120
1030
1010
,
2001
3001
0021
0130
,
2100
0000
3001
0100
,
0010
0100
0010
1000
,
0001
0000
1000
0100
0000
0010
0001
0000
,
2002
3003
0220
0330
,
1001
0000
0001
0100
0000
0100
0010
0000
,
1000
0100
0010
0100
0001
0100
1000
0000
,
0001
0000
0001
0100
0000
0100
0010
0000
,
1000
0010
0100
0010
0001
0010
0100
0000
,
0010
0000
0010
1000
0000
0000
0010
0000
,
1000
0000
1000
0100
0000
0000
0010
0000
,
0001
0000
0001
1000
0000
0000
0001
0000
,
2001
3001
1002
1003
,
1001
0000
0001
0010
0000
0010
0100
0000
,
1000
0100
0001
1000
0010
0001
1000
0000
,
0001
0000
0001
0100
0000
0100
0010
0000
,
1000
0010
0001
1000
0100
0001
1000
0000
,
0001
0000
0100
0001
0000
0100
0001
0000
,
1000
0000
0100
1000
0000
0100
1000
0000
,
0001
0000
1000
0001
0000
1000
0002
0000
,
0100
0100
0100
0100
,
0103
0000
0100
0010
0000
0000
1000
0000
,
0001
0000
0001
0010
0000
0000
0100
0000
,
1000
0000
1000
0001
0000
0000
0100
0000
,
0010
0000
0000
0010
1000
0000
0001
0000
0010
0000
0100
1000
0100
0000
1100
0000
,
1001
0000
0001
0100
0010
0000
0110
0000
1010
0000
1000
0001
1000
0000
1001
0000
,
1001
0000
0000
0001
0010
1000
0001
0100
1000
0000
0010
0100
0001
0000
0101
0000
,
0011
0000
0000
0010
0100
0000
1000
0010
0001
0000
0001
0010
1000
0000
0100
0010
,
0001
0000
0001
1000
0000
0000
0010
0000
0100
0000
0100
0001
1000
0000
0100
0000
,
0010
0000
0010
0001
0000
0000
1000
0000
0010
0000
0010
1000
0000
0000
0001
0000
,
0010
0000
0010
0100
0000
0000
1000
0000
1001
0000
0001
0000
0100
0000
0010
0000
,
1010
1000
0100
0001
0100
1000
0010
0100
,
0001
0000
1000
0001
1000
0000
1010
0000
,
1001
0000
1000
0001
1000
0000
0011
0000
,
0110
0000
1000
0100
1000
0000
1100
0000
,
1001
0000
0001
0100
0001
0000
0101
0000
,
1010
0000
0010
1000
0100
0000
1100
0000
,
0011
0000
0001
0100
0010
0000
0110
0000
,
1001
0000
1000
0001
1000
0000
1001
0000
,
2002
0000
0000
3003
,
2100
3001
0100
0010
,
2010
3001
2010
3001
,
2010
3001
0100
0001
,
0012
1003
0012
1003
,
0011
0001
1000
0010
,
0210
0301
1000
0100
,
0120
0031
1000
0001
,
2002
0000
0000
3003
,
1001
0001
0100
0010
,
2010
3100
0021
0031
,
0101
0010
1000
0100
,
1200
0310
0012
1003
,
1010
1000
0010
1000
,
1001
0001
1000
0001
,
0011
0000
0010
0100
0000
0000
1000
0000
,
0001
0000
0001
0100
0000
0000
0010
0000
,
1010
0000
1000
0100
0000
0100
0010
0000
,
0001
0100
1000
0000
1000
0100
0001
0000
,
0100
0000
0100
0010
0000
0010
1000
0000
,
0001
0010
1000
0000
1000
0010
0001
0000
,
1000
0000
1000
0100
0000
0000
1000
0000
,
0001
0000
0001
0100
0000
0000
0001
0000
,
1000
0000
1000
0001
0000
0000
1000
0000
,
2002
3003
0220
0330
,
1001
0000
1000
0001
0000
0001
0100
0000
,
0010
1000
0100
0000
0100
1000
0010
0000
,
0100
0000
0100
0001
0000
0001
1000
0000
,
0001
0100
0010
0000
0010
0100
0001
0000
,
0010
0000
0100
0010
0000
0100
0010
0000
,
0001
0000
1000
0001
0000
1000
0001
0000
,
0100
0000
0010
0100
0000
0010
0100
0000
,
0002
1000
1000
1000
,
1003
0000
0000
1100
0000
0000
0010
0000
,
0001
0000
0000
0011
0000
0000
0001
0000
,
1000
0000
0000
1001
0000
0000
1000
0000
,
0010
0000
0110
0000
;
