#VERSION:0.83;
#TITLE:THE DEEP STRIKER (DJ Myosuke Remix);
#SUBTITLE:;
#ARTIST:Remixed by DJ Myosuke;
#TITLETRANSLIT:;
#SUBTITLETRANSLIT:;
#ARTISTTRANSLIT:;
#GENRE:MAINSTREAM HARDCORE;
#ORIGIN:;
#CREDIT:;
#BANNER:[Scrabble] - THE DEEP STRIKER (DJ Myosuke Remix).png;
#BACKGROUND:[Scrabble] - THE DEEP STRIKER (DJ Myosuke Remix)-bg.png;
#PREVIEWVID:;
#JACKET:[Scrabble] - THE DEEP STRIKER (DJ Myosuke Remix)-jacket.png;
#CDIMAGE:;
#DISCIMAGE:;
#LYRICSPATH:;
#CDTITLE:cdtitle.png;
#MUSIC:[Scrabble] - THE DEEP STRIKER (DJ Myosuke Remix).ogg;
#OFFSET:-0.000000;
#SAMPLESTART:91.177856;
#SAMPLELENGTH:9.595001;
#SELECTABLE:YES;
#BPMS:0.000=200.000;
#STOPS:;
#DELAYS:;
#WARPS:;
#TIMESIGNATURES:0.000=4=4;
#TICKCOUNTS:0.000=4;
#COMBOS:0.000=1;
#SPEEDS:0.000=1.000=0.000=0;
#SCROLLS:0.000=1.000;
#FAKES:;
#LABELS:0.000=Song Start;
#BGCHANGES:;
#KEYSOUNDS:;
#ATTACKS:
;

//---------------dance-single - ----------------
#NOTEDATA:;
#CHARTNAME:;
#STEPSTYPE:dance-single;
#DESCRIPTION:;
#CHARTSTYLE:;
#DIFFICULTY:Challenge;
#METER:10;
#RADARVALUES:0.820222,0.969857,0.240525,0.062071,0.302595,740.000000,709.000000,31.000000,8.000000,0.000000,0.000000,0.000000,0.000000,0.000000,0.820222,0.969857,0.240525,0.062071,0.302595,740.000000,709.000000,31.000000,8.000000,0.000000,0.000000,0.000000,0.000000,0.000000;
#CREDIT:;
#NOTES:
0000
0000
0000
0000
,
0000
0000
0000
0000
,
0000
0000
0000
0000
,
0000
0000
0000
0000
,
1000
0100
0001
0100
,
1000
0010
0100
0010
,
1000
0100
0010
0100
,
1000
0010
0001
0010
,
1001
0000
0000
1000
0100
1000
0000
0001
,
0000
0100
0000
0001
0010
0100
1000
0000
,
1001
0000
0000
0001
0100
0001
0000
1000
,
0000
0100
0000
1000
0010
0001
0010
1000
,
1001
0000
0001
0100
0010
0000
0010
1000
,
0100
0000
0010
0001
1000
0000
1001
0000
,
0001
0100
0010
0100
0001
0010
0100
1000
,
0020
0000
0130
0110
,
1001
0000
1000
0010
0100
0010
1000
0100
,
0010
0100
1000
0010
0100
0001
0010
0000
,
1001
0000
0001
0010
0100
0010
0001
0100
,
0010
0000
0010
0000
1000
0000
0000
0000
0100
0010
0100
0010
0100
0000
0000
0000
,
1001
0000
1000
0100
0010
0100
1000
0010
,
0100
0000
0010
0000
1000
0000
0100
0000
0010
0000
0001
1000
0001
0000
0000
0000
,
1001
0000
1000
0001
0010
0100
1000
1000
,
0001
0000
0100
0000
0001
1000
0001
0000
1000
0000
0100
0010
0100
0000
0000
0000
,
1001
0000
1000
0010
0001
0010
0100
0010
,
0000
1010
0000
1000
0001
0001
1000
1000
,
1001
0000
0001
0010
1000
0010
0100
0010
,
0001
0000
0001
0000
0100
0000
0100
0000
0010
1000
0010
0000
1000
0000
1000
0000
,
1001
0000
0001
0010
0100
0001
0100
1000
,
0010
0000
0100
0000
0001
0000
0010
0000
0100
0000
1000
0001
1000
0000
0000
0000
,
0001
1000
0010
0100
1000
0100
0001
1000
,
0200
0000
0310
0010
0001
0001
0100
0010
,
1000
1000
0100
0010
0010
0001
0100
0100
,
0010
1000
1000
0001
0010
0010
0100
1000
,
0001
0001
0100
0010
0010
1000
0100
0100
,
0010
0001
0001
1000
0010
0010
0100
0001
,
1000
1000
0100
0010
0010
0100
1000
1000
,
0010
0100
0100
0001
0010
0010
0100
1000
,
0001
0001
0100
0010
0010
0100
0001
0001
,
0010
0000
0100
0000
0100
0000
1000
0000
0001
1000
0001
1000
0001
1000
0001
1000
,
0001
0000
0000
0000
,
1000
0000
0000
0001
0000
0000
1000
0000
0010
0100
0010
0000
1000
0000
0000
0000
,
0001
0000
0000
0001
0010
0000
0100
0000
1000
0000
0010
0000
0100
0000
0001
0000
,
1000
0000
0000
1000
0010
0000
0100
0000
0001
0000
0010
0001
0010
0000
0100
0000
,
0010
0000
0000
0010
0001
0000
0100
0000
0010
0000
1000
0000
0100
0000
0010
0000
,
0100
0000
1000
0001
1000
0000
0000
0000
0010
0100
0010
0100
0001
0000
0000
0000
,
1000
0000
0000
1000
0100
0000
0010
0000
0100
0000
0001
0000
0100
0000
1000
0000
,
0001
0000
0000
0001
0100
0000
0010
0000
0100
0000
0001
1000
0001
0000
0010
0000
,
0100
0000
1100
1000
0010
0000
0110
0100
,
0001
0010
1000
0010
0001
0100
0010
0100
,
0001
0000
1000
0010
1000
0000
0001
0000
0010
0100
0010
0000
0001
0000
1000
0000
,
0010
0000
1000
0100
1000
0000
0001
0000
0100
0010
0100
0000
0010
0000
1000
0000
,
0001
0000
0010
0100
0010
0000
0001
0000
1000
0010
1000
0000
0100
0000
0010
0000
,
0001
0000
0100
0010
0100
0000
0001
0000
1000
0100
0010
0100
0010
0000
0001
0000
,
1000
0000
0010
0100
0010
0000
1000
0000
0001
0010
0001
0000
0100
0000
0010
0000
,
1000
0000
0100
0010
0100
0000
1000
0000
0001
0100
0001
0000
0010
0000
0100
0000
,
1000
0000
0001
0100
0001
0000
0010
0000
0100
1000
0100
0000
1000
0000
0010
0000
,
1000
0000
1100
0000
1001
0000
0001
0100
,
0010
0000
0000
0110
0000
0000
1001
0000
0000
0000
1000
0000
0000
0000
0100
0000
,
0010
0000
0000
0110
0000
0000
1001
0000
1000
0000
1000
0000
0010
0000
0100
0000
,
0001
0000
0000
0011
0000
0000
1001
0000
0000
0000
1000
0000
0000
0000
0010
0000
,
0100
0000
0000
0101
0000
0000
1001
0000
1000
0100
1000
0000
0010
0000
0000
0000
,
1000
0100
0001
0100
1000
0010
0100
0010
,
1000
0100
0010
0100
1000
0010
0001
0010
,
1000
0100
0010
0001
0100
0010
1000
0100
,
0010
0100
0010
0100
1000
0001
1000
0001
0100
0010
0100
0010
1000
0001
1000
0001
,
0020
0100
0100
0100
,
0230
1000
1000
1000
,
2300
0010
0010
0010
,
3020
0100
0100
0130
,
1000
0010
0100
0001
1000
0100
0010
0001
,
1000
0001
0100
0010
1000
0001
0010
0100
,
1000
0010
0001
0010
1000
0100
0001
0100
,
1000
0010
1000
0010
0100
0001
0100
0001
1000
0100
1000
0100
0010
0001
0010
0001
,
0000
0000
0000
0000
,
0000
0000
0000
0000
,
1000
0100
0010
1000
0010
0001
0100
0010
,
1000
0001
0100
0010
0001
0010
1000
0100
,
0010
0001
0100
1000
0100
0001
0010
0100
,
1000
0000
0010
0000
0001
0000
0010
0000
1000
0001
1000
0000
0100
0000
0010
0000
,
0001
0100
1000
0001
0010
1000
0100
0010
,
0001
0000
0100
0000
0010
0000
1000
0000
0100
0000
1000
0001
1000
0000
0010
0000
,
1000
0000
0100
0000
0001
0000
1000
0000
0010
0000
0001
0000
0100
0010
0100
0010
,
1000
0001
1000
0000
0001
0202
0000
0303
,
1000
0000
0010
0100
0000
0100
0001
0000
0010
0000
0100
0000
1000
0000
0010
0000
,
1000
0100
0001
0100
1000
0010
0100
0001
,
0010
0000
0100
1000
0000
1000
0010
0000
0100
0000
0001
0000
0010
0000
0100
0000
,
0010
0001
1000
0001
1000
0000
0110
0000
,
1000
0000
0100
0010
0000
0010
0001
0000
0100
0000
0010
0000
1000
0000
0001
0010
,
0001
0100
1000
0100
0001
1000
0100
0010
,
0001
0000
0100
0010
0000
0010
1000
0000
0001
0000
0100
0000
1000
0000
0100
0000
,
0010
0000
1000
0000
0100
0000
0010
0000
0001
1000
0001
1000
0001
0000
0000
0000
,
1000
1000
0010
0000
0110
0000
0001
0001
,
0010
0000
0110
0000
1000
0010
0001
0010
,
1000
1000
0100
0000
0110
0000
0001
0001
,
0100
0010
1000
0000
0001
0010
1000
0010
,
0001
0001
0100
0010
1000
1000
0100
0010
,
0100
0100
1000
0010
0100
0100
0001
0010
,
0001
0100
0010
1000
0100
0010
0001
0100
,
0010
1000
0010
1000
0100
0010
0100
0010
0001
0000
0000
0000
1000
0000
0001
0000
,
1001
0000
0000
0000
;

//---------------dance-single - ----------------
#NOTEDATA:;
#CHARTNAME:;
#STEPSTYPE:dance-single;
#DESCRIPTION:;
#CHARTSTYLE:;
#DIFFICULTY:Hard;
#METER:9;
#RADARVALUES:0.697189,0.698297,0.131901,0.046553,0.069830,629.000000,612.000000,17.000000,6.000000,0.000000,0.000000,0.000000,0.000000,0.000000,0.697189,0.698297,0.131901,0.046553,0.069830,629.000000,612.000000,17.000000,6.000000,0.000000,0.000000,0.000000,0.000000,0.000000;
#CREDIT:;
#NOTES:
0000
0000
0000
0000
,
0000
0000
0000
0000
,
0000
0000
0000
0000
,
0000
0000
0000
0000
,
1000
0010
0100
0001
,
1000
0100
0010
0001
,
1000
0001
0100
0010
,
1000
0001
0010
0100
,
1000
0000
0000
0010
0100
0010
0000
1000
,
0000
0100
0000
0010
0001
0100
0001
0000
,
1000
0000
0000
0100
0010
0100
0000
1000
,
0000
0010
0000
0100
0001
0010
0100
1000
,
0001
0000
0001
0100
0010
0000
0010
1000
,
0100
0000
0100
0010
0001
0000
1001
0000
,
1000
0010
0001
0010
0100
0010
1000
0100
,
0020
0000
0031
1001
,
1000
0000
0010
0100
0010
1000
0000
0100
,
0000
0010
0000
0001
0100
0010
0100
0000
,
0001
0000
0010
0100
0010
0001
0000
1000
,
0000
0010
0000
0100
0001
1000
0100
0010
,
0001
0000
1000
0010
1000
0010
0000
0100
,
0000
0001
0000
0010
0100
0010
0001
0000
,
1000
0000
0010
0100
0010
0100
0000
0001
,
1000
0010
1000
0001
0010
0001
0100
0000
,
0001
0000
1000
0010
0001
0010
1000
0100
,
0000
1000
0000
0001
0010
0100
1000
0010
,
0000
0000
1000
0100
0010
0100
1000
0010
,
1000
0100
0001
0100
1000
0010
0100
0001
,
0010
0000
0100
1000
0100
1000
0001
0100
,
0000
0010
0000
1000
0100
0010
0001
0000
,
1000
0010
0100
0010
0001
0010
0100
0010
,
2000
0000
3001
0001
0010
0100
1000
1000
,
0001
0001
0100
0010
0010
1000
0100
0100
,
0010
0001
0100
1000
0100
0001
0010
0100
,
1000
1000
0100
0010
0010
0001
0100
0100
,
0010
1000
0100
0001
0100
1000
0010
0100
,
0001
0001
0010
1000
1000
0010
0001
0001
,
1000
0010
0100
0001
0010
0100
1000
0001
,
1000
1000
0010
0001
0001
0010
1000
1000
,
0001
0010
0100
1000
0010
0100
0001
1000
,
0100
0000
0000
0000
,
1000
0000
0000
0010
0000
0000
1000
0000
0001
0010
0001
0000
1001
0000
0000
0000
,
1000
0000
0000
0100
0000
0000
1000
0000
0001
0000
0010
0000
0100
0000
0010
0000
,
0001
0000
0000
0100
0000
0000
0001
0000
1000
0000
0010
0000
0100
0000
0010
0000
,
1000
0000
0000
0001
0000
0000
0010
0000
0100
0000
0001
0000
0100
0000
1000
0000
,
0001
0000
0000
1000
0000
0000
0010
0000
0100
0000
1000
0000
0100
0000
0000
0000
,
0001
0000
0000
0010
0000
0000
0001
0000
0100
0000
0010
0000
1000
0000
0100
0000
,
1000
0000
0000
0010
0000
0000
1000
0000
0100
0000
0010
0000
0001
0000
0100
0000
,
0001
0010
0011
0000
1000
0010
1010
0000
,
1000
0100
0001
0100
1000
0010
0100
0001
,
1000
1000
0100
0010
0001
0100
1000
0100
,
0001
0001
0100
0010
1000
0100
0001
0100
,
1000
1000
0010
0100
0010
0001
0010
1000
,
0001
0001
0010
0100
0010
1000
0010
0001
,
1000
1000
0001
0100
0010
0001
0010
0100
,
0001
0001
1000
0100
0010
1000
0010
0100
,
1000
1000
0100
0010
0001
0100
0010
1000
,
0001
0000
0110
0000
1001
0000
1000
0010
,
1000
0000
0000
0100
0000
0000
0110
0000
0000
0000
1001
0000
0000
0000
1000
0000
,
0010
0000
0000
0100
0000
0000
0001
0000
0010
0000
0010
0000
0100
0000
1000
0000
,
0001
0000
0000
0100
0000
0000
0110
0000
0000
0000
1001
0000
0000
0000
0001
0000
,
0010
0000
0000
0100
0000
0000
1000
0000
0001
1000
0001
0000
1000
0000
0000
0000
,
0001
0010
0001
0100
0010
1000
0100
1000
,
0001
0100
1000
0100
0001
0010
0100
1000
,
0010
0010
0100
0100
0001
0001
1000
1000
,
0100
0010
0100
0001
0100
0010
0100
1000
,
0002
0100
0100
0103
,
2000
0100
0100
3100
,
0002
0010
0010
0013
,
2000
0010
0010
3010
,
0001
0100
0010
1000
0001
0010
0100
1000
,
0001
1000
0010
0100
0001
1000
0100
0010
,
0001
0100
0001
0010
0001
1000
0100
1000
,
0010
1000
0100
0001
0100
1000
0010
0001
,
0000
0000
0000
0000
,
0000
0000
0000
0000
,
1000
0100
0010
1000
0010
0001
0100
0010
,
0000
1000
0000
0001
0010
0100
1000
0010
,
1000
0100
0001
0100
1000
0010
0100
0001
,
0000
0010
0000
0001
0100
1000
0100
0001
,
1000
0010
0001
0010
0100
0010
1000
0100
,
0000
1000
0000
0001
0100
0010
1000
0100
,
0010
0001
0100
1000
0100
0001
0010
0100
,
0000
1000
0000
0001
0100
0110
0000
0000
,
1000
0000
0000
0100
0000
0000
1000
0000
0010
0000
0100
0000
0001
0000
0010
0000
,
0000
0001
0000
1000
0100
0001
0100
1000
,
0001
0000
0000
0100
0000
0000
0001
0000
0010
0000
0100
0000
1000
0000
0010
0000
,
0000
1000
0000
1001
0000
0001
1000
0010
,
0100
0000
0000
0010
0000
0000
1000
0000
0001
0000
0010
0000
0100
0000
1000
0000
,
0000
0001
0000
1000
0010
0001
0010
1000
,
0001
0000
0000
0010
0000
0000
0001
0000
1000
0000
0010
0000
0100
0000
0001
0000
,
0000
1000
0010
1000
0001
0010
0001
0100
,
0010
0010
1000
0000
0100
0000
0010
0001
,
0100
0100
0010
0000
1000
0000
0001
0010
,
0100
0100
1000
0000
0010
0000
0100
0100
,
0001
0010
0100
1000
0000
0010
0100
0010
,
1000
0001
0101
0000
0001
1000
1100
0000
,
1000
0010
0110
0000
0001
0010
0100
1000
,
0001
0100
1000
0100
0010
0100
0001
0010
,
0100
0000
1000
0000
0010
0000
1000
0001
1000
0000
0000
0000
0001
0000
0000
0000
,
1001
0000
0000
0000
;

//---------------dance-single - ----------------
#NOTEDATA:;
#CHARTNAME:;
#STEPSTYPE:dance-single;
#DESCRIPTION:;
#CHARTSTYLE:;
#DIFFICULTY:Medium;
#METER:8;
#RADARVALUES:0.512084,0.581914,0.085347,0.046553,0.042674,462.000000,451.000000,11.000000,6.000000,0.000000,0.000000,0.000000,0.000000,0.000000,0.512084,0.581914,0.085347,0.046553,0.042674,462.000000,451.000000,11.000000,6.000000,0.000000,0.000000,0.000000,0.000000,0.000000;
#CREDIT:;
#NOTES:
0000
0000
0000
0000
,
0000
0000
0000
0000
,
0000
0000
0000
0000
,
0000
0000
0000
0000
,
1000
0100
0010
0100
,
1000
0001
0100
0001
,
1000
0001
0010
0001
,
1000
0010
0100
0010
,
1000
0000
0000
0001
1000
0001
0000
1000
,
0000
0100
0000
0000
1000
0001
1000
0000
,
0001
0000
0000
0010
0100
0010
0000
0001
,
0000
1000
0000
0000
0001
1000
0001
1000
,
0100
0000
1000
0010
1000
0000
0001
0010
,
0001
0000
1000
0100
1000
0000
1001
0000
,
0001
0000
0100
0000
0010
0000
1000
0100
,
2000
0000
3001
1001
,
1000
0100
0001
0100
,
1000
0000
0010
0000
0100
0001
0100
0000
,
0001
0010
1000
0010
,
0001
1000
0001
0000
1000
0100
0010
0000
,
0100
1000
0001
0100
,
0010
0000
1000
0000
0100
0010
0001
0000
,
1000
0000
0010
0000
1000
0000
0100
1000
,
0001
0000
0010
0000
0001
1000
0100
0010
,
0001
0000
0100
0000
0010
1000
0010
1000
,
0000
1001
0000
0001
0010
1000
0010
0002
,
0000
0000
1003
0000
0010
0100
0010
0000
,
1000
0000
0001
0100
0010
1000
0100
0000
,
0010
0001
0100
0010
,
1000
0000
0001
0000
1000
0100
0010
0000
,
0100
0000
1000
0000
0010
0100
0010
0100
,
0001
0000
1000
0100
0010
0001
0010
0001
,
0100
0000
0100
0010
0000
0010
1000
0000
,
1000
0100
0000
0100
0010
0001
1000
0000
,
0100
0000
0100
1000
0000
1000
0010
0000
,
0010
0100
0000
0100
0001
0010
0001
0000
,
1000
0000
1000
0010
0000
0010
0100
0000
,
0100
0001
0000
0001
0010
0100
1000
0000
,
0010
0000
0010
0100
0000
0100
0001
1000
,
0001
0010
0001
0010
0100
1000
0100
1000
,
0010
0000
0000
0000
,
1000
0000
0000
1000
0000
0000
1000
0000
0001
0000
0010
0000
0001
0000
0000
0000
,
1000
0000
0000
0010
0000
0000
1000
0000
0000
0000
0001
0000
1000
0000
0001
0000
,
1000
0000
0000
0100
0000
0000
0010
0000
0000
0000
0001
0000
0100
0000
0000
0000
,
0001
0000
0000
0010
0000
0000
0001
0000
0000
0000
1000
0000
0001
0000
1000
0000
,
0001
0000
0000
0010
0000
0000
0100
0000
0000
0000
1000
0000
0010
0000
0000
0000
,
1000
0000
0000
0001
0000
0000
1000
0000
0000
0000
0010
0000
0100
0000
0010
0000
,
0100
0000
0000
0001
0000
0000
0010
0000
0000
0000
0100
0000
1000
0000
0000
0000
,
0001
0101
1000
1100
,
0001
0000
0100
0000
0010
1000
0010
1000
,
0100
0000
0100
0000
1000
0010
1000
0001
,
0010
0000
0010
0000
0001
0100
0001
0000
,
1000
0000
1000
0000
0010
0100
0001
0010
,
0001
0000
0001
0000
1000
0100
0010
0000
,
0100
0000
0100
0000
1000
0010
1000
0100
,
0010
0000
0010
0000
0001
0100
0010
0000
,
1000
0000
1000
0000
0010
1000
0010
1000
,
0001
0000
1001
0000
0110
0000
1000
0001
,
1000
0000
0000
1000
0000
0000
0001
0000
0000
0000
0100
0000
0000
0000
0010
0000
,
1000
0000
0000
0100
0000
0000
0010
0000
0000
0000
0000
0000
0000
0000
0000
0000
,
0001
0000
0000
0001
0000
0000
1000
0000
0000
0000
0100
0000
0000
0000
0010
0000
,
0001
0000
0000
0100
0000
0000
0010
0000
0000
0000
0000
0000
0000
0000
0000
0000
,
1000
0000
0010
0000
0100
0001
0100
0000
,
0001
0000
0010
0000
0100
1000
0100
1000
,
0010
0000
0100
0000
0001
1000
0001
0000
,
1000
0000
0010
0000
1000
0001
1000
0001
,
0020
0000
0000
0000
,
0230
0000
0000
0000
,
2300
0000
0000
0000
,
3002
0000
0000
0000
,
1003
1000
0010
0010
,
0100
0100
0001
0001
,
0010
0100
0010
0001
,
1000
0000
0010
0000
1000
0100
0010
0001
,
0000
0000
0000
0000
,
0000
0000
0000
0000
,
1000
0100
0010
0100
,
1000
0000
0010
0000
0100
0000
0001
1000
,
0001
0010
0100
0010
,
0001
0100
0001
0000
1000
0100
0010
0000
,
0001
0000
1000
0000
0010
0000
0100
0010
,
0100
0000
0001
0000
1000
0100
0010
0000
,
0100
0000
1000
0000
0001
0000
0100
0010
,
0100
0000
0001
0000
1000
0100
0000
0000
,
1000
0010
1000
0100
,
0010
0000
0001
0000
0100
0010
0000
0000
,
0100
0010
1000
0100
,
0010
0001
0110
1001
,
1000
0010
0100
0001
,
0010
0000
0100
0000
1000
0000
0001
0100
,
0001
1000
0010
0100
,
0001
0000
0010
0000
0100
1000
0100
0000
,
1000
0010
1000
0000
0001
0000
0010
0100
,
0010
0000
0001
0000
1000
0100
0000
0000
,
1000
0001
1000
0000
0010
0000
0100
0001
,
0100
0001
0010
0000
0001
1000
0001
0000
,
1000
0100
0010
0100
,
1000
0010
0100
0001
,
0010
0010
0100
0100
,
1000
0010
1000
0001
1000
0000
1001
0000
,
0110
0000
0000
0000
;

//---------------dance-single - ----------------
#NOTEDATA:;
#CHARTNAME:;
#STEPSTYPE:dance-single;
#DESCRIPTION:;
#CHARTSTYLE:;
#DIFFICULTY:Easy;
#METER:5;
#RADARVALUES:0.310354,0.349148,0.031035,0.023277,0.000000,280.000000,276.000000,4.000000,3.000000,0.000000,0.000000,0.000000,0.000000,0.000000,0.310354,0.349148,0.031035,0.023277,0.000000,280.000000,276.000000,4.000000,3.000000,0.000000,0.000000,0.000000,0.000000,0.000000;
#CREDIT:;
#NOTES:
0000
0000
0000
0000
,
0000
0000
0000
0000
,
0000
0000
0000
0000
,
0000
0000
0000
0000
,
1000
0000
1000
0000
,
0001
0000
0001
0000
,
1000
0000
1000
0000
,
0010
0000
0010
0000
,
1000
0000
0000
0000
,
0001
0000
0000
0000
,
1000
0000
0000
0000
,
0001
0000
0000
0000
,
1000
0000
0010
0000
,
0100
0000
0001
0000
,
0010
0000
0100
1000
,
0001
0000
0000
0000
,
1000
0010
1000
0001
,
1000
0100
0010
0000
,
0001
0100
0010
0100
,
0001
0010
0100
0000
,
1000
0001
0100
0001
,
1000
0100
0010
0000
,
0001
0100
0010
1000
,
0001
0000
1001
0000
,
1000
0000
0100
0000
0010
0000
0000
0001
,
0000
1000
0000
0000
0001
0000
0010
0000
,
0000
0001
1000
0100
,
1000
0010
0100
0000
,
0001
0010
0100
0010
,
0001
1000
0010
0000
,
1000
0100
0010
0001
,
0200
0000
0000
0000
,
0310
0000
0000
0010
0000
0000
1000
0000
,
0000
1000
0000
0000
0001
0000
0100
0000
,
0010
0000
0000
0010
0000
0000
0100
0000
,
0000
0100
0000
0000
0001
0000
0010
0000
,
0100
0000
0000
0100
0000
0000
1000
0000
,
0000
1000
0000
0000
0010
0000
0100
0000
,
0001
0000
0000
0001
0000
0000
1000
0000
,
0001
1000
0001
1000
,
0001
0000
0000
0000
,
1001
0000
0000
0010
,
1000
0100
0010
0100
,
1000
0010
0100
0001
,
0010
0100
0010
0001
,
0100
0010
0000
1000
,
0001
0100
0010
0100
,
0001
0010
0100
1000
,
0010
0100
0000
0010
,
1000
1000
0001
0001
,
1000
0100
1000
0001
,
1000
0010
0100
0000
,
0001
0010
0001
0100
,
0010
1000
0100
0000
,
1000
0010
1000
0001
,
0100
0001
0010
0000
,
0001
1000
0100
1000
,
0010
0010
0010
1000
,
0100
0000
0000
0000
,
0010
0000
0001
0000
,
1000
0000
0000
0000
,
0001
0000
0100
0000
,
0010
0100
0001
0010
,
0100
1000
0010
0100
,
0010
1000
0100
0010
,
0001
0001
1000
1000
,
0002
0000
0000
0000
,
0000
0000
0000
0000
,
2003
0000
0000
0000
,
0000
0000
0000
0000
,
3010
0000
0010
0000
,
0100
0000
0100
0000
,
0001
1000
0001
1000
,
0100
0010
0001
0100
,
0000
0000
0000
0000
,
0000
0000
0000
0000
,
0001
0001
0100
0010
,
1000
1000
0100
0010
,
0100
0100
1000
0010
,
0100
0100
0001
0010
,
0001
0001
0010
0100
,
1000
1000
0010
0100
,
0010
0010
1000
0100
,
0010
0010
0001
0000
,
1000
0001
1000
0010
,
0100
0001
0010
0000
,
0001
1000
0001
0100
,
0010
1000
0100
0000
,
1000
0010
1000
0001
,
0100
0001
0010
0000
,
0001
0100
0001
1000
,
0010
1000
0100
0010
,
0001
0000
0001
0000
,
1000
0000
1000
0000
,
0010
0000
0010
0000
,
0100
0000
0100
0000
,
0001
0000
1001
0000
,
1000
0000
1001
0000
,
0010
0010
0100
0100
,
0001
0010
0100
1000
,
0010
0000
0000
0000
;

//---------------dance-single - ----------------
#NOTEDATA:;
#CHARTNAME:;
#STEPSTYPE:dance-single;
#DESCRIPTION:;
#CHARTSTYLE:;
#DIFFICULTY:Beginner;
#METER:2;
#RADARVALUES:0.139659,0.193971,0.000000,0.007759,0.000000,126.000000,126.000000,0.000000,1.000000,0.000000,0.000000,0.000000,0.000000,0.000000,0.139659,0.193971,0.000000,0.007759,0.000000,126.000000,126.000000,0.000000,1.000000,0.000000,0.000000,0.000000,0.000000,0.000000;
#CREDIT:;
#NOTES:
// measure 0
0000
0000
0000
0000
,  // measure 1
0000
0000
0000
0000
,  // measure 2
0000
0000
0000
0000
,  // measure 3
0000
0000
0000
0000
,  // measure 4
1000
0000
0000
0000
,  // measure 5
0001
0000
0000
0000
,  // measure 6
1000
0000
0000
0000
,  // measure 7
0001
0000
0000
0000
,  // measure 8
1000
0000
0000
0000
,  // measure 9
0100
0000
0000
0000
,  // measure 10
0010
0000
0000
0000
,  // measure 11
0001
0000
0000
0000
,  // measure 12
1000
0000
1000
0000
,  // measure 13
0001
0000
0001
0000
,  // measure 14
1000
0000
1000
0000
,  // measure 15
0001
0000
0000
0000
,  // measure 16
1000
0000
0000
0000
,  // measure 17
0010
0000
0000
0000
,  // measure 18
1000
0000
0000
0000
,  // measure 19
0100
0000
0000
0000
,  // measure 20
1000
0000
0000
0000
,  // measure 21
0001
0000
0000
0000
,  // measure 22
0100
0000
0000
0000
,  // measure 23
0001
0000
1000
0000
,  // measure 24
0001
0000
0000
0000
,  // measure 25
0010
0000
0000
0000
,  // measure 26
0001
0000
0000
0000
,  // measure 27
0100
0000
0000
0000
,  // measure 28
0010
0000
0000
0000
,  // measure 29
1000
0000
0000
0000
,  // measure 30
0100
0000
0000
0000
,  // measure 31
1000
0000
0001
0000
,  // measure 32
1000
0000
0000
0000
,  // measure 33
1000
0000
0000
0000
,  // measure 34
0010
0000
0000
0000
,  // measure 35
0010
0000
0000
0000
,  // measure 36
0100
0000
0000
0000
,  // measure 37
0100
0000
0000
0000
,  // measure 38
0001
0000
0000
0000
,  // measure 39
0001
0000
1000
0000
,  // measure 40
0001
0000
0000
0000
,  // measure 41
0000
0000
0000
0100
,  // measure 42
0010
0000
0000
0000
,  // measure 43
1000
0000
0000
0000
,  // measure 44
0001
0000
0000
0000
,  // measure 45
0100
0000
0000
0000
,  // measure 46
0010
0000
0000
0000
,  // measure 47
1000
0000
0000
0000
,  // measure 48
0100
0000
0000
0000
,  // measure 49
0010
0000
0000
0000
,  // measure 50
0001
0000
0001
0000
,  // measure 51
1000
0000
1000
0000
,  // measure 52
0010
0000
0010
0000
,  // measure 53
1000
0000
1000
0000
,  // measure 54
0100
0000
0100
0000
,  // measure 55
0010
0000
0010
0000
,  // measure 56
0001
0000
0001
0000
,  // measure 57
0100
0000
0000
0000
,  // measure 58
1000
0000
0000
0000
,  // measure 59
0001
0000
1000
0000
,  // measure 60
0010
0000
0000
0000
,  // measure 61
0100
0000
0010
0000
,  // measure 62
1000
0000
0000
0000
,  // measure 63
0001
0000
0000
0000
,  // measure 64
1000
0000
0000
0000
,  // measure 65
0100
0000
1000
0000
,  // measure 66
0002
0000
0000
0000
,  // measure 67
0000
0000
0000
0000
,  // measure 68
0000
0000
0000
0000
,  // measure 69
0000
0000
0000
0000
,  // measure 70
1003
0000
0000
0000
,  // measure 71
0010
0000
0000
0000
,  // measure 72
1000
0000
0000
0000
,  // measure 73
0100
0000
0010
0000
,  // measure 74
0000
0000
0000
0000
,  // measure 75
0000
0000
0000
0000
,  // measure 76
0001
0000
0001
0000
,  // measure 77
1000
0000
1000
0000
,  // measure 78
0010
0000
0010
0000
,  // measure 79
0100
0000
0100
0000
,  // measure 80
0001
0000
0001
0000
,  // measure 81
1000
0000
1000
0000
,  // measure 82
0100
0000
0100
0000
,  // measure 83
0010
0000
0010
0000
,  // measure 84
0001
0000
0001
0000
,  // measure 85
0100
0000
0100
0000
,  // measure 86
0010
0000
0010
0000
,  // measure 87
1000
0000
1000
0000
,  // measure 88
0001
0000
0001
0000
,  // measure 89
0010
0000
0010
0000
,  // measure 90
0100
0000
0100
0000
,  // measure 91
1000
0000
1000
0000
,  // measure 92
0001
0000
0000
0000
,  // measure 93
1000
0000
0000
0000
,  // measure 94
0100
0000
0000
0000
,  // measure 95
0010
0000
0000
0000
,  // measure 96
0001
0000
0000
0000
,  // measure 97
0100
0000
0000
0000
,  // measure 98
0010
0000
0000
0000
,  // measure 99
1000
0000
0001
0000
,  // measure 100
1000
0000
0000
0000
;
