#TITLE:Synchronized Love J-Rap Jam;
#SUBTITLE:(Muv Your Body Mix);
#ARTIST:Joe Rinoie;
#TITLETRANSLIT:;
#SUBTITLETRANSLIT:;
#ARTISTTRANSLIT:;
#CREDIT:;
#BANNER:[Scrabble] - Synchronized Love J-Rap Jam (Muv Your Body Mix)-bn.PNG;
#BACKGROUND:[Scrabble] - Synchronized Love J-Rap Jam (Muv Your Body Mix)-bg.PNG;
#LYRICSPATH:;
#CDTITLE:Dance Mania J-Paradise.png;
#MUSIC:[Scrabble] - Synchronized Love J-Rap Jam (Muv Your Body Mix).mp3;
#OFFSET:-6.490;
#SAMPLESTART:51.211;
#SAMPLELENGTH:12.000;
#SELECTABLE:YES;
#BPMS:0.000=150.000;
#STOPS:;
#BGCHANGES:;

//---------------dance-single - ----------------
#NOTES:
     dance-single:
     :
     Hard:
     8:
     0.611,0.528,0.113,0.208,0.142: // measure 1
1000
0000
0010
0000
1000
0000
0100
0010
0000
0000
0001
0000
1000
0000
0010
1000
,  // measure 2
0010
1000
0100
0010
0001
0010
0001
0010
,  // measure 3
0100
0000
1000
0000
0010
0000
0100
0010
0000
0000
0100
0000
0001
0000
0100
0010
,  // measure 4
0100
0001
1000
0100
0010
0001
0010
0000
,  // measure 5
0001
0000
1000
0000
0100
0000
1000
0000
0001
0000
0000
0001
0000
0000
0100
0000
,  // measure 6
0020
0000
1030
0000
1000
0100
1000
0000
,  // measure 7
0001
0000
0010
0000
0100
0000
0010
0000
0100
0000
0000
0010
0000
0000
0010
0000
,  // measure 8
0002
0000
0103
0000
0001
1000
0010
0100
,  // measure 9
0002
0000
1003
0000
0100
1000
0010
0100
,  // measure 10
0010
0000
0100
0010
0000
0010
0000
0010
,  // measure 11
1000
0100
2000
0000
3001
0100
0020
0000
,  // measure 12
0130
0010
0100
0010
1000
0010
1000
0000
,  // measure 13
0001
0000
0010
0000
0100
0000
1000
0000
0001
0000
0000
0100
0000
0000
0010
0000
,  // measure 14
0200
0000
0301
0000
1000
0100
1000
0000
,  // measure 15
0010
0000
1000
0000
0001
0000
0100
0000
0010
0000
0000
0100
0000
0000
0010
0000
,  // measure 16
0000
1000
0100
1000
0100
0001
0100
1000
,  // measure 17
0002
0000
1003
0000
0100
0010
0100
0000
,  // measure 18
0100
1000
0100
0010
0001
0100
0010
0000
,  // measure 19
1000
0100
0010
0000
0010
0001
0100
0000
,  // measure 20
0100
0010
0001
1000
0100
0010
0001
0000
,  // measure 21
1001
0000
0001
1000
0001
0010
0100
0000
,  // measure 22
1010
0000
0010
1000
0001
0010
0100
0000
,  // measure 23
1100
0000
0100
1000
0100
0010
0001
0000
,  // measure 24
0011
0000
0010
0100
0010
0000
0010
0100
,  // measure 25
1000
0010
1000
0010
0000
1000
0101
0000
,  // measure 26
1000
0100
1000
0100
0000
0010
1100
0000
,  // measure 27
0100
0010
0001
0100
0000
1000
0010
0000
,  // measure 28
1000
1000
0001
0001
0100
0100
1001
0110
,  // measure 29
1001
0100
1000
0001
0010
0100
0100
1000
,  // measure 30
0001
0010
0100
0010
0100
1000
0001
1000
,  // measure 31
0010
0100
0010
1000
0100
1000
0001
0010
,  // measure 32
0200
0320
0032
2003
,  // measure 33
3010
1000
0100
1000
0100
0010
0001
1000
,  // measure 34
0010
0100
0001
1000
0100
0010
0001
1000
,  // measure 35
0001
1000
0010
0100
0010
1000
0001
0010
,  // measure 36
0002
0203
0320
2030
,  // measure 37
3010
0100
0001
0000
0001
0100
0010
2000
,  // measure 38
0000
3100
0010
0001
1000
0010
0100
0001
,  // measure 39
0010
0100
0020
0000
0130
0010
0001
2000
,  // measure 40
0000
3010
0100
0001
1000
0010
0100
0000
,  // measure 41
0002
1000
0100
0013
,  // measure 42
1000
0100
0010
0001
0100
0010
2000
0000
,  // measure 43
3001
0000
0100
0000
0010
0000
1000
0100
0000
0000
1000
0000
0010
0000
0100
0001
,  // measure 44
0100
0010
0100
0001
0100
0010
1000
0100
,  // measure 45
0010
0000
0001
0000
1000
0000
0100
1000
0000
0000
0010
0000
1000
0000
0001
0100
,  // measure 46
0010
0100
0001
1000
0100
0010
0001
1000
,  // measure 47
0010
0000
0100
0000
0001
0000
0010
0001
0000
0000
0010
0000
0100
0000
1000
0010
,  // measure 48
1000
0100
1000
0010
0100
0001
0010
0100
,  // measure 49
1000
0000
0010
0000
0100
0000
0001
0100
0000
0000
0010
0000
0100
0000
0001
0100
,  // measure 50
0010
1000
0100
0010
0001
1000
0100
1000
,  // measure 51
0010
0000
0010
0000
0010
0000
1000
0010
0000
0000
1000
0000
0001
0000
1000
0100
,  // measure 52
0010
0000
0001
0000
1000
0000
0100
0000
1000
0000
0100
1000
0000
0100
1000
0000
,  // measure 53
0001
0000
0001
0000
0001
0000
1000
0001
0000
0000
0100
0000
0001
0000
0100
0010
,  // measure 54
0100
0000
0001
0000
0100
0000
0010
0000
1000
0000
1000
0001
0000
1000
0001
0000
,  // measure 55
0010
0000
0010
0000
0010
0000
1000
0100
0000
0000
1000
0000
0001
0000
0100
0010
,  // measure 56
0100
0000
0001
0000
1000
0000
0010
0000
0100
0000
0010
1000
0000
0010
1000
0000
,  // measure 57
0010
0000
0010
0000
0010
0000
0100
0001
0000
0000
0001
0000
1000
0000
0001
0100
,  // measure 58
0010
0010
0100
0100
0001
0001
1000
0001
,  // measure 59
2002
0000
0000
0000
3003
0000
0110
1001
;

//---------------dance-single - ----------------
#NOTES:
     dance-single:
     :
     Medium:
     6:
     0.472,0.444,0.132,0.312,0.000: // measure 1
1000
0010
1000
0010
1000
0000
0001
0000
,  // measure 2
0100
0001
0100
0010
0100
0001
0100
0000
,  // measure 3
0001
0100
0010
0100
0020
0000
0130
0000
,  // measure 4
0001
0100
0001
0100
0001
0100
0001
0000
,  // measure 5
1000
0000
0010
0000
0100
0000
0001
0100
,  // measure 6
0002
0100
0010
0103
,  // measure 7
0010
0000
1000
0000
0100
0000
1000
0100
,  // measure 8
2000
0010
0100
3001
,  // measure 9
0010
0000
0100
0000
0001
0100
0001
0100
,  // measure 10
0002
0100
0010
0103
,  // measure 11
0002
1003
2000
3010
,  // measure 12
1010
1010
0101
0101
,  // measure 13
0002
1003
0020
0130
,  // measure 14
0001
0000
0100
0001
0100
0000
0001
0000
,  // measure 15
0020
0130
0200
0301
,  // measure 16
0010
0000
1000
0100
1000
0000
0001
1000
,  // measure 17
0002
0100
0010
0103
,  // measure 18
1001
0100
0001
0010
,  // measure 19
1001
0100
0001
0010
,  // measure 20
0011
0011
1100
1100
,  // measure 21
2001
0001
3001
0000
,  // measure 22
2002
0000
0000
3003
,  // measure 23
0120
0100
0130
0000
,  // measure 24
0220
0000
0000
0330
,  // measure 25
0001
0000
0001
0000
1000
1000
1000
0000
,  // measure 26
0001
0000
0100
0000
0010
0010
0010
0000
,  // measure 27
1000
0000
1000
0000
0001
0001
0001
0000
,  // measure 28
1000
1000
0001
0001
1000
1000
0001
0001
,  // measure 29
1000
0000
0001
0000
0100
0000
0010
0100
,  // measure 30
0001
0000
1000
0000
0100
0000
1000
0100
,  // measure 31
1000
0000
0010
0000
1000
0000
0100
1000
,  // measure 32
0100
1000
0200
0000
1000
0000
1300
0000
,  // measure 33
1000
0000
0001
0000
1000
0000
0010
1000
,  // measure 34
0020
0000
0130
0000
0001
0000
1000
0010
,  // measure 35
0200
0301
0100
0010
,  // measure 36
1000
0100
1000
0000
0001
0010
0001
0000
,  // measure 37
0002
0100
0010
0103
,  // measure 38
0100
0000
1000
0100
1000
0100
1000
0000
,  // measure 39
0020
0100
0001
1030
,  // measure 40
0010
1000
0100
0000
1000
0001
1000
0000
,  // measure 41
0002
0013
0200
1300
,  // measure 42
0002
0103
1000
0020
,  // measure 43
1030
0100
1000
0100
1000
0000
0001
0000
,  // measure 44
0010
1000
0010
0100
0010
1000
0010
0000
,  // measure 45
1000
0010
0100
0010
0200
0000
0310
0000
,  // measure 46
1000
0010
1000
0010
1000
0010
1000
0000
,  // measure 47
0001
1000
0100
1000
0100
0000
0010
0000
,  // measure 48
0001
0010
0001
1000
0001
0010
0001
0000
,  // measure 49
0010
0001
1000
0001
2000
0000
3001
0000
,  // measure 50
0010
0001
0010
0001
0010
0001
0010
0000
,  // measure 51
0010
0100
0010
0100
2000
0000
0100
0000
,  // measure 52
3010
1000
0100
1000
0010
0100
0001
0100
,  // measure 53
0010
0100
0001
0100
0020
0000
0100
0000
,  // measure 54
0130
0100
0001
0001
0100
0010
1000
0000
,  // measure 55
0002
0000
1000
0000
0013
0000
0001
0100
,  // measure 56
0010
1000
0100
0010
0001
0100
0001
0010
,  // measure 57
0200
0000
0010
0000
1300
0000
0010
0100
,  // measure 58
1000
1000
0001
0001
1000
1000
0001
0001
,  // measure 59
2000
0000
0000
3001
;

//---------------dance-single - ----------------
#NOTES:
     dance-single:
     :
     Easy:
     3:
     0.333,0.444,0.151,0.463,0.000: // measure 1
0001
0010
0200
0000
,  // measure 2
0010
0000
1000
1000
,  // measure 3
1300
0010
0200
0000
,  // measure 4
0010
0010
0001
0301
,  // measure 5
0001
0100
0010
1000
,  // measure 6
0200
0000
1000
1300
,  // measure 7
0001
0010
0100
0001
,  // measure 8
2000
0000
0001
3001
,  // measure 9
0020
0000
0000
0030
,  // measure 10
2000
0000
0000
3000
,  // measure 11
0002
0000
0203
0000
,  // measure 12
0310
0010
1000
0001
,  // measure 13
2002
0000
0000
0000
,  // measure 14
3003
0001
1000
0100
,  // measure 15
1000
0010
0100
0001
,  // measure 16
0010
0100
0100
1000
,  // measure 17
0020
0000
0000
0000
,  // measure 18
2030
0000
0000
0000
,  // measure 19
3002
0000
0203
0000
,  // measure 20
0310
1000
0100
1000
,  // measure 21
0022
0000
0000
0030
,  // measure 22
2000
0000
0000
3003
,  // measure 23
2020
0000
0000
0030
,  // measure 24
0200
3000
1300
0010
,  // measure 25
0200
0001
0001
0001
,  // measure 26
0320
1000
1000
1000
,  // measure 27
0230
0301
0002
0103
,  // measure 28
1001
0110
1001
0110
,  // measure 29
1001
0100
1000
0010
,  // measure 30
0100
0001
0010
0100
,  // measure 31
1000
0010
0001
0010
,  // measure 32
1000
0200
0010
0310
,  // measure 33
1001
0020
0130
0200
,  // measure 34
1300
0010
0100
0001
,  // measure 35
0100
1000
0010
0001
,  // measure 36
0020
1000
1000
1030
,  // measure 37
2002
0000
0000
3003
,  // measure 38
0100
1000
0010
0100
,  // measure 39
0022
0000
0000
0033
,  // measure 40
0100
1000
0010
0100
,  // measure 41
0002
0000
0100
0103
,  // measure 42
0020
0000
1000
1030
,  // measure 43
0010
1000
0002
0000
,  // measure 44
0010
0100
1000
1000
,  // measure 45
0103
1000
0002
0000
,  // measure 46
1000
1000
0100
0103
,  // measure 47
0100
0001
2000
0000
,  // measure 48
0100
0010
0001
0001
,  // measure 49
3010
0001
2000
0000
,  // measure 50
0001
0001
0010
3010
,  // measure 51
0200
0300
0000
0000
0000
0000
0000
0000
0000
0000
0000
0000
0000
0000
0000
0000
0000
0000
0000
0000
0000
0000
0000
0000
0000
0000
0000
0000
0000
0000
0000
0000
0000
0000
0000
0000
0000
0000
0000
0000
0000
0000
0000
0000
0000
0000
0000
0000
0010
0000
0000
0000
0000
0000
0000
0000
0000
0000
0000
0000
0000
0000
0000
0000
0000
0000
0000
0000
0000
0000
0000
0000
0000
0000
0000
0000
0000
0000
0000
0000
0000
0000
0000
0000
0000
0000
0000
0000
0000
0000
0000
0000
0000
0000
0000
0000
2002
0000
0000
0000
0000
0000
0000
0000
0000
0000
0000
0000
0000
0000
0000
0000
0000
0000
0000
0000
0000
0000
0000
0000
0000
0000
0000
0000
0000
0000
0000
0000
0000
0000
0000
0000
0000
0000
0000
0000
0000
0000
0000
0000
0000
0000
0000
0000
3003
0000
0000
0000
0000
0000
0000
0000
0000
0000
0000
0000
0000
0000
0000
0000
0000
0000
0000
0000
0000
0000
0000
0000
0000
0000
0000
0000
0000
0000
0000
0000
0000
0000
0000
0000
0000
0000
0000
0000
0000
0000
0000
0000
0000
0000
0000
0000
,  // measure 52
0010
0010
0100
0100
,  // measure 53
0001
0010
0022
0033
,  // measure 54
0100
1000
0010
0100
,  // measure 55
0100
1000
2200
3300
,  // measure 56
0001
0010
0100
0001
,  // measure 57
0010
0100
0220
0330
,  // measure 58
0001
0001
1000
1000
,  // measure 59
2002
0000
0000
3003
;
